#TITLE:CLUE;
#SUBTITLE:;
#ARTIST:TRANSIN;
#TITLETRANSLIT:;
#SUBTITLETRANSLIT:;
#ARTISTTRANSLIT:;
#GENRE:TRANCE;
#CREDIT:;
#BANNER:CLUE.png;
#BACKGROUND:CLUE-bg.png;
#LYRICSPATH:;
#CDTITLE:;
#MUSIC:CLUE.mp3;
#OFFSET:-0.240000;
#SAMPLESTART:72.188583;
#SAMPLELENGTH:13.714287;
#SELECTABLE:YES;
#BPMS:0.000000=140.000000
,100.000000=70.000000
,116.000000=140.000000
;
#STOPS:100.000000=1.714000,
116.000000=1.714000
;
#BGCHANGES:;
#KEYSOUNDS:;
#ATTACKS:;

//---------------dance-single - ----------------
#NOTES:
     dance-single:
     :
     Hard:
     11:
     0.463691,0.546412,0.061741,0.141123,0.211685,368.000000,361.000000,7.000000,16.000000,0.000000,0.000000,0.463691,0.546412,0.061741,0.141123,0.211685,368.000000,361.000000,7.000000,16.000000,0.000000,0.000000:
0000
0000
0000
0000
,
0000
0000
0000
0000
,
0000
0000
0000
0000
,
0000
0000
0000
0000
,
0000
0000
0000
0000
,
1200
1000
1000
1300
,
0201
0001
0001
0301
,
1200
1300
0201
0301
,
1020
1030
0021
0031
,
1000
0000
0000
1000
0001
0000
0100
0000
0010
0000
0000
0010
0100
0000
0001
0000
,
1000
0000
0000
1000
0010
0000
0100
0000
0001
0000
0000
0001
0000
1000
0001
0000
,
0100
0000
0000
0100
0001
0000
1000
0000
0010
0000
0000
0010
1000
0000
0001
0000
,
0100
0000
0000
0100
0010
0000
1000
0000
0001
0000
0100
0000
0001
1000
0000
1000
,
0001
0000
0000
0001
0100
0000
0010
0000
1000
0000
0000
1000
0010
0000
0100
0000
,
0001
0000
0000
0001
1000
0000
0010
0000
0100
0000
0000
0001
0000
0001
1000
0000
,
0010
0000
0000
0010
0100
0000
0001
0000
1000
0000
0000
1000
0001
0000
0100
0000
,
0010
0000
0000
0010
1000
0000
0100
0000
0010
0000
0001
0000
1000
0100
0000
0100
,
1000
0000
0000
1000
0001
0000
0000
0001
0100
0000
0000
0100
0010
0000
0000
0010
,
1000
0000
0000
1000
0100
0000
1000
0000
0100
0000
0000
0010
0000
1000
0001
0000
,
0100
0000
0000
0100
0010
0000
0000
0010
1000
0000
0000
1000
0100
0000
0000
0100
,
0001
0000
0000
0001
0100
0000
0010
0000
1000
0000
0100
0000
0010
1000
0000
1000
,
0010
0100
1000
0100
0010
1000
0100
0010
,
0001
0010
0100
1000
0100
0001
0010
1000
,
0100
0010
0100
0010
1000
0001
1000
0001
,
1000
0100
0010
0001
1000
0100
0010
0001
,
0200
0300
0000
0000
0000
0000
0020
0000
0000
0000
0000
0000
0000
0000
0000
0000
0000
0000
0000
0000
0000
0000
0000
0000
2030
0000
0000
0000
0000
0000
0000
0000
0000
0000
0000
0000
0000
0000
0000
0000
0000
0000
0000
0000
0000
0000
0000
0000
,
3002
0000
2003
0000
,
3010
0000
0100
0010
0000
1000
0000
0002
,
2000
0000
0000
0003
0020
0000
0000
0000
,
0000
3030
0000
0000
0000
0000
0000
0000
0010
0000
0000
0000
0100
0000
0000
0000
1000
0000
0000
0000
0100
0000
0000
0000
0010
0000
0000
0000
0100
0000
0000
0000
,
0000
0001
0100
1000
0100
0010
0100
1000
,
0000
0001
0100
0000
1000
0000
0001
0100
,
0000
0010
1000
0010
0100
0001
0100
0001
,
0000
1000
0100
0001
0100
0010
0100
0010
,
0000
0001
0100
1000
0010
0100
0010
0100
,
0010
1000
0010
0100
0001
0100
0010
1000
,
0010
0100
1000
0001
0100
0010
1000
0000
,
0010
0100
0000
0001
1000
0001
1000
0010
,
0000
0100
0001
0100
0010
1000
0010
0100
,
0000
1000
0010
1000
0001
0000
1000
0100
,
0000
0001
0010
0100
0010
0100
0001
1000
,
0000
0010
1000
0100
1000
0000
0001
0100
,
0000
0010
1000
0010
0100
0001
0100
0010
,
0000
1000
0001
1000
0100
0000
1000
0010
,
0000
0000
0100
0000
0001
0000
0100
0000
0010
0100
0010
0000
0100
0000
0010
0000
,
0000
1000
0100
0001
0010
0100
1000
0100
,
0000
0001
0010
1000
0100
0010
0001
0010
,
0000
1000
0001
0100
0010
1000
0100
0010
,
0000
0001
1000
0010
0100
0001
0010
0100
,
0000
1000
0001
1000
0010
1000
0100
1000
,
0000
0001
1000
0001
0100
0001
0010
0001
,
1000
0100
1000
0001
1000
0010
0100
0010
,
0001
0010
0001
1000
0001
0010
0100
1000
,
0001
0000
0100
0000
0000
0001
0000
0001
0100
0000
0010
0000
0000
1000
0000
1000
,
0010
0000
0100
0000
0000
0001
0000
0001
1000
0000
0010
0000
0100
0000
0001
0000
,
1000
0000
0010
0000
0000
0100
0000
0100
0001
0000
1000
0000
0000
0010
0000
0010
,
0100
0000
0001
0000
1000
0000
0001
0000
1000
0001
1000
0001
1000
0001
1000
0000
,
2002
0000
0000
0000
,
0000
0000
0000
0000
,
3003
0000
0000
0000
;

//---------------dance-double - ----------------
#NOTES:
     dance-double:
     :
     Hard:
     11:
     0.446051,0.468353,0.202865,0.176404,0.110253,354.000000,331.000000,23.000000,20.000000,0.000000,0.000000,0.446051,0.468353,0.202865,0.176404,0.110253,354.000000,331.000000,23.000000,20.000000,0.000000,0.000000:
// measure 0
00000000
00000000
00000000
00000000
,  // measure 1
00000000
00000000
00000000
00000000
,  // measure 2
00000000
00000000
00000000
00000000
,  // measure 3
00000000
00000000
00000000
00000000
,  // measure 4
00000000
00000000
00000000
00000000
,  // measure 5
00100000
00100000
00100000
00100000
,  // measure 6
00001000
00001000
00001000
00001000
,  // measure 7
00101000
00010010
00101000
00010010
,  // measure 8
01000000
00010000
00100000
00001000
00010000
00000010
00000100
00000001
,  // measure 9
00001000
00000000
00001001
00000000
00010000
00001000
00000200
00000300
,  // measure 10
00001000
00010000
00100000
00010000
00001000
01000000
00010000
10000000
,  // measure 11
00100000
00000000
01100000
00000000
00001000
00100000
00020000
00030000
,  // measure 12
00100000
00001000
00010000
00000100
00010000
00000010
00000100
00001000
,  // measure 13
00010000
00000000
00011000
00000000
00010000
00000010
00002000
00003000
,  // measure 14
00000100
00010000
00001000
00010000
00001000
00100000
00010000
01000000
,  // measure 15
00100000
00000000
10010000
00000000
00100000
00000000
00002000
00003000
,  // measure 16
00010000
00000100
00001000
00000010
00000100
00000001
00001000
00000010
,  // measure 17
00000100
00000000
00000000
00000100
00000001
00000000
00000000
00000001
00001000
00000000
00000000
00001000
00000010
00000000
00000000
00000010
,  // measure 18
00000100
00000000
00000000
00000100
00000000
00000000
00000010
00000000
00001000
00000000
00000100
00000000
00010000
00000000
00001000
00000000
,  // measure 19
00100000
00000000
00000000
00100000
00010000
00000000
00000000
00010000
01000000
00000000
00000000
01000000
00100000
00000000
00000000
00100000
,  // measure 20
10000000
00000000
00000000
10000000
00000000
00000000
01000000
00000000
00100000
00000000
00010000
00000000
00001000
00000000
00000000
00000000
,  // measure 21
00010000
00000000
00000000
00010000
00001000
00000000
00000000
00000000
00001000
00000000
00000000
00001000
00000001
00000000
00000000
00000000
,  // measure 22
00000001
00000000
00000000
00000001
00000100
00000000
00000010
00000000
00001000
00000000
00000100
00000000
00010000
00000000
00001000
00000000
,  // measure 23
00010000
00001000
01000000
00000000
00100000
10000000
01000000
00000000
,  // measure 24
00100000
00010000
00001000
00000100
,  // measure 25
00002002
00003003
00000000
00000020
00000000
00000000
00000000
00000000
00000000
00000000
00000000
00000000
00002030
00000000
00000000
00000000
00000000
00000000
00000000
00000000
00000000
00000000
00000000
00000000
,  // measure 26
00003200
00000000
00020300
00032000
,  // measure 27
00203000
00000000
00310000
02000000
00000000
03100000
10000000
02000000
,  // measure 28
00200000
03000000
00002000
00300000
,  // measure 29
00020000
00033000
00000000
00000000
00000000
00000000
00001001
00000000
00000000
00000000
00000000
00000000
00000100
00000000
00000000
00000010
00000000
00000000
00000100
00000000
00000000
00001000
00000000
00000000
,  // measure 30
00000100
00000001
00001000
00000100
00000010
00000001
00000100
00001000
,  // measure 31
02000000
03000000
00010000
10000000
00100000
01000000
00100000
10000000
,  // measure 32
00100000
10000000
00010000
00100000
01000000
10000000
00100000
01000000
,  // measure 33
00001000
00010000
00000010
00000100
00000010
00000001
00001000
00000100
,  // measure 34
00000010
00000100
00001000
00000100
00000001
00001000
00000100
00001000
,  // measure 35
00000100
00010000
00001000
00100000
00010000
01000000
00100000
10000000
,  // measure 36
01000000
00100000
00000000
00010000
00001000
00000100
00000010
00000001
,  // measure 37
00000100
00001000
00000000
00000100
00010000
00001000
00100000
00010000
,  // measure 38
00000000
01000000
00000000
00100000
10000000
01000000
00100000
00010000
,  // measure 39
00000000
00100000
00000000
00001000
00010000
00001000
00010000
00000100
,  // measure 40
00000000
00001000
00000000
00000010
00000100
00000001
00001000
00000010
,  // measure 41
00000000
00000001
00000100
00001000
00000100
00000000
00000010
00001000
,  // measure 42
00000000
00000100
00010000
00001000
00100000
00010000
01000000
10000000
,  // measure 43
00000000
10000000
00100000
01000000
00010000
00000000
00100000
00001000
,  // measure 44
00000000
00010000
00000000
00000010
00001000
00000001
00000100
00001001
,  // measure 45
00000000
00000001
00000010
00000100
00001100
00000000
00000100
00010000
,  // measure 46
00000000
00011000
00000000
00001000
00100000
00010000
01000000
00010000
,  // measure 47
00000000
10000000
01000000
00100000
00110000
00000000
01000000
01010000
,  // measure 48
00000000
00011000
00000000
00010000
00000010
00001000
00000001
00000100
,  // measure 49
00000000
00000101
00000000
00001100
00000100
00001000
00000100
00010100
,  // measure 50
00000000
00011000
00000000
00001000
00100000
00010000
01000000
01100000
,  // measure 51
00000000
01000000
00010000
00100000
00001000
00000000
00010000
00000100
,  // measure 52
00001000
00000100
00000010
00000001
00000010
00000100
00001000
00001001
,  // measure 53
00000100
00000000
00000001
00000000
00000000
00000100
00000000
00000100
00000010
00000000
00001000
00000000
00000000
00000100
00000000
00000100
,  // measure 54
00010000
00000000
00001000
00000000
00000000
00100000
00000000
00100000
00010000
00000000
00100000
00000000
01000000
00000000
10000000
00000000
,  // measure 55
00100000
00000000
01000000
00000000
00000000
00100000
00000000
00100000
00001000
00000000
00010000
00000000
00000000
00000100
00000000
00000100
,  // measure 56
00001000
00000000
00000010
00000000
00000000
00000001
00000000
00000001
00000100
00000000
00000010
00000000
00010000
00000000
00001000
00000000
,  // measure 57
00022000
00000000
00000000
00000000
,  // measure 58
00000000
00000000
00000000
00000000
,  // measure 59
00033000
00000000
00000000
00000000
;

//---------------dance-single - ----------------
#NOTES:
     dance-single:
     :
     Medium:
     9:
     0.381789,0.468353,0.405730,0.105843,0.000000,303.000000,257.000000,46.000000,12.000000,0.000000,0.000000,0.381789,0.468353,0.405730,0.105843,0.000000,303.000000,257.000000,46.000000,12.000000,0.000000,0.000000:
0000
0000
0000
0000
,
0000
0000
0000
0000
,
0000
0000
0000
0000
,
0000
0000
0000
0000
,
0000
0000
0000
0000
,
1000
1100
0001
0101
,
1000
1100
0001
0011
,
1010
0101
1010
0101
,
0010
0000
1001
0000
0010
0100
0010
0000
,
0001
0010
0001
0000
1000
0100
1000
0000
,
0001
0100
0001
0000
1000
0010
1000
0000
,
0010
0100
0010
0000
0100
0010
0100
0000
,
0001
0010
0001
0000
1000
0100
1000
0000
,
0001
0010
0100
0000
0001
0010
0001
0000
,
1000
0100
0010
0000
1000
0100
1000
0000
,
0001
0100
0001
0000
1000
0010
1000
0000
,
0010
0100
0010
0000
1000
0001
1000
0000
,
1100
1001
0101
1001
,
1100
1001
0101
1001
,
1010
1001
0011
1001
,
1010
1001
0011
1001
,
0010
0100
0010
0000
0100
0010
0100
0000
,
1000
0001
1000
0000
0001
1000
0001
0000
,
1000
0100
1000
0000
0001
0100
0001
0000
,
1000
0100
0010
0000
0001
1000
0100
0000
,
2002
3003
0000
0000
0000
0000
0000
0000
0000
0000
0000
0000
0020
0000
0000
0000
0000
0000
0000
0000
0000
0000
0000
0000
,
2030
0000
3002
0000
,
0203
0000
0320
0000
,
2030
3002
0203
0020
,
0000
0000
0030
0300
0000
0000
0000
0000
0000
0000
0000
0000
1001
0000
0000
0000
0000
0000
0000
0000
0000
0000
0000
0000
0000
0000
0000
0000
0000
0000
0010
0000
0000
0000
0000
0000
0110
0000
0000
0000
0000
0000
0000
0000
0000
0000
0000
0000
,
1000
0000
1001
0000
0000
0010
0110
0000
,
0001
0000
1001
0000
0000
0100
0101
0000
,
1000
0000
1001
0000
0000
1000
1100
0000
,
0100
0000
0101
0000
0000
0010
0110
0000
,
0010
0000
1010
0000
0000
0100
0110
0000
,
0100
0000
1001
0000
0000
0010
1010
0000
,
0100
0001
0000
1000
0100
0000
0001
0100
,
0000
0010
0000
0010
1000
0000
0001
0100
,
0000
0010
0000
0010
1000
0000
0100
1000
,
0000
0001
0000
0001
1000
0000
0010
0100
,
0000
1000
0000
1000
0100
0000
0010
0001
,
0000
0100
0000
0100
0010
0000
1000
0001
,
0000
0010
0000
0010
0001
0000
1000
0100
,
0000
0010
0000
0010
1000
0000
0001
0100
,
0000
0010
0000
0010
1000
0010
0100
0010
,
0000
1000
0000
1000
0100
0000
1000
0100
,
0000
0001
0000
0001
0100
0001
0010
0001
,
0000
1000
0000
0010
0100
0000
0010
0100
,
0000
0001
0000
1000
0010
1000
0100
1000
,
0000
0010
0100
0001
0100
0000
0010
0100
,
0000
0100
0010
0100
0001
0000
0010
1000
,
0000
0100
1000
0100
0010
0000
1000
0001
,
0000
0010
0100
0010
0100
0001
0100
0000
,
0110
0010
1001
0010
,
0101
0010
1100
0010
,
0100
0001
0101
0000
0100
0001
0101
0000
,
1000
0100
1000
0000
0001
0010
0100
0010
,
0002
0000
0000
0000
,
0000
0000
0000
0000
,
0003
0000
0000
0000
;

//---------------dance-double - ----------------
#NOTES:
     dance-double:
     :
     Medium:
     9:
     0.388089,0.442333,0.670336,0.070562,0.000000,308.000000,232.000000,76.000000,8.000000,0.000000,0.000000,0.388089,0.442333,0.670336,0.070562,0.000000,308.000000,232.000000,76.000000,8.000000,0.000000,0.000000:
00000000
00000000
00000000
00000000
,
00000000
00000000
00000000
00000000
,
00000000
00000000
00000000
00000000
,
00000000
00000000
00000000
00000000
,
00000000
00000000
00000000
00000000
,
00010000
00010000
00010000
00010000
,
00001000
00001000
00001000
00001000
,
00011000
00011000
00011000
00011000
,
00001000
00000100
00000010
00000001
,
00000100
00001001
00000100
00001001
,
00000010
00000000
00001001
00000000
00000010
00000100
00010000
00000000
,
00001000
00101000
00100000
00110000
,
00010000
00000000
01010000
00000000
00100000
10000000
01000000
00000000
,
10000000
10100000
00010000
01010000
,
00100000
00000000
01100000
00000000
01000000
00100000
01000000
00000000
,
00001000
00011000
00010000
00010100
,
00000100
00000000
00001100
00000000
00001000
00000100
00000010
00000000
,
00000101
00000101
00001100
00001100
,
00000101
00000000
00000101
00000000
00000010
00000100
00010000
00000000
,
00011000
00011000
00101000
00101000
,
00110000
00000000
00110000
00000000
10000000
01000000
00100000
00000000
,
11000000
01100000
11000000
01100000
,
00100000
00001000
00010000
00000000
00010000
00000100
00001000
00000000
,
00001100
00001100
00000110
00000110
,
00000001
00000010
00000001
00000000
00001000
00000100
00010000
00000000
,
00022000
00033000
00000000
00000000
00000000
00000000
00001000
00000000
00000000
00000000
00000000
00000000
00100000
00000000
00000000
00000000
00000000
00000000
00010000
00000000
00000000
00000000
00000000
00000000
,
02000000
03000000
00200000
00300000
,
10000000
01000000
00100000
00001000
,
00020000
00030000
00002000
00003000
,
00000000
00000000
00011000
00000000
00000100
00000000
00001000
00000100
,
00000000
00000001
00000000
00000100
00000010
00000000
00001001
00000000
,
00000000
00000000
00001010
00000000
00000100
00000000
00010000
00001000
,
00000000
00100000
00000000
00010000
01000000
00000000
01010000
00000000
,
11000000
00000000
01010000
00000000
01100000
00000000
10000000
00010000
,
00000000
01000000
00000000
00100000
01000000
00000000
01100000
00000000
,
00110000
00000000
00011000
00000000
00010100
00000000
00001000
00000100
,
00000000
00000010
00000000
00000001
00000100
00000000
00001001
00000000
,
00000010
00001001
00000100
00001001
,
00000010
00001000
00000000
00000100
00010000
00000000
00001000
00100000
,
00001000
00101000
00100000
00110000
,
01000000
00100000
00000000
10000000
00100000
01000000
00010000
00000000
,
10000000
10100000
01000000
01010000
,
00100000
00001000
00000000
00010000
00001000
00000000
00010000
00000100
,
00001000
00001010
00001000
00001001
,
00000010
00000100
00000000
00000001
00000100
00000000
00000010
00001000
,
00000010
00001010
00010000
00010010
,
00010000
00000000
00011000
00000000
00001000
00100000
00010000
00000000
,
01000000
01010000
00100000
00101000
,
00010000
00000000
00011000
00000000
00010000
00000100
00001000
00000100
,
00001000
00001010
00000010
00000110
,
00000100
00000000
00000101
00000000
00000001
00000010
00000100
00000000
,
00000100
00010100
00010000
00011000
,
00001000
00000000
01001000
00000000
01000000
00010000
00100000
00000000
,
10000000
11000000
01000000
01100000
,
00100000
00101000
00001000
00011000
,
00010000
00010010
00000010
00000110
,
00000100
00000001
00000100
00000000
00000010
00010000
00000010
00000000
,
00022000
00000000
00000000
00000000
,
00000000
00000000
00000000
00000000
,
00033000
00000000
00000000
00000000
;

//---------------dance-single - ----------------
#NOTES:
     dance-single:
     :
     Beginner:
     3:
     0.152464,0.234177,0.061741,0.017640,0.000000,121.000000,114.000000,7.000000,2.000000,0.000000,0.000000,0.152464,0.234177,0.061741,0.017640,0.000000,121.000000,114.000000,7.000000,2.000000,0.000000,0.000000:
0000
0000
0000
0000
,
0000
0000
0000
0000
,
0000
0000
0000
0000
,
0000
0000
0000
0000
,
0000
0000
0000
0000
,
0010
0000
0010
0000
,
0010
0000
0010
0000
,
0001
0000
0001
0000
,
1000
0000
1000
0000
,
0100
0000
0100
0000
,
0100
0000
0001
0001
,
0001
0000
1000
0000
,
1000
0000
0010
0010
,
0010
0000
1000
0000
,
0001
0000
0100
0100
,
0100
0000
0001
0000
,
1000
0000
0010
0010
,
0000
0001
0000
0001
,
0000
0001
0001
0001
,
0000
1000
0000
1000
,
0000
1000
1000
1000
,
0000
0010
0000
0010
,
0000
0010
0010
0010
,
0000
0100
0000
0100
,
0000
0100
0100
0100
,
0000
0000
0000
0000
,
0010
0000
0000
0000
,
1000
0000
0000
0000
,
0001
0000
0000
0000
,
0000
0010
0000
0010
,
0000
0100
0000
0100
,
0000
0010
0000
0010
,
0000
0100
0000
0100
,
0000
0001
0000
0001
,
0000
1000
0000
1000
,
0000
0001
0000
0001
,
0000
0000
0000
0000
,
0000
0010
0010
0010
,
0000
0000
0100
0100
,
0000
0001
0001
0001
,
0000
0000
1000
1000
,
0000
0010
0010
0010
,
0000
0000
0100
0100
,
0000
0010
0010
0010
,
0000
0000
1000
1000
,
0000
0001
0001
0001
,
0000
0000
1001
1001
,
0000
1000
1000
1000
,
0000
0000
1001
1001
,
0000
0010
0010
0010
,
0000
0000
0110
0110
,
0000
0100
0100
0100
,
0000
0010
0010
0010
,
0000
1000
0000
1000
,
0000
0001
0000
0001
,
0000
0100
0000
0100
,
0000
0010
0000
0000
,
2002
0000
0000
0000
,
0000
0000
0000
0000
,
3003
0000
0000
0000
;

//---------------dance-single - ----------------
#NOTES:
     dance-single:
     :
     Easy:
     4:
     0.235626,0.286216,0.176404,0.079382,0.000000,187.000000,167.000000,20.000000,9.000000,0.000000,0.000000,0.235626,0.286216,0.176404,0.079382,0.000000,187.000000,167.000000,20.000000,9.000000,0.000000,0.000000:
0000
0000
0000
0000
,
0000
0000
0000
0000
,
0000
0000
0000
0000
,
0000
0000
0000
0000
,
0000
0000
0000
0000
,
0100
0000
0100
0000
,
0010
0000
0010
0000
,
1000
0000
0001
0000
,
1000
0000
0001
0000
,
0100
0100
0010
0010
,
0100
0100
0010
0010
,
1000
1000
0001
0001
,
1000
1000
0001
0001
,
0100
0100
0010
0010
,
1000
1000
0001
0001
,
0100
0100
0010
0010
,
1000
1000
0001
0001
,
1001
0000
1001
0000
,
1001
0000
1001
0000
,
0110
0000
0110
0000
,
0110
0000
0110
0000
,
0010
0010
0010
0010
,
0010
0010
0010
0010
,
0001
1000
0001
1000
,
0010
0100
0001
1000
,
1001
0000
0020
0000
,
0230
0000
0302
0000
,
2003
0000
3002
0000
,
0203
0000
0320
0000
,
0030
0000
1000
0000
,
0001
0010
0001
0000
,
1000
0000
0001
0000
,
1000
0100
1000
0000
,
0010
0000
0100
0000
,
0001
0100
0001
0000
,
0100
0000
0010
0000
,
1000
0010
1000
0000
,
0001
1000
0001
1000
,
0100
0100
0100
0100
,
1000
0001
1000
0001
,
0010
0010
0010
0010
,
0001
1000
0010
0100
,
0001
0001
0001
0001
,
1000
0001
0100
0010
,
1000
1000
1000
1000
,
0001
0100
0010
1000
,
0010
0010
0010
1001
,
1000
0010
0100
0001
,
0100
0100
0100
1001
,
0010
0100
0001
1000
,
0100
0100
0001
1001
,
0100
0010
1000
0001
,
0100
0100
1000
1001
,
0010
1001
0000
1001
,
0000
0110
0000
0110
,
0000
1001
0000
1001
,
1000
0100
0010
0001
,
2002
0000
0000
0000
,
0000
0000
0000
0000
,
3003
0000
0000
0000
;

//---------------dance-double - ----------------
#NOTES:
     dance-double:
     :
     Easy:
     4:
     0.233106,0.260196,0.167584,0.097022,0.000000,185.000000,166.000000,19.000000,11.000000,0.000000,0.000000,0.233106,0.260196,0.167584,0.097022,0.000000,185.000000,166.000000,19.000000,11.000000,0.000000,0.000000:
00000000
00000000
00000000
00000000
,
00000000
00000000
00000000
00000000
,
00000000
00000000
00000000
00000000
,
00000000
00000000
00000000
00000000
,
00000000
00000000
00000000
00000000
,
00010000
00000000
00010000
00000000
,
00001000
00000000
00001000
00000000
,
00010000
00000000
00010000
00000000
,
00001000
00000000
00001000
00000000
,
00000010
00000100
00000010
00000100
,
00000010
00000010
00000100
00000100
,
00010000
00001000
00010000
00001000
,
00010000
00010000
00001000
00001000
,
01000000
00100000
01000000
00100000
,
01000000
01000000
00100000
00100000
,
10000000
00010000
10000000
00010000
,
00100000
00100000
00001000
00001000
,
00000000
00011000
00000000
00011000
,
00000000
00001001
00000000
00001001
,
00000000
00011000
00000000
00011000
,
00000000
10010000
00000000
10010000
,
00100000
00100000
00001000
00010000
,
00000100
00000100
00010000
00001000
,
00100000
00100000
00001000
00010000
,
00000100
00000100
00010000
00001000
,
00022000
00033000
00000000
00000000
00000000
00000000
00000000
00000000
00000000
00000000
00000000
00000000
00002000
00000000
00000000
00000000
00000000
00000000
00000000
00000000
00000000
00000000
00000000
00000000
,
00003020
00000000
00002030
00000000
,
02003000
00000000
03002000
00000000
,
00023000
00000000
00002000
00000000
,
00033000
00001000
00000000
00010000
,
00000000
00001000
00010000
00001000
,
00000000
00100000
00000000
00010000
,
00000000
10000000
01000000
00100000
,
00000000
01000000
00000000
00010000
,
00000000
00100000
00001000
00010000
,
00000000
00010000
00000000
00000010
,
00000000
00000100
00000010
00001001
,
00000010
00000010
00000100
00000100
,
00000001
00001000
00000001
00001000
,
00000100
00000100
00000010
00000010
,
00010000
00001000
00010000
00001000
,
01000000
01000000
00100000
00100000
,
10000000
00010000
10000000
00010000
,
00100000
00100000
01000000
01000000
,
00001000
00010000
00001000
00010000
,
00000010
00000100
00000010
00000100
,
00000001
00000010
00000100
00001000
,
00000100
00000100
00010000
00010000
,
00001000
00010000
00001000
01000000
,
01000000
00100000
01000000
00100000
,
10000000
01000000
00100000
00010000
,
00100000
00100000
00001000
00001000
,
00010000
00001000
00010000
00000100
,
00001000
00001001
00000000
00001001
,
00000000
00011000
00000000
00011000
,
00000000
10010000
00000000
10010000
,
00000000
00011000
00000000
00011000
,
00022000
00000000
00000000
00000000
,
00000000
00000000
00000000
00000000
,
00033000
00000000
00000000
00000000
;
