#TITLE:禍根OVERKILL (Dalton DJ Mix);
#SUBTITLE:;
#ARTIST:U-R-LxTDRTM;
#TITLETRANSLIT:CALAMITY OVERKILL (Dalton DJ Mix);
#SUBTITLETRANSLIT:;
#ARTISTTRANSLIT:;
#GENRE:;
#CREDIT:;
#MENUCOLOR:;
#METERTYPE:DDR;
#BANNER:CALAMITY OVERKILL (Dalton DJ Mix).png;
#BACKGROUND:CALAMITY OVERKILL (Dalton DJ Mix)-jacket.png;
#LYRICSPATH:;
#CDTITLE:;
#MUSIC:CALAMITY OVERKILL (Dalton DJ Mix).ogg;
#OFFSET:0.005;
#SAMPLESTART:81.280;
#SAMPLELENGTH:12.430;
#SELECTABLE:YES;
#LISTSORT:;
#DISPLAYBPM:96.000:192.000;
#BPMS:0.000=192.000,104.000=96.000,112.000=192.000,160.000=96.000,176.000=192.000,235.000=96.000,237.000=192.000,268.000=768.000,272.000=96.000,280.000=192.000;
#STOPS:206.750=0.313
;
#BGCHANGES:;
#ATTACKS:;

//---------------dance-single - ----------------
#NOTES:
     dance-single:
     :
     Hard:
     17:
     0.954,1.000,0.392,0.373,0.999: // measure 1
0000
0000
0000
0000
,  // measure 2
0000
0000
0000
0000
,  // measure 3
0000
0000
0000
0000
,  // measure 4
0000
0000
0000
0000
,  // measure 5
0010
0000
0100
0000
0010
0000
0100
0010
,  // measure 6
0000
0100
0000
0000
0000
0000
0000
0000
,  // measure 7
1000
0000
0000
0000
0001
0000
0000
0000
1000
0000
0000
0000
0001
0100
0001
0100
,  // measure 8
0001
0000
0000
0000
0100
0000
0000
0000
0001
0100
0001
0100
0010
1000
0010
1000
,  // measure 9
0020
0000
0000
0000
1030
0100
0010
0001
,  // measure 10
0000
0100
0000
0010
0000
0000
1000
0001
,  // measure 11
1000
0000
1000
0000
0001
0010
0100
1000
,  // measure 12
0100
0000
0100
0000
1000
0100
0010
0001
,  // measure 13
0010
0000
0000
0000
0010
0000
0000
0000
1000
0010
1000
0010
0100
0001
0100
0001
,  // measure 14
0020
0000
0000
0000
0030
0000
0000
0000
0001
0100
0001
0100
0010
0000
0100
0000
,  // measure 15
0100
0100
0100
0100
,  // measure 16
0010
0010
0010
0010
,  // measure 17
1000
0000
0000
0000
0001
0000
0000
0000
1000
0000
0000
0001
0000
0000
1000
0000
,  // measure 18
0001
0100
0001
1000
0010
1000
0001
0100
0001
0000
0000
1001
0000
0000
0110
0000
,  // measure 19
0100
0000
0000
0000
0100
0000
0000
0000
0001
0000
0000
1000
0000
0000
0001
0000
,  // measure 20
0010
0001
0100
1000
0010
0100
0010
0001
,  // measure 21
1000
0000
0000
0000
1000
0000
0000
0000
2000
0000
0000
3020
0000
0000
0230
0000
,  // measure 22
0301
0010
0001
0010
1000
0100
1000
0100
0020
0000
0000
0230
0000
0000
0310
0000
,  // measure 23
1000
0100
0010
0001
0001
0010
0100
1000
,  // measure 24
0001
0000
0100
0000
0010
0000
1000
0000
0100
0000
0010
0000
0001
1000
0001
1000
,  // measure 25
0002
0000
0000
0003
,  // measure 26
0010
0100
1000
1001
,  // measure 27
0220
0000
0000
0330
0000
0000
1010
0000
0101
0000
1001
0000
,  // measure 28
0220
0000
0000
0330
0000
0000
0011
0000
0011
0000
1001
0000
,  // measure 29
2200
0000
3300
0000
,  // measure 30
0010
0100
0010
0000
1000
0010
1000
0000
0001
0100
0001
0000
0010
0100
0010
0000
,  // measure 31
2000
0002
0000
3003
0020
0200
0000
0330
,  // measure 32
2000
0200
0000
3300
0010
0001
0101
0000
,  // measure 33
1000
0000
1001
0000
1000
0100
0101
0000
,  // measure 34
0101
0000
0000
0000
0000
0000
0010
0000
0000
1100
0000
0000
0000
0000
0000
0000
0101
0000
0000
0000
0000
0000
0000
0000
,  // measure 35
1001
0000
0000
0100
0010
0100
0001
1000
0001
0100
0010
0100
,  // measure 36
0001
0000
0000
0000
0101
0000
0000
0000
1001
0000
0000
0000
,  // measure 37
1001
0000
1000
0000
0001
0001
1001
0000
,  // measure 38
0100
0010
1010
0000
1000
0010
0110
0000
,  // measure 39
1000
0100
1000
0100
0001
0010
0001
0010
,  // measure 40
0100
0010
0100
0010
1000
0100
1000
0000
,  // measure 41
2002
3003
0010
0000
0000
0100
0000
0010
0000
1000
0000
0001
0000
0100
0000
0000
,  // measure 42
0010
0000
0000
0000
0010
0000
0000
0000
1000
0010
0100
0000
0010
0100
0001
0000
0020
0000
0030
0000
0000
0000
2000
0000
3001
0100
0010
0000
1000
0100
0010
0100
,  // measure 43
1000
0000
2002
0000
3003
0110
0000
1000
0002
1003
0000
0120
0000
0031
0000
0000
,  // measure 44
1020
0000
0000
0000
0130
0000
0000
0000
0001
0000
1000
0000
0001
1000
0001
1000
0002
0000
0000
0000
0023
0000
0000
0000
0230
0000
0000
0000
0300
0000
0000
0000
,  // measure 45
1001
0000
0000
0000
1100
0000
0000
0000
1001
0000
0001
0100
0001
0000
0010
0000
,  // measure 46
1000
0000
0010
0000
0100
0000
0010
0000
1000
0001
0000
0100
0010
0000
0100
1000
,  // measure 47
0100
0000
0101
0000
1100
0100
0110
0010
,  // measure 48
0100
0000
0110
0000
0010
0000
0011
0000
0100
0001
0000
0001
0100
0000
0001
1000
,  // measure 49
0001
0000
0011
0000
0100
0101
0001
0011
,  // measure 50
0010
0000
0100
0000
0010
0100
0010
0000
1000
0000
0100
1000
0000
1000
0010
0000
,  // measure 51
0100
0001
0100
0000
0010
1000
0010
0000
1000
0100
1000
0000
0001
0010
0001
0000
,  // measure 52
1000
0010
0100
0001
0100
0010
1000
0100
0020
0000
0000
0030
0100
0010
0100
0010
,  // measure 53
0100
0000
0010
1000
0010
1000
0010
0000
0100
0001
0100
0010
1000
0100
1000
0100
,  // measure 54
1000
0000
0001
0010
0001
0010
0001
0000
1000
0010
0100
0001
0100
0010
0100
0010
,  // measure 55
0100
0000
0001
0100
0010
0100
0001
0000
1000
0010
0100
0010
1000
0100
1000
0100
,  // measure 56
1000
0000
0001
0010
0001
0010
0001
0100
0010
0100
0010
1000
0100
1000
0100
1000
,  // measure 57
0100
0000
0001
0010
0001
0010
0001
0000
0100
0010
1000
0010
0100
0010
0100
0001
,  // measure 58
0100
0000
0010
1000
0010
0100
0010
0000
0100
0010
0100
0001
0100
0010
0100
0010
,  // measure 59
1000
0100
1000
0100
0010
0001
0010
0001
0100
0010
0100
0010
2000
0000
3200
0000
,  // measure 60
0302
0000
0003
0000
1000
0000
0001
1000
0001
0000
1000
0000
0001
0100
0001
0000
,  // measure 61
1000
0010
1000
0000
0001
0000
0100
0010
0100
0000
0001
0000
1000
0100
1000
0000
,  // measure 62
0001
0010
0001
0010
0001
0000
0100
0010
0100
0000
1000
0000
0010
0100
0010
0000
,  // measure 63
0001
0100
0001
0000
1000
0010
1000
0010
0100
0001
0100
0001
0100
0010
1000
0010
,  // measure 64
0100
0001
0010
0001
0100
0000
0010
1000
0010
0000
0100
0000
0001
0010
0001
0100
,  // measure 65
0010
1000
0100
0010
0001
0000
0100
0010
0100
0000
0001
0000
1000
0010
0100
0010
,  // measure 66
0100
0001
0010
0001
0100
0000
0010
1000
0010
0000
0100
0000
0001
1000
0001
1000
,  // measure 67
0010
0100
0010
0100
0010
0000
1000
0100
0010
0000
0001
0000
0001
0100
0010
1000
,  // measure 68
0002
0000
0000
0000
,  // measure 69
0003
0000
0000
0000
0000
0000
0010
1000
0010
0000
0000
0000
0100
0000
0000
0000
0001
0000
0000
0001
0000
0000
0001
1000
0001
0000
0100
0000
0010
1000
0010
1000
,  // measure 70
0010
0100
0010
0100
0010
0000
1000
0100
1000
0100
1000
0000
0001
0010
0001
0000
1000
0000
0100
0000
0010
0000
0001
0000
0100
0010
0100
0010
0100
0010
0100
0000
,  // measure 71
1000
0001
1000
0001
1000
0100
1000
0100
,  // measure 72
0001
0010
0001
0010
0100
0010
0100
0010
,  // measure 73
1000
0100
1000
0100
0010
0001
0010
0001
1000
0010
1000
0010
0100
0001
0100
0001
,  // measure 74
1000
0010
0100
0010
0100
0001
0010
0001
0010
0100
1000
0010
0100
0001
1000
0100
,  // measure 75
0002
0000
0000
2000
0000
0000
3003
0000
0000
0000
0000
0000
0000
0000
0000
0000
;

//---------------dance-double - ----------------
#NOTES:
     dance-double:
     :
     Hard:
     18:
     0.990,1.000,0.583,0.392,0.989:
00000000
00000000
00000000
00000000
,
00000000
00000000
00000000
00000000
,
00000000
00000000
00000000
00000000
,
00000000
00000000
00000000
00000000
,
01000000
00000000
01100000
00000000
10000000
00100000
01000000
00010000
,
00000000
00100000
00000000
00001000
00000000
00010000
00000000
00000000
,
00000100
00000000
00000000
00000000
00001000
00000000
00000000
00000000
00000010
00001000
00000010
00001000
00000001
00000100
00000001
00000100
,
00000001
00000000
00000000
00000000
00000100
00000000
00000000
00000000
00000001
00001000
00000001
00001000
00000010
00001000
00000100
00001000
,
00000200
00000000
00010000
00000000
00010300
00001000
00100000
00010000
,
00000000
01010000
00000000
01100000
00000000
10100000
00000000
00000000
,
10100000
00000000
01010000
00000000
01000000
00010000
00100000
00001000
,
00000000
00000000
00010000
00000000
00000000
00000000
00000100
00000000
00001000
00000010
00001000
00000010
00000100
00000001
00000100
00000001
,
00000010
00000000
00000000
00000000
00000010
00000000
00000000
00000000
00000001
00000100
00000001
00000100
00000010
00001000
00000100
00001000
,
00000100
00000000
00000000
00000000
00010000
00000000
00001000
00000000
00100000
00010000
00100000
00010000
01000000
00000000
00100000
00000000
,
01000000
00000000
10000000
00000000
00100000
00010000
00000000
01000000
,
00000000
00010000
00000000
00000100
00000000
00001000
00000000
00000000
,
00011000
00000000
00000000
00000000
00011000
00000000
00000000
00000000
00001000
00100000
00000000
00001000
00100000
00000000
00010000
00000000
,
01000000
00100000
01000000
00100000
10000000
00100000
10000000
00100000
10000000
01000000
00000000
01000000
00100000
00000000
01000000
00000000
,
00010000
00000000
00000000
00000000
00100000
00000000
00000000
00000000
00100000
00001000
00000000
00001000
00010000
00000000
00000100
00000000
,
00001000
00000010
00001000
00000010
00000100
00000001
00000100
00000001
00000010
00000100
00000000
00001000
00000100
00000000
00010000
00000000
,
00001000
00000000
01000000
00000000
00001000
00000000
01000000
00000000
00001000
01000000
00000000
00001000
01000000
00000000
00010000
00000000
,
00100000
00000000
10000000
00000000
00100000
00000000
10000000
00000000
01000000
00100000
00000000
01000000
00100000
00000000
01000000
00000000
,
10000000
10000000
10000000
00100000
01000000
01000000
01000000
00001000
,
00010000
00000100
00010000
00000100
00001000
00000100
00001000
00000010
00000100
00000010
00000100
00000001
00000010
00000001
00000010
00000100
,
00002000
00000000
00000000
00003000
,
00000200
00020300
00002000
00033000
,
00220000
00000000
00000000
00030000
00000000
00000000
00301000
00000000
00000000
00000000
00000000
00000000
00011000
00000000
00000000
00000000
00010100
00000000
00000000
00000000
00001100
00000000
00000000
00000000
,
00000220
00000000
00000330
00000001
00001000
00000001
00001001
00000000
00001010
00000000
00010100
00000000
,
00220000
00000000
00000000
00330000
,
00010000
01000000
00010000
00000000
00100000
01000000
00100000
00000000
01000000
10000000
01000000
00000000
00100000
10000000
00100000
10000000
,
00200000
01000000
01000000
01300000
,
02000000
03002000
00023000
00031000
,
00020000
00000000
00000000
00000000
00031000
00000000
00000000
00000000
00001000
00010000
00000000
00010000
00001000
00000000
00000000
00000000
,
00011000
00000000
00000000
00000000
00000101
00000000
00000000
00000000
00000011
00000000
00000000
00000000
,
00000101
00000000
00000000
00000010
00001000
00000100
00001000
00000100
00010000
00001000
01000000
00010000
,
01000000
00000000
00000000
00000000
01100000
00000000
00000000
00000000
10010000
00000000
00000000
00000000
,
22000000
33000000
00220000
00330000
,
01000000
00000000
00000000
01000000
00100000
00000000
01000000
00000000
10000000
00100000
10000000
00000000
00100000
00000000
00010000
00000000
,
01000000
00010000
01000000
00001000
00010000
00001000
00010000
00000010
,
00000100
00000010
00000100
00000001
00000010
00000100
00010000
00001000
,
00020000
00000000
00031000
00000000
00000000
00001000
00000000
00100000
00000000
00010000
00000000
01010000
00000000
10100000
00000000
00000000
,
20000000
00000000
00000000
00000000
30000000
00000000
00000000
00000000
10000000
00100000
10000000
00100000
01000000
00010000
01000000
00010000
00200000
00000000
00300000
00000000
00200000
00000000
00300000
00000000
00001000
00010000
00001000
00010000
00000100
00001000
00000100
00001000
,
00000020
00000000
00000130
00000000
00000000
00001010
00000000
00000100
00020000
00031000
00000000
00202000
00303000
00110000
00000000
00000000
,
01100000
00000000
01100000
00000000
00000000
10000000
00010000
01000000
00100000
00000000
20000000
00000000
32000000
00000000
03100000
00000000
,
10010000
00000000
11000000
00000000
01100000
00100000
00101000
00001000
,
00010000
00000000
00000100
00000000
00001000
00000000
00000010
00000000
00000100
00000001
00000000
00000001
00000100
00000000
00000010
00001000
,
00000100
00001000
00001100
00000000
00000100
00010100
00010000
00011000
,
00001000
00000000
00101000
00000000
00100000
00000000
00110000
00000000
00010000
01000000
00010000
01000000
00100000
00000000
00100000
10000000
,
01000000
01000000
11000000
00000000
00100000
01000000
00100000
01100000
,
01000000
00000000
01010000
00000000
00100000
00000000
00101000
00000000
00010000
00000100
00000000
00000100
00001000
00000000
00000010
00000001
,
00000100
00000000
00000010
00000000
00000100
00000000
00000010
00001000
00000100
00000000
00001100
00000000
00010000
00000000
00011000
00000000
,
00100000
00000000
00110000
00000000
01000000
00000000
11000000
00000000
00200000
00000000
00000000
00300000
10000000
01000000
10000000
01000000
,
10000000
00000000
01000000
00010000
01000000
00010000
01000000
00000000
00100000
00001000
00010000
00000100
00001000
00000100
00001000
00000100
,
00001000
00000000
00000010
00000100
00000010
00000100
00000010
00000000
00000001
00000100
00000001
00001000
00000010
00001000
00000010
00001000
,
00000100
00000000
00000100
00010000
00001000
00010000
00001000
00000000
00001000
00100000
00010000
01000000
00100000
10000000
00100000
01000000
,
00100000
00000000
01000000
00010000
00100000
00010000
00100000
00000000
00010000
00100000
00001000
00010000
00001000
00010000
00000100
00001000
,
00000100
00000000
00001000
00000010
00000100
00000001
00000100
00000000
00000010
00001000
00000100
00001000
00000100
00010000
00001000
00010000
,
00001000
00000000
00001000
00100000
00010000
00100000
00010000
00000000
00010000
01000000
00100000
10000000
01000000
00000000
01000000
00000000
,
01000000
00000000
01000000
00000000
00010000
10000000
00010000
10000000
00010000
10000000
00010000
10000000
00020000
00000000
00230000
00000000
,
00302000
00000000
00013000
00000000
00011000
00000000
00010000
00000000
00001000
00000000
00010000
00000000
00010000
00000100
00000000
00000100
,
00001000
00000000
00001000
00000010
00000100
00000000
00000110
00000000
00000010
00000000
00000110
00000000
00000010
00001000
00000000
00001000
,
00000100
00000000
00000100
00010000
00001000
00000000
00011000
00000000
00100000
00000000
00110000
00000000
00010000
01000000
00000000
00100000
,
10000000
00000000
01000000
00100000
10000000
00000000
11000000
00000000
01000000
00000000
01010000
00000000
00100000
00001000
00000000
00010000
,
00001000
00000000
00001000
00010000
00001000
00000000
00101000
00000000
00100000
00000000
00110000
00000000
00010000
00000100
00000000
00001000
,
00000100
00000000
00001000
00000010
00000100
00000000
00000101
00000000
00000001
00000000
00000101
00000000
00000010
00001000
00000000
00000100
,
00001000
00000000
00000100
00010000
00001000
00010000
00001000
00000000
00100000
00010000
00100000
00000000
01000000
10000000
01000000
00000000
,
00100000
01000000
00100000
00000000
10000000
01000000
00100000
00000000
01000000
00100000
00010000
00000000
10000000
00100000
01000000
00100000
,
02000000
00000000
00000000
00000000
,
03000000
00000000
00000000
00000000
00000000
00000000
01000000
00000000
01010000
00000000
00000000
00000000
00100000
00000000
00000000
00000000
00100000
00000000
00000000
00001000
00000000
00000000
00100000
00010000
00100000
00000000
00000000
00000000
00001000
00000000
00000000
00000000
,
00010000
00000100
00010000
00000100
00010000
00000000
00000010
00001000
00000010
00000000
00001000
00000010
00001000
00000000
00000100
00000010
00000100
00000000
00001000
00000100
00001000
00000000
00010000
00001000
00010000
00000000
00100000
00010000
00100000
00000000
01000000
00100000
,
01000000
00100000
20000000
32000000
03010000
00100000
00001000
00010000
,
00000100
00001000
00000020
00000230
00000301
00000010
00000100
00001000
,
00000100
00001000
00000100
00001000
00000100
00001000
00000100
00000000
00010000
00001000
00010000
00001000
00010000
00001000
00010000
00000000
,
00100000
00001000
00100000
00001000
00100000
00010000
01000000
00010000
10000000
01000000
00010000
00100000
00001000
00010000
00000010
00000100
,
00000002
00000000
00000000
00002000
00000000
00000000
00003003
00000000
00000000
00000000
00000000
00000000
00000000
00000000
00000000
00000000
;

//---------------dance-single - ----------------
#NOTES:
     dance-single:
     :
     Beginner:
     5:
     0.205,0.498,0.057,0.105,0.000:
0000
0000
0000
0000
,
0000
0000
0000
0000
,
0000
0000
0000
0000
,
0000
0000
0000
0000
,
0001
0000
0000
0000
,
1000
0000
0000
0000
,
0001
0000
0000
0000
,
1000
0000
1000
0000
,
1000
0000
0000
0000
,
0001
0000
0000
0000
,
1000
0000
0000
0000
,
0010
0000
0010
0000
,
0010
0000
0100
0100
,
0100
0000
0010
0010
,
0010
0000
0000
0000
,
1000
0000
0000
0000
,
0001
0001
0001
0000
,
0001
0001
0001
0000
,
1000
1000
1000
0000
,
1000
1000
1000
0000
,
0010
0010
0010
0000
,
0100
0100
0100
0000
,
1001
1001
1001
1001
,
2002
0000
0000
3003
,
1001
0000
0000
0000
,
0010
0010
0010
0000
,
0100
0000
0020
0030
,
0010
0000
2000
3000
,
1000
0000
0000
0000
,
0000
0000
0000
0000
,
0000
0000
0000
0000
,
0000
0000
0000
0000
,
0002
0000
0003
0000
,
0001
0000
0000
0000
,
2000
0000
3000
0000
,
1000
0000
0000
0000
,
0020
0000
0030
0000
,
0010
0000
0000
0000
,
0100
0000
0000
0000
,
0100
0000
0000
0000
,
0100
0000
0010
0000
,
1000
0000
0001
0001
,
0001
0000
0100
0000
,
0010
0000
2000
3000
,
1000
0000
0000
0000
,
1000
0000
1000
0000
,
0001
0000
0001
0000
,
0100
0000
0100
0000
,
0010
0000
0010
0000
,
1000
0000
1000
0000
,
0100
0100
0100
0100
,
0200
0000
0300
0100
,
0000
0100
0000
1000
,
0000
1000
0000
0010
,
0000
0010
0000
0001
,
0000
0001
0000
0100
,
0100
0100
0000
0001
,
0001
0001
0000
1000
,
1000
1000
0000
0020
,
0030
0010
0000
0010
,
0000
0001
0001
0001
,
0000
0100
0100
0100
,
0000
1000
1000
1000
,
0000
0010
0010
0010
,
0000
1000
1000
1000
,
0000
0100
0100
0100
,
0000
0001
0001
0001
,
0000
0000
0000
0000
,
0000
0000
0001
0000
,
1000
0000
0001
0000
,
1000
0000
0000
0000
,
0000
0000
0000
0000
,
0010
0000
0010
0000
,
0010
0000
0010
0000
,
0020
0000
0030
0000
;

//---------------dance-double - ----------------
#NOTES:
     dance-double:
     :
     Medium:
     13:
     0.583,0.782,0.325,0.593,0.115:
00000000
00000000
00000000
00000000
,
00000000
00000000
00000000
00000000
,
00000000
00000000
00000000
00000000
,
00000000
00000000
00000000
00000000
,
00010000
00000000
00001000
00000000
00010000
00001000
00010000
00000100
,
00000000
00001000
00000000
00000000
00000000
00000000
00000000
00000000
,
00000100
00000000
00010000
00000000
00001000
00010000
00001000
00010000
,
00001000
00000000
00001000
00000000
00100000
00010000
01000000
00010000
,
00200000
00000000
00000000
00000000
00310000
01000000
00010000
01000000
,
00000000
00010000
00000000
00000000
00000000
00000000
00000000
00000000
,
10000000
00000000
10000000
00000000
10000000
00100000
01000000
00100000
,
10000000
00000000
10000000
00000000
00010000
01000000
00010000
00100000
,
00001000
00000000
00001000
00000000
00001000
00010000
00000010
00001000
,
00000020
00000000
00000000
00000000
00000130
00000001
00000100
00000001
,
00001000
00001000
00001000
00001000
,
00002000
00000000
00000000
00003000
,
00010100
00000000
00000000
00000000
00010100
00000000
00000000
00000000
00000200
00000000
00000000
00020300
00000000
00000000
00031000
00000000
,
00020000
00000000
00000000
00000000
00032000
00000000
00000000
00000000
00203000
00000000
00000000
00320000
00000000
00000000
01030000
00000000
,
00100000
00000000
00000000
00000000
00100000
00000000
00000000
00000000
00200000
00000000
00000000
20300000
00000000
00000000
31000000
00000000
,
00100000
00000000
01000000
00000000
00100000
00000000
01000000
00000000
00200000
00000000
00000000
20300000
00000000
00000000
30010000
00000000
,
00100000
00100000
00100000
00101000
,
00010000
00010000
00010000
00010100
,
00000100
00001000
00000100
00001000
00000001
00000100
00000001
00000100
,
00000010
00001000
00000010
00001000
00000100
00010000
00001000
00100000
,
00020000
00000000
00000000
00030000
,
20000000
30200000
02300000
03000000
,
20020000
00000000
00000000
30030000
00000000
00000000
01100000
00000000
00011000
00000000
00000110
00000000
,
00002002
00000000
00000000
00003003
00000000
00000000
00001001
00000000
00010100
00000000
00011000
00000000
,
00202000
00000000
00000000
00303000
,
00020000
00000000
02000000
00030000
00200000
03000000
20000000
00300000
,
30020000
00000000
01030000
00000000
,
20000000
00000000
31000000
00000000
,
00200000
00000000
01300000
00000000
,
11000000
00000000
00000000
00000000
01100000
00000000
00000000
00000000
00110000
00000000
00000000
00000000
,
00022000
00000000
00033000
00000000
,
00011000
00000000
00000000
00000000
00001100
00000000
00000000
00000000
00000110
00000000
00000000
00000000
,
00000022
00000000
00000033
00000000
,
00000200
00000000
00000300
00000000
,
00000200
00000000
00020300
00000000
,
00032000
00000000
00203000
00000000
,
00310000
00000000
00010000
00000000
00000000
00010000
00000000
01000000
00000000
10000000
00000000
01000000
00000000
00010000
00000000
00000000
,
00200000
00000000
00300000
00000000
00000000
00000000
00000000
00000000
00020000
00030000
00000000
00020000
00030000
00000000
00000000
00000000
,
00001000
00000000
00022000
00000000
00033000
00000000
00000000
00000000
00020000
00030000
00000000
00002000
00003000
00000000
00000000
00000000
,
00020000
00030000
00001000
00000000
00000000
00010000
00000000
00000100
00002000
00000000
00003020
00000000
00000230
00000000
00000300
00000000
,
00001100
00000000
00001100
00000000
00000100
00010000
00001000
00010000
,
00000000
00000000
00001000
00000000
00100000
00000000
00000000
00000000
00100000
00000000
00000000
00010000
00000000
00000000
00100000
00000000
,
00010000
00000000
01000000
00000000
00100000
10000000
01000000
10000000
,
00000000
00100000
01000000
00000000
00010000
00100000
00001000
00010000
,
00000100
00000000
00000100
00000000
00000100
00001000
00000010
00001000
,
00000000
00000000
00000100
00000000
00010000
00000000
00000000
00000000
00001000
00000000
00000000
00010000
00000000
00000000
00001000
00000000
,
00010000
00000000
00001000
00000000
00100000
00010000
01000000
10000000
,
00000000
00100000
01000000
00000000
00020000
00030000
10000000
01000000
,
10000000
00100000
10000000
00100000
01000000
00010000
00100000
00001000
,
00100000
00001000
00010000
00001000
00010000
00000010
00001000
00000010
,
00001000
00000100
00000001
00000100
00000010
00001000
00000100
00010000
,
00000100
00010000
00001000
00010000
00001000
00100000
00010000
01000000
,
00010000
10000000
01000000
10000000
00100000
01000000
00001000
00100000
,
00001000
00010000
00000100
00010000
00000100
00001000
00000010
00000100
,
00000010
00001000
00000100
00001000
00000100
00010000
00002000
00000000
,
00003000
00000000
00100000
00001000
00100000
00001000
00000000
00011000
,
00000000
00010000
00000100
00010000
00000100
00000100
00000000
00010100
,
00000000
00001000
00000010
00000100
00000010
00000010
00000000
00000110
,
00000000
00000100
00010000
00000100
00010000
00010000
00000000
00010100
,
00000000
00010000
00001000
00100000
00010000
00010000
00000000
00110000
,
00000000
00010000
01000000
00100000
01000000
00100000
00000000
01100000
,
00000000
10000000
01000000
10000000
00100000
10000000
00000000
10010000
,
00000000
01000000
00001000
00010000
00001000
00010000
00000000
00002000
,
00000000
00000000
00000000
00000000
,
00003000
00000000
00010000
00000000
00001000
00010000
00011000
00000000
,
00100000
00010000
01010000
00000000
00100000
10000000
11000000
00000000
,
02000000
00010000
00010000
03010000
,
00200000
00001000
00001000
00301000
,
00020000
00000100
00000100
00030100
,
00002000
00003020
00000230
00000302
,
00000023
00000000
00000200
00000000
00000000
00000330
00000000
00000000
00000000
00000000
00000000
00000000
;

//---------------dance-single - ----------------
#NOTES:
     dance-single:
     :
     Medium:
     13:
     0.584,0.782,0.335,0.593,0.115:
0000
0000
0000
0000
,
0000
0000
0000
0000
,
0000
0000
0000
0000
,
0000
0000
0000
0000
,
0001
0000
1000
0000
0001
1000
0001
1000
,
0000
0110
0000
0000
0000
0000
0000
0000
,
0100
0000
0001
0000
1000
0001
1000
0001
,
1000
0000
1000
0000
0010
0100
0010
0100
,
0020
0000
0000
0000
0031
0100
0001
0100
,
0000
0001
0000
0000
0000
0000
0000
0000
,
1000
0000
1000
0000
1000
0001
0100
0001
,
1000
0000
1000
0000
0001
1000
0100
1000
,
0001
0000
0001
0000
1000
0100
1000
0100
,
2000
0000
0000
0000
3100
0010
0100
0010
,
0001
0001
0001
0001
,
0002
0000
0000
0003
,
0101
0000
0000
0000
0101
0000
0000
0000
0200
0000
0000
0302
0000
0000
1003
0000
,
0020
0000
0000
0000
2030
0000
0000
0000
3020
0000
0000
0032
0000
0000
0103
0000
,
0010
0000
0000
0000
0010
0000
0000
0000
0020
0000
0000
2030
0000
0000
3100
0000
,
0010
0000
0100
0000
0010
0000
0100
0000
0020
0000
0000
2030
0000
0000
3001
0000
,
0010
0010
0010
0110
,
0001
0001
0001
1001
,
0100
1000
0100
1000
0001
0100
0001
0100
,
0010
1000
0010
1000
0100
0001
0100
0010
,
0002
0000
0000
0003
,
2000
3020
0230
0300
,
2002
0000
0000
3003
0000
0000
0110
0000
1001
0000
0110
0000
,
2002
0000
0000
3003
0000
0000
1001
0000
0110
0000
1001
0000
,
0220
0000
0000
0330
,
0200
0000
0002
0300
0020
0003
2000
0030
,
3200
0000
0301
0000
,
2000
0000
3001
0000
,
0020
0000
0031
0000
,
1001
0000
0000
0000
1001
0000
0000
0000
0110
0000
0000
0000
,
0220
0000
0330
0000
,
1010
0000
0000
0000
1010
0000
0000
0000
0101
0000
0000
0000
,
0202
0000
0303
0000
,
0020
0000
0030
0000
,
0020
0000
0230
0000
,
0302
0000
2003
0000
,
3100
0000
0100
0000
0000
0100
0000
0001
0000
1000
0000
0001
0000
0100
0000
0000
,
0020
0000
0030
0000
0000
0000
0000
0000
0200
0300
0000
0200
0300
0000
0000
0000
,
1000
0000
2200
0000
3300
0000
0000
0000
0200
0300
0000
2000
3000
0000
0000
0000
,
0200
0300
1000
0000
0000
0100
0000
0010
2000
0000
3002
0000
0023
0000
0030
0000
,
1010
0000
1010
0000
0010
0100
0010
0100
,
0000
0000
1000
0000
0001
0000
0000
0000
0001
0000
0000
0100
0000
0000
0001
0000
,
0100
0000
0001
0000
0100
1000
0100
1000
,
0000
0010
0001
0000
0100
0010
0100
0010
,
0100
0000
0100
0000
0010
1000
0010
1000
,
0000
0000
0010
0000
1000
0000
0000
0000
0010
0000
0000
0100
0000
0000
0010
0000
,
0100
0000
1000
0000
0010
0100
0010
0100
,
0000
0010
0100
0000
0200
0300
1000
0001
,
1000
0010
1000
0010
0001
0100
0010
1000
,
0010
1000
0100
1000
0100
0001
1000
0001
,
1000
0010
0100
0010
0001
1000
0010
0100
,
0010
0100
1000
0100
1000
0010
0100
0001
,
0100
1000
0001
1000
0010
0001
1000
0010
,
1000
0100
0010
0100
0010
1000
0001
0010
,
0001
1000
0010
1000
0010
0100
2000
0000
,
3000
0000
0010
1000
0010
1000
0000
1100
,
0000
0100
0010
0100
0010
0010
0000
0110
,
0000
1000
0001
0010
0001
0001
0000
0011
,
0000
0010
0100
0010
0100
0100
0000
0110
,
0000
0100
1000
0010
0100
0100
0000
0110
,
0000
0100
0001
0010
0001
0010
0000
0011
,
0000
1000
0001
1000
0010
1000
0000
1100
,
0000
0001
1000
0100
1000
0100
0000
2000
,
0000
0000
0000
0000
,
3000
0000
0100
0000
1000
0100
1100
0000
,
0010
0100
0101
0000
0010
1000
1001
0000
,
0002
0100
0100
0103
,
0020
1000
1000
1030
,
0200
0010
0010
0310
,
2000
3002
0023
0230
,
0302
0000
0020
0000
0000
0033
0000
0000
0000
0000
0000
0000
;

//---------------dance-double - ----------------
#NOTES:
     dance-double:
     :
     Easy:
     7:
     0.421,0.639,0.182,0.535,0.043:
00000000
00000000
00000000
00000000
,
00000000
00000000
00000000
00000000
,
00000000
00000000
00000000
00000000
,
00000000
00000000
00000000
00000000
,
00001000
00000000
00001000
00000000
00000000
00010000
00000000
00001000
,
00000000
00010000
00000000
00001000
00000000
00010000
00000000
00000000
,
00020000
00000000
00032000
00000000
,
00103000
00100000
00020000
00000000
,
02030000
00000000
00000000
00000000
03200000
00000000
00000000
10300000
,
00000000
10000000
00000000
10000000
00000000
00000000
00000000
00000000
,
00100000
01000000
00100000
01000000
,
00010000
00100000
00001000
00010000
,
00002000
00000000
00013000
00001000
,
00020000
00000000
00031000
00010000
,
00000100
00000100
00000100
00000100
,
00000200
00000000
00000000
00000300
,
00000010
00000010
00000200
00000300
,
00010000
00010000
00002000
00003000
,
00100000
00100000
00020000
00030000
,
10000000
10000000
02000000
03000000
,
10100000
10100000
01010000
01010000
,
00110000
00110000
00101000
00101000
,
00011000
00011000
00001010
00001010
,
00000101
00000101
00000011
00000011
,
00002002
00000000
00000000
00003003
,
00000010
00010000
00022000
00033000
,
00020000
00000000
00000000
00030000
00000000
00000000
00010000
00000000
00010000
00000000
00010000
00000000
,
02000000
00000000
00000000
03000000
00000000
00000000
00100000
00000000
00100000
00000000
00100000
00000000
,
00100000
00000000
00000000
00000000
,
02000000
03200000
20300000
30020000
,
00030000
00000000
00000000
00000000
,
00200000
00302000
00023000
00030200
,
00002300
00000000
00003000
00000000
,
00000010
00000000
00000000
00000000
00000010
00000000
00000000
00000000
00000010
00000000
00000000
00000000
,
00000020
00000000
00000030
00000000
,
00000100
00000000
00000000
00000000
00000100
00000000
00000000
00000000
00000100
00000000
00000000
00000000
,
00000200
00000000
00000300
00000000
,
00020000
00000000
00030000
00000000
,
00002000
00000000
00023000
00000000
,
00032000
00000000
00023000
00000000
,
00031000
00000000
00010000
00000000
,
00001000
00000000
00000000
00000000
00000000
00000000
00000000
00000000
00010000
00000000
00000000
00010000
00000000
00000000
00000000
00000000
,
01000000
00000000
00100000
00000000
,
00010000
00000000
00000000
00000000
00001000
00010000
00001000
00000000
,
00010000
00000000
00010000
00000000
00001000
00000000
00000100
00010000
,
00000100
00000000
00000100
00000000
00000100
00000000
00001000
00000100
,
00001000
00000000
00001000
00000000
00000001
00000000
00000001
00001000
,
00000001
00000000
00000001
00000000
00001000
00000000
00001000
00000100
,
00001000
00000000
00010000
00000000
00010000
00000000
00010000
00001000
,
00010000
00000000
00010000
00000000
01000000
00000000
01000000
00010000
,
01000000
00000000
01000000
00000000
00100000
00000000
10000000
00100000
,
10000000
00000000
00000000
10000000
00000000
00000000
20000000
00000000
30000000
00200000
00000000
00000000
,
00300000
02000000
00000000
03000000
00010000
00000000
00200000
00000000
,
00300000
00002000
00000000
00003000
00010000
00000000
00000200
00000000
,
00000300
00002000
00000000
00003000
00000010
00000000
00000200
00000000
,
00000300
00000002
00000000
00000003
00000010
00000000
00002000
00000000
,
00003000
00000200
00000000
00000300
00010000
00000000
00002000
00000000
,
00003000
00200000
00000000
00300000
00010000
00000000
02000000
00000000
,
03000000
00200000
00000000
00300000
10000000
00000000
00010000
01000000
,
10000000
00000000
10000000
00000000
10000000
00000000
10000000
00100000
,
10000000
00100000
10000000
00000000
01000000
00000000
00100000
00010000
,
00100000
00010000
00100000
00000000
00100000
00000000
00001000
00010000
,
00001000
00010000
00001000
00000000
00001000
00000000
00010000
00000100
,
00010000
00000100
00010000
00000000
00010000
00000000
00000100
00001000
,
00000100
00001000
00000100
00000000
00001000
00000000
00000010
00000100
,
00000010
00000100
00000010
00000000
00000001
00000000
00000010
00000100
,
00000010
00000100
00000010
00000000
00001000
00000000
00000200
00000000
,
00000000
00000000
00000000
00000000
,
00000300
00000010
00010000
00001000
,
01000000
00010000
10000000
00100000
,
02000000
00000000
00000000
03000000
,
00002000
00000000
00000000
00003000
,
00020000
00030000
00002000
00003000
,
00010000
00001000
00010000
00001000
,
00022000
00033000
00000000
00000000
;

//---------------dance-single - ----------------
#NOTES:
     dance-single:
     :
     Easy:
     7:
     0.423,0.639,0.201,0.535,0.043:
0000
0000
0000
0000
,
0000
0000
0000
0000
,
0000
0000
0000
0000
,
0000
0000
0000
0000
,
0010
0000
0010
0000
0000
0001
0000
1000
,
0000
0001
0000
1000
0000
0001
0000
0000
,
0002
0000
2003
0000
,
3010
0010
0002
0000
,
0203
0000
0000
0000
0320
0000
0000
1030
,
0000
1000
0000
1000
0000
0000
0000
0000
,
1000
1000
0001
0001
,
0010
0010
0100
0100
,
2000
0000
3001
1000
,
0002
0000
1003
0001
,
0100
0100
0100
0100
,
0200
0000
0000
0300
,
0010
0010
0200
0300
,
0001
0001
2000
3000
,
0010
0010
0002
0003
,
1000
1000
0200
0300
,
1001
1001
0110
0110
,
1010
1010
0101
0101
,
0011
0011
1100
1100
,
0011
0110
1100
1001
,
2002
0000
0000
3003
,
0010
0001
2002
3003
,
0002
0000
0000
0003
0000
0000
1001
0000
0001
0000
0001
0000
,
0200
0000
0000
0300
0000
0000
0110
0000
0010
0000
0010
0000
,
0010
0000
0000
0000
,
0200
0320
2030
3002
,
0003
0000
0000
0000
,
0020
2030
3002
0203
,
2300
0000
3000
0000
,
0010
0000
0000
0000
0010
0000
0000
0000
0010
0000
0000
0000
,
0020
0000
0030
0000
,
0100
0000
0000
0000
0100
0000
0000
0000
0100
0000
0000
0000
,
0200
0000
0300
0000
,
0002
0000
0003
0000
,
2000
0000
3002
0000
,
2003
0000
3002
0000
,
1003
0000
0001
0000
,
1000
0000
0000
0000
0000
0000
0000
0000
0001
0000
0000
0001
0000
0000
0000
0000
,
0100
0000
0010
0000
,
0001
0000
0000
0000
1000
0001
1000
0000
,
0001
0000
0001
0000
1000
0000
0100
0001
,
0100
0000
0100
0000
0100
0000
1000
0100
,
1000
0000
1000
0000
0001
0000
0001
1000
,
0001
0000
0001
0000
1000
0000
1000
0100
,
1000
0000
0001
0000
0001
0000
0001
1000
,
0001
0000
0001
0000
0100
0000
0100
0001
,
0100
0000
0100
0000
0010
0000
1000
0010
,
1000
0000
0000
1000
0000
0000
2000
0000
3000
0020
0000
0000
,
0030
0200
0000
0300
0001
0000
0020
0000
,
0030
2000
0000
3000
0001
0000
0200
0000
,
0300
2000
0000
3000
0010
0000
0200
0000
,
0300
0002
0000
0003
0010
0000
2000
0000
,
3000
0200
0000
0300
0001
0000
2000
0000
,
3000
0020
0000
0030
0001
0000
0200
0000
,
0300
0020
0000
0030
1000
0000
0001
0100
,
1000
0000
1000
0000
1000
0000
1000
0010
,
1000
0010
1000
0000
0100
0000
0010
0001
,
0010
0001
0010
0000
0010
0000
1000
0001
,
1000
0001
1000
0000
1000
0000
0001
0100
,
0001
0100
0001
0000
0001
0000
0100
1000
,
0100
1000
0100
0000
1000
0000
0010
0100
,
0010
0100
0010
0000
0001
0000
0010
0100
,
0010
0100
0010
0000
1000
0000
0200
0000
,
0000
0000
0000
0000
,
0300
0010
0001
1000
,
0100
0001
1000
0010
,
0200
0000
0000
0300
,
2000
0000
0000
3000
,
0002
0003
2000
3000
,
0001
1000
0001
1000
,
2002
3003
0000
0000
;
