#TITLE:BroGamer;
#SUBTITLE:;
#ARTIST:USAO;
#TITLETRANSLIT:;
#SUBTITLETRANSLIT:;
#ARTISTTRANSLIT:;
#GENRE:;
#CREDIT:;
#BANNER:BroGamer.png;
#BACKGROUND:BroGamer-jacket.png;
#LYRICSPATH:;
#CDTITLE:;
#MUSIC:BroGamer.ogg;
#OFFSET:-3.486001;
#SAMPLESTART:89.302589;
#SAMPLELENGTH:13.330432;
#SELECTABLE:YES;
#BPMS:0.000000=207.000000
;
#STOPS:167.750000=1.159420
;
#BGCHANGES:-12.000=BroGamer.avi=1.000=0=0=0=StretchNoLoop====,
99999=-nosongbg-=1.000=0=0=0 // don't automatically add -songbackground-
;
#KEYSOUNDS:;
#ATTACKS:;

//---------------dance-single - ----------------
#NOTES:
     dance-single:
     :
     Hard:
     14:
     0.867302,0.940281,1.070920,0.208020,0.204168,788.000000,649.000000,139.000000,27.000000,0.000000,0.000000,0.867302,0.940281,1.070920,0.208020,0.204168,788.000000,649.000000,139.000000,27.000000,0.000000,0.000000:
0000
0000
0000
0000
,
0000
0000
0000
0000
,
0000
0000
0000
0000
,
0100
0001
0100
0001
0100
0001
0100
0001
,
1000
0100
1000
0100
1000
0100
1000
0100
,
1000
0010
0100
0001
1000
0010
0100
0001
,
1001
0110
0101
0101
,
1100
0000
0101
0000
1000
0010
1010
0000
,
0001
0000
1100
0000
0001
0010
1100
0000
,
0010
0000
1001
0000
1000
0010
0011
0000
,
1000
0100
1000
0001
0101
0000
0101
0000
,
1100
0000
0010
0100
0000
0100
0100
0100
,
0000
0001
1000
1000
0001
0001
0000
1000
,
0001
0001
0100
0100
0010
0010
1000
1000
,
1000
0100
1000
0100
0001
0100
0001
0010
,
0001
0000
0001
0000
0100
0000
0100
0000
1000
0100
0000
0000
1000
0010
0000
0000
,
1000
0100
0000
0000
1000
0100
0000
0000
0001
0100
0000
0000
0001
0000
0200
0000
,
0000
0310
1000
0002
0000
0103
0110
0000
,
1000
0001
0000
0000
1000
0001
0000
0000
1000
0001
0000
0000
1000
0000
0100
0000
,
0010
0000
0001
0000
0100
0000
0010
0000
0100
0010
0000
0000
0100
0010
0000
0000
,
1000
0010
0000
0000
1000
0010
0000
0000
0100
0001
0000
0000
0100
0000
0020
0000
,
0000
1030
0001
0100
0010
1000
0101
0000
,
2002
0000
0003
0000
0001
0001
3001
0000
,
0010
0010
0100
0100
0001
0000
1001
0000
,
0010
0100
1000
0100
0010
0100
0001
0000
,
1000
1000
0001
0001
0100
0000
0110
0000
,
2000
0000
3001
0100
0001
0100
0002
0000
,
1003
0100
0010
0001
1000
0010
0100
0001
,
0100
0001
0100
0010
0100
1000
0100
0010
,
0001
0100
0001
0100
0010
1000
0010
1000
,
0100
0010
0001
1000
0100
0010
0001
0000
,
0010
1000
0001
0001
0001
0000
1001
0000
,
0100
0010
0100
0010
1000
0001
1000
0000
,
0100
0010
1000
1000
0010
0100
0001
0001
,
1000
0000
0000
0001
0100
0000
1001
0000
,
0010
0100
0010
0100
0001
1000
0001
0001
,
1000
0100
1000
0100
0010
0010
0100
0100
,
0001
0000
1000
1000
0000
0001
0001
0100
,
0010
0000
1000
0001
1001
0000
0110
0000
,
1001
0000
0100
0010
0000
1000
0100
0010
,
0001
0000
0100
0010
0000
0001
0010
0100
,
1000
0000
0010
0100
0000
1000
0100
0010
,
1001
0000
0000
1010
0000
0000
1001
0000
0000
0101
0000
0000
1001
0000
0010
0000
,
1100
0000
0000
0101
0000
0000
1100
0000
0000
0101
0000
0000
0010
0000
1000
0000
,
1100
0000
0000
0101
0000
0000
0110
0000
0000
0101
0000
0000
1100
0000
0010
0000
,
0101
0000
0000
0110
0000
0000
0101
0000
0000
0000
0110
0000
0110
0000
0000
0000
,
1001
0000
0000
1001
0000
0000
1010
0000
0000
0110
0000
0000
0101
0000
0000
0000
,
1001
0000
0000
1001
0000
0000
0011
0000
0000
0110
0000
0000
1001
0000
0000
0000
,
1100
0000
0000
1100
0000
0000
0101
0000
0000
1100
0000
0000
0110
0000
0000
0000
,
1001
0000
0000
1001
0000
0000
2000
0000
0000
0000
3002
0000
0000
0000
0103
0000
,
0100
0010
1000
0001
0100
0000
0010
1000
,
0100
1000
0000
1000
0000
1000
0000
1000
,
0010
0000
0000
0000
0000
0000
0000
0000
0010
0000
0000
0000
0000
0000
0000
0000
0000
0000
0000
0000
0000
1000
0000
0000
0001
0000
0000
0000
0000
0000
0000
0000
0000
1000
0000
0000
0001
0000
0000
0000
0000
0000
0000
0000
0000
0000
0000
0000
,
0010
1000
0000
1000
0000
1000
0000
1000
,
0010
0100
0010
0100
0001
0000
0001
1000
,
0001
1000
0000
0100
0010
0000
1000
0010
,
1000
0010
0000
0100
1000
0100
1000
0010
,
0100
0000
0000
0000
0001
1000
0000
0000
0001
1000
0000
0000
0000
0000
0010
0000
,
1010
1000
1000
0100
1100
0000
0101
0000
,
0011
0001
0001
0000
0110
0000
0110
0000
,
1100
0100
0100
0000
0101
0000
1100
0000
,
0010
1000
0001
1000
0010
0100
0001
1000
,
1000
0001
1001
0000
0001
1000
1001
0000
,
1000
0100
1100
0000
0001
0010
0011
0000
,
1000
0010
0100
0001
1000
0010
0100
0001
,
1002
0000
0000
0000
0203
0000
0000
0310
,
1010
0100
0010
0100
0020
0000
0230
0000
,
0320
0230
0320
0130
,
1002
0203
0302
0103
,
2001
3200
2300
3100
,
1001
0001
1000
0001
1000
0010
1000
0010
,
0100
0001
0100
0001
1000
0010
0100
0001
,
1000
0100
0010
0001
1000
0100
0010
0001
,
1001
1100
0101
0101
,
0110
0000
1000
0001
0100
0001
1000
0010
,
0100
0101
0000
0101
0000
0100
0001
1000
,
0001
0000
1000
0010
0100
0001
1000
0010
,
0100
0001
1000
0100
0010
0001
0100
0100
,
0101
0000
0010
1000
0100
0010
0001
0100
,
0010
1010
0000
1010
0000
0100
0001
0010
,
0110
0000
0001
0100
0010
1000
0100
0010
,
0001
0100
0010
1000
0100
0010
1000
0001
,
1001
0000
1010
1000
1000
0000
0100
0001
,
1000
1100
0000
1100
0000
0100
0001
0100
,
0010
1000
0100
0020
0000
0130
0001
1000
,
0010
0100
0000
0110
0000
0100
0001
0010
,
1000
1000
0001
0001
0100
0010
1000
0001
,
0100
0110
0000
0110
0000
0001
0100
0010
,
1000
0100
1000
0100
0001
0100
0001
0100
,
0010
1000
0100
0010
0100
0001
0010
0100
,
1000
0000
1001
1000
1000
0000
0110
0000
,
0101
0000
0011
0010
0010
0000
1001
0000
,
1100
0000
0101
0100
0100
0000
0110
0000
,
0001
0100
0001
0100
1000
0100
1000
0100
,
1000
0000
1001
0001
0100
0000
1001
0000
,
0110
0000
1001
1000
0100
0000
1001
0000
,
0110
0011
0110
1100
,
1001
0200
0310
1001
,
0011
0000
0000
0011
0000
0000
0110
0000
0000
1001
0000
0000
0110
0000
0000
0000
,
1100
0000
0000
1100
0000
0000
0110
0000
0000
1001
0000
0000
0110
0000
0000
0000
,
1010
0000
0000
0101
0000
0000
1010
0000
0000
0101
0000
0000
1001
0000
0000
0000
,
0101
0000
0000
1010
0000
0000
0101
0000
1001
0000
1000
0000
1001
0000
0000
0000
,
0101
0000
0010
0100
0000
0001
0100
0000
0010
0100
0000
0001
0100
0000
0000
0000
,
1010
0000
0100
0010
0000
1000
0010
0000
0100
0010
0000
1000
0010
0000
0000
0000
,
0110
0000
1000
0001
0000
1000
0010
0000
1000
0100
0000
1000
0010
0000
1000
0000
,
0001
0000
0010
0000
0100
0000
2000
0000
0000
3000
0000
0000
,
2002
3003
0000
0000
0000
0000
0000
0000
;

//---------------dance-single - ----------------
#NOTES:
     dance-single:
     :
     Challenge:
     17:
     0.970762,1.103808,1.016988,0.292769,0.385223,882.000000,750.000000,132.000000,38.000000,0.000000,0.000000,0.970762,1.103808,1.016988,0.292769,0.385223,882.000000,750.000000,132.000000,38.000000,0.000000,0.000000:
0000
0000
0000
0000
,
0000
0000
0000
0000
,
0000
0000
0000
0000
,
1000
0001
0100
0000
0001
1000
0100
0000
,
0001
0000
0010
0100
0000
0000
1000
0000
0001
0010
0000
0000
0010
0001
0000
0000
,
0001
0010
0100
1000
0100
0010
0001
0100
,
1000
0100
0000
0000
0001
0100
0000
0000
0100
0020
0000
0000
1030
0200
0000
0000
,
1300
0000
1010
0000
0001
0100
0110
0000
,
1000
0100
1001
0000
1000
0100
1001
0000
,
0100
0010
1001
0000
0010
0100
1001
0000
,
1000
0010
1001
0000
0001
0010
1001
0000
,
0011
0000
0000
0000
0100
0000
0010
0000
0000
0000
0010
0000
0100
0000
0100
0001
,
0000
0000
1000
0000
0001
0000
0001
0000
1000
0010
1000
0000
0000
0000
0001
0000
,
1000
0000
1000
0000
0010
0000
0010
0000
0100
0000
0100
0000
0001
0010
0001
0000
,
1000
0100
1000
0100
0010
0000
0100
0010
,
0001
0001
1000
1000
0110
0010
1010
0000
,
1100
1000
1100
0000
0101
0100
0001
0200
,
0000
0000
0310
0100
0010
0000
0002
0000
0000
0000
0103
0010
0100
0000
0000
0000
,
1000
0000
0010
0100
0000
0000
0010
0100
0000
0000
0010
0100
0000
0000
1000
0000
,
0010
0001
0100
0010
1100
0100
0100
0000
,
1001
0001
1001
1000
1100
0100
0101
0002
,
0000
1003
0001
0100
0010
1000
0101
0000
,
2002
0000
0003
0000
0001
0001
3001
0000
,
1000
0010
0100
0001
1001
1000
1001
0000
,
1000
0100
0010
0001
1000
0010
0100
0001
,
1000
1000
1001
0000
0001
0001
1001
0000
,
0110
1000
0001
0000
0110
0001
1000
0000
,
1000
0000
0100
0000
0010
0000
0001
1000
0001
0000
0010
0000
0100
0000
0010
0000
,
0100
0000
0001
0100
0001
0000
0010
0000
0100
0000
0100
0010
0100
0000
0000
0000
,
0001
0000
0100
0001
0100
0000
0010
0000
0010
0000
0010
1000
0010
0000
1000
0000
,
0100
0000
0010
0100
0010
0000
1000
0000
0200
0000
0001
0000
0302
0000
0000
0000
,
1003
0000
0010
0000
0100
0000
0001
0100
0001
0100
0000
0000
0001
0100
0000
0000
,
0100
0010
0100
0010
1000
0001
1001
0000
,
0110
0010
0001
0000
0110
0100
1000
0000
,
1001
0000
0000
0101
0101
0000
1100
0000
,
1000
0100
0100
1000
1000
0010
0100
0100
,
0001
0000
1000
0010
1000
0000
0010
1000
0010
0000
1000
0000
0001
0000
1000
0000
,
0001
0000
0010
0001
0010
0000
0001
0100
0001
0000
0100
0000
1000
0000
0100
0000
,
0100
0000
0001
1000
1001
0000
0100
1000
,
1001
1000
0010
0010
1010
0000
0001
0100
,
1000
0010
0010
0100
0110
0000
1001
0000
,
1000
0010
1000
0010
1000
0001
1000
0000
0001
1000
0001
1000
0001
0100
0001
0000
,
1001
0000
0010
0100
0000
0000
1001
0000
0000
1010
0000
0001
1000
0000
0100
0000
,
1001
0000
0010
1000
0000
0000
0011
0000
0000
1010
0000
0010
0100
0000
0001
0000
,
1001
0000
1000
0010
0000
0000
0011
0000
0000
1010
0000
0010
0001
0000
0100
0000
,
1010
0000
0000
0101
0000
0000
1010
0000
0000
0000
0110
0000
1001
0000
0000
0000
,
0011
0000
1000
0001
0000
0000
0101
0000
0000
1100
0000
0010
1000
0000
0000
0000
,
1010
0000
0100
0001
0000
0000
1100
0000
0000
0101
0000
0010
1000
0000
0000
0000
,
0011
0000
0000
0010
0100
0000
0010
0000
0100
0010
0100
0000
0110
0000
0000
0000
,
1001
0000
0000
1001
0000
0000
0002
0000
0000
0000
2003
0000
0000
0000
3010
0000
,
1010
0000
1000
0000
0010
0000
0010
0100
0010
0000
0000
0000
0020
0000
0000
0000
,
0100
0000
0100
0000
0100
0000
0130
0010
,
0001
0000
0000
0000
0000
0000
0000
0000
0100
0000
0000
0000
0000
0000
0000
0000
0000
0000
0000
0000
0000
0000
0000
0000
1000
0000
0000
0001
0000
0000
0100
0000
0000
0000
0000
0000
0001
0000
0000
1000
0000
0000
0100
0000
0000
0000
0000
0000
,
0010
0000
0010
0010
1000
1000
1001
0000
,
0110
0001
0010
0100
1001
0000
0110
0000
,
1001
0001
0000
0110
0110
0000
1001
0000
,
0101
0100
0100
0100
1010
0010
0010
0010
,
0110
0000
0110
0000
1000
0001
0000
0000
1000
0001
0000
0000
0000
0000
0100
0000
,
0101
0001
0011
0010
0110
0000
1010
1000
,
1000
1000
0000
0101
0000
1010
1000
1000
,
0011
0010
0010
0010
0000
0010
0011
0010
,
0100
0100
1100
0000
0001
0001
1001
0001
,
0001
1000
1001
0000
1000
0001
1001
0000
,
1000
0010
0011
0000
0001
0100
1100
0000
,
1000
0100
0010
1000
0100
0001
0010
1000
,
2001
0000
0000
0000
3020
0000
0000
0130
,
0101
0010
0100
0010
0200
0001
0302
0100
,
0203
0010
0320
1000
2030
0010
3020
0130
,
2001
0001
3020
0100
0230
1000
2300
0001
,
3002
0010
0023
0100
0230
0010
0310
0000
,
1001
1000
0100
0000
1001
0001
0100
0000
,
0110
0100
0210
0000
0000
0000
0000
0300
,
1000
0100
1000
0000
0010
0000
0100
0000
0001
0010
0001
0000
0100
0000
0010
0000
,
1001
0011
1010
1010
,
0021
0000
1030
0100
0010
0001
0010
0100
,
1001
0100
0010
0100
0001
0010
0100
1000
,
1100
1000
0010
0100
0001
0010
0100
0001
,
0011
0010
0100
1000
1010
0010
0100
0001
,
0011
0100
0010
1000
0010
0100
0001
0010
,
0110
0010
1000
0010
0100
0001
0010
1000
,
1100
1000
0010
0100
0001
0010
1000
0100
,
1001
0000
0001
0010
0001
0010
0001
0100
,
0100
0000
0010
0000
0010
0000
1000
0000
0001
1000
0001
0000
0100
0000
0010
0000
,
1000
0000
0100
0000
0010
0000
0001
0000
0100
0010
0100
0000
1000
0000
0002
0000
,
1000
0000
1003
0000
0010
0100
0020
0000
0100
0000
0130
0000
1001
0000
0000
0000
,
1000
0000
0100
0000
0010
0000
0001
0000
0100
0010
0100
0000
0100
0000
0001
0000
,
1000
0000
0010
0000
1000
0001
1000
0000
0200
0000
0001
0000
0302
0000
0000
0000
,
0103
0010
1000
0010
0100
0001
0010
0200
,
0010
0310
1000
0002
0100
0103
0010
1000
,
1001
0011
1010
1001
,
0100
0001
0010
0001
0011
0000
1001
0000
,
0100
0000
1000
0000
0010
0100
0010
0000
1010
0000
0000
0000
1001
0000
0000
0000
,
0100
0010
1000
0001
1001
0000
0110
0000
,
0001
0010
0100
1000
0010
0100
0010
0100
,
1000
0000
0001
0000
0100
0010
0100
0000
0110
0000
0000
0000
1001
0000
0000
0000
,
0001
0000
1000
0000
0010
0100
0010
0000
0110
0000
0000
0000
1001
0000
0000
0000
,
1000
0100
1000
0000
0001
0010
0001
0000
,
1000
0000
0100
0000
0010
0100
0000
0000
0010
0100
0000
0000
0001
0000
0000
0000
,
1001
0000
0100
1000
0000
0010
0100
0000
0001
0010
0000
0100
0010
0000
0100
0000
,
0001
0000
0010
0001
0000
0100
0010
0000
1000
0001
0000
0010
0100
0000
0001
0000
,
0110
0000
1000
0010
0000
0001
0100
0000
1000
0010
0000
0001
1000
0000
0100
0000
,
0010
1000
0000
0001
0100
0000
0010
1000
0010
0000
0001
0000
1001
0000
0000
0000
,
1010
0000
0100
0010
0000
1000
0010
0000
0100
0010
0000
1000
0010
0000
0000
0000
,
0101
0000
0010
0100
0000
0001
0100
0000
0010
0100
0000
0001
0100
0000
0000
0000
,
0110
0000
0001
1000
0000
0001
0100
0000
0001
0010
0000
0001
0100
0000
0001
0000
,
1000
0000
0100
0000
0010
0000
0002
0000
0000
0003
0000
0000
,
2002
3003
0000
0000
0000
0000
0000
0000
;

//---------------dance-single - ----------------
#NOTES:
     dance-single:
     :
     Medium:
     12:
     0.606451,0.654108,0.439154,0.238838,0.104010,551.000000,494.000000,57.000000,31.000000,0.000000,0.000000,0.606451,0.654108,0.439154,0.238838,0.104010,551.000000,494.000000,57.000000,31.000000,0.000000,0.000000:
0000
0000
0000
0000
,
0000
0000
0000
0000
,
0000
0000
0000
0000
,
0110
0010
0010
0010
,
1000
1000
0000
0000
0001
0000
0001
0000
,
0100
0010
0100
0000
0010
0100
0010
0000
,
2000
3002
0103
0100
,
2002
0000
3003
0000
0010
1000
0010
0000
,
0100
0000
0100
0000
0001
0100
0001
0000
,
1000
0000
1000
0000
0010
0100
0010
0000
,
1000
0001
1000
0000
0010
0000
0010
0000
,
1000
0000
0001
0000
0100
0010
0100
0000
,
0001
0000
1000
0000
0010
0100
0010
0000
,
1000
0100
1000
0000
0001
0100
0001
0000
,
0010
0100
1001
1001
,
1000
0100
1000
0000
0001
0000
0001
0000
,
0100
0100
0100
0100
,
0001
0010
0001
0000
1000
0000
1000
0000
,
0010
0010
0010
0010
,
1000
0100
0001
0000
0010
0000
0010
0000
,
0001
0100
1000
0010
,
0001
0100
1000
0000
0010
0000
0010
0000
,
1000
0100
0001
0000
,
0010
0100
0010
0100
0010
0000
1001
0000
,
1000
0100
0010
0001
,
1000
0010
1000
0010
1000
0000
0010
0000
,
0001
0010
0100
1000
,
1001
0000
0010
0100
0000
0010
0100
0000
,
0001
0100
0001
0000
1000
0100
1000
0000
,
1001
0000
0100
0010
0000
0100
0010
0000
,
1000
0100
1000
0000
0001
0100
0001
0000
,
0010
1000
0010
1000
0010
0000
0100
0000
,
0001
0010
0100
1000
,
0100
0001
0100
0001
0100
0000
0010
0000
,
1000
0000
0000
0001
1000
0001
1000
0000
,
0010
0000
0100
0001
0000
1000
0010
1000
,
0000
0001
0000
0100
0000
0010
1000
0010
,
0000
0100
0000
0010
0000
1000
0001
1000
,
0100
0000
0010
0000
1001
0000
1000
1000
,
1000
0000
0000
0010
0100
0000
0001
0000
,
0001
0000
0000
0100
0010
0000
1000
0000
,
0001
1000
0001
1000
0001
1000
0001
1000
,
0001
0000
0000
0001
0000
0000
0001
0000
0000
0001
0000
0000
1001
0000
0000
0000
,
1000
0000
0000
1000
0000
0000
1000
0000
0000
1000
0000
0000
1001
0000
0000
0000
,
0010
0000
0000
0010
0000
0000
0010
0000
0000
0010
0000
0000
1001
0000
0000
0000
,
0100
0000
0000
0100
0000
0000
0100
0000
0010
0000
0000
0000
1001
0000
0000
0000
,
1000
0000
0000
1000
0000
0000
0001
0000
0000
0001
0000
0000
1001
0000
0000
0000
,
0001
0000
0000
0001
0000
0000
1000
0000
0000
1000
0000
0000
1001
0000
0000
0000
,
0100
0000
0000
0100
0000
0000
0010
0000
0000
0010
0000
0000
1001
0000
0000
0000
,
0110
0000
0000
2002
3003
0200
0000
0010
,
0310
0001
0100
0100
,
0010
1000
0000
0010
0000
1000
0000
0000
,
0001
0100
0000
0000
1001
0000
1001
0000
,
0010
0000
1000
0001
1000
0001
1000
0000
,
1001
0001
0000
0100
0100
0000
0000
0000
,
1001
0000
0000
0010
0010
0000
0000
0000
,
1000
0100
1000
0000
0001
0100
0001
0000
,
0110
0000
0000
0000
2002
0000
0000
0000
0000
3003
0000
0000
0000
0000
0010
0000
,
0110
0100
1001
1001
,
0010
0000
0100
0000
1000
0000
0001
2000
,
0000
3001
0100
0002
0000
1003
0100
0000
,
1000
1100
0001
0101
,
0010
0100
0010
0000
1000
0000
1001
0000
,
0010
0010
0100
0100
,
0202
0000
0003
2300
0000
0200
0000
3000
,
0302
0000
0200
0003
0020
0000
0000
0330
,
1000
0001
1000
0000
0010
0000
0010
0000
,
0010
0000
0010
0000
0010
0000
0010
0010
,
0110
0000
0010
0000
0010
0000
0010
0010
,
0110
0010
0010
0010
,
1000
0001
1000
0000
0001
1000
0001
0000
,
1000
0100
1000
0000
0001
0100
0001
0000
,
1000
0100
1000
0100
1000
0100
1000
0000
,
0110
1001
0010
0010
,
1002
0000
0103
0010
0000
1000
0000
1000
,
0001
0100
0000
0100
0000
0100
0000
0001
,
1000
0100
0000
0100
0000
0100
0000
0010
,
1000
0001
1000
0000
0001
1000
0001
0000
,
1000
0001
0000
0100
0000
0100
0000
0001
,
1000
0001
0000
0100
0000
0100
0000
0001
,
1000
0001
0000
0100
0000
0100
0000
0010
,
1000
0100
0100
0000
0001
0100
0100
0000
,
1000
0001
0100
0000
1001
0000
1001
0000
,
0010
0100
0000
0100
0000
0100
0001
0100
,
0000
0010
1000
0010
0000
0100
0000
0100
,
0001
1000
0000
1000
0000
1000
0000
1000
,
0001
0100
0001
0000
0100
0000
0100
0010
,
1000
0010
0000
0100
0000
0100
0000
1000
,
0001
1000
0000
0010
1000
0010
0000
1000
,
0100
1000
0010
2000
3000
0002
0003
0000
,
1000
1001
0200
0300
,
0001
1001
0020
0030
,
1000
0000
1100
0000
0001
0100
0000
0000
,
0001
1100
0010
1001
,
1000
1001
0010
0000
,
0001
1001
0100
0000
,
0001
1000
0100
0000
1000
0001
0100
0000
,
0020
0230
0020
0330
,
1010
0000
0000
0010
0000
0000
0010
0000
0000
0010
0000
0000
1010
0000
0000
0000
,
0101
0000
0000
0100
0000
0000
0100
0000
0000
0100
0000
0000
0101
0000
0000
0000
,
1001
0000
0000
0001
0000
0000
0001
0000
0000
0001
0000
0000
1001
0000
0000
0000
,
1001
0000
0000
1000
0000
0000
1000
0000
0020
0000
0000
0000
0230
0000
0000
0000
,
0301
0000
0000
0010
0000
0000
0100
0000
0000
1000
0000
0000
1001
0000
0000
0000
,
1000
0000
0000
0010
0000
0000
0100
0000
0000
0001
0000
0000
1001
0000
0000
0000
,
0010
0000
0000
1001
0000
0000
0100
0000
0000
1001
0000
0000
0110
0000
0000
0000
,
1000
0000
0000
0010
0000
0000
0100
0000
0200
0000
0000
0000
0300
0000
0000
0000
,
2002
3003
0000
0000
0000
0000
0000
0000
;

//---------------dance-single - ----------------
#NOTES:
     dance-single:
     :
     Easy:
     10:
     0.558023,0.735872,0.978466,0.192611,0.023113,507.000000,380.000000,127.000000,25.000000,0.000000,0.000000,0.558023,0.735872,0.978466,0.192611,0.023113,507.000000,380.000000,127.000000,25.000000,0.000000,0.000000:
0000
0000
0000
0000
,
0000
0000
0000
0000
,
0000
0000
0000
0000
,
0010
0010
0010
0010
,
0010
0010
0010
0010
,
1000
0100
0010
0001
,
1001
0000
0000
0000
,
0002
0103
0001
1001
,
0010
0100
1000
1001
,
0010
1010
0100
0101
,
1000
1100
0101
0101
,
1000
1001
0010
0110
,
1000
1100
0001
0011
,
1000
1001
0010
0110
,
1000
0001
0002
1003
,
0010
0010
1001
1001
,
1000
0100
0010
0001
,
0100
0100
1001
1001
,
0001
0010
0100
1000
,
0001
1000
0110
0110
,
0001
1000
0100
0010
,
1000
0001
0110
0110
,
2002
0000
0000
3003
,
1000
0100
0010
1001
,
0010
0010
0010
1001
,
0001
0010
0100
1001
,
0100
0100
0100
1001
,
0010
0000
1000
0000
1000
0100
1000
0000
,
0010
0000
0001
0000
0001
0100
0001
0000
,
1000
0010
0100
0001
,
0100
0010
1001
1001
,
1000
0100
1000
0000
0001
0000
1001
0000
,
0010
0010
1001
1001
,
0001
0100
0001
0000
0010
0000
0010
0000
,
1001
0000
0100
0100
,
1001
0000
0010
0000
1000
0100
1000
0000
,
0010
0000
0001
0000
0100
0001
0100
0000
,
0010
1000
0100
0001
,
2002
3003
0200
0300
,
1000
1000
1000
1000
,
0001
0001
0001
0001
,
0100
0100
0100
0100
,
0010
0000
0000
1001
,
0100
0000
0000
1001
,
0010
0000
0000
1001
,
0100
0000
0000
0100
0000
0000
0100
0000
0000
0000
0000
0000
1001
0000
0000
0000
,
0010
0000
0000
0010
0000
0000
0010
0000
0000
0000
0000
0000
1001
0000
0000
0000
,
0100
0000
0000
0100
0000
0000
0100
0000
0000
0000
0000
0000
1001
0000
0000
0000
,
0010
0000
0000
0010
0000
0000
0010
0000
0000
0000
0000
0000
1001
0000
0000
0000
,
1001
0000
0000
0010
0000
0100
0000
0000
,
0001
0001
0001
0001
,
1000
1000
1000
1000
,
0100
0000
1001
1001
,
0000
0000
0010
0100
0010
0100
0010
0000
,
1000
0000
0000
0001
1000
0000
0000
0000
,
0000
0000
0000
0001
1000
0000
0000
0000
,
0000
0000
0100
0000
0010
0100
0000
0000
,
0000
2000
0002
3003
,
1100
1100
0101
0101
,
1100
0101
1100
0101
,
0011
0011
1010
1010
,
0011
1010
0011
1010
,
0110
0110
1001
1001
,
0110
1001
0110
1001
,
1100
0000
0000
1001
0000
1001
0000
0000
,
0110
0110
2002
3003
,
1000
1000
1001
1001
,
0010
0010
1001
1001
,
0100
0100
1001
1001
,
0011
0011
1001
1001
,
1100
1100
0101
0101
,
1001
1001
0110
0110
,
1000
0001
1000
0001
1000
0001
1000
0001
,
1000
0000
0010
0010
,
1001
1100
0001
0100
,
0001
0110
1000
0100
,
1000
0101
0010
0100
,
1000
0101
1000
0101
,
1001
0010
0100
0001
,
1010
0001
0100
0010
,
1100
0001
0100
0010
,
1100
1100
0101
0000
,
0001
0001
1001
1001
,
0100
0010
0100
0010
,
1000
1000
1001
1001
,
0010
0100
0010
0100
,
0001
0100
1100
1100
,
0001
0100
0010
1000
,
1000
0100
0011
0011
,
1000
0100
1001
0000
,
0010
1000
2002
3003
,
0010
0001
2002
3003
,
0100
0010
2002
3003
,
0010
0100
2002
3003
,
1000
0100
0020
0130
,
0001
0100
0020
0130
,
1000
1001
0100
0101
,
0010
0011
2002
3003
,
0110
0000
0000
1000
0001
0000
0000
0000
,
0000
0000
0000
1000
0001
0000
0000
0000
,
0000
0000
0000
1000
0001
0000
0000
0000
,
0110
0000
0000
0100
0000
0000
0100
0000
0000
0100
0000
0000
0100
0000
0000
0000
,
1001
0000
0000
0001
1000
0000
0000
0000
,
0000
0000
0000
0001
1000
0000
0000
0000
,
0000
0000
0000
0001
1000
0000
0000
0000
,
0100
0000
0110
0000
,
2002
3003
0000
0000
0000
0000
0000
0000
;

//---------------dance-single - ----------------
#NOTES:
     dance-single:
     :
     Beginner:
     6:
     0.300474,0.367503,0.238838,0.000000,0.000000,273.000000,242.000000,31.000000,0.000000,0.000000,0.000000,0.300474,0.367503,0.238838,0.000000,0.000000,273.000000,242.000000,31.000000,0.000000,0.000000,0.000000:
0000
0000
0000
0000
,
0000
0000
0000
0000
,
0000
0000
0000
0000
,
0000
0100
0000
0100
,
0000
0100
0000
0100
,
0000
0100
0000
0100
,
0100
0000
0010
0010
,
0010
0000
0000
1000
,
0000
1000
0000
1000
,
0000
0001
0000
0001
,
0000
0000
0100
0100
,
0100
0000
0000
0001
,
0000
1000
0000
0001
,
0000
1000
0000
0001
,
0100
0000
0100
0000
,
0010
0010
0010
0010
,
0000
0000
0000
0000
,
1000
1000
1000
1000
,
0000
0000
0000
0000
,
0001
0001
0001
0001
,
0000
0000
0000
0000
,
0100
0100
0100
0100
,
0100
0000
0000
0000
,
0001
0000
0001
0000
,
1000
1000
1000
0000
,
0001
0000
0001
0000
,
1000
1000
1000
0000
,
0010
0010
0010
0000
,
1001
0000
1001
0000
,
0100
0100
0100
0000
,
1001
0000
1001
0000
,
0000
1000
1000
1000
,
0000
0001
0001
0001
,
0000
1000
1000
1000
,
1000
0000
0010
0010
,
0010
0010
0000
1001
,
0000
0100
0000
1001
,
0000
0010
0000
1000
,
1000
0000
0001
0000
,
0100
0000
0110
0000
,
0010
0000
0110
0000
,
1000
1000
1000
1000
,
1000
0000
0000
0001
,
0001
0000
0000
1000
,
1000
0000
0000
0001
,
0001
0000
0100
0000
,
1000
0000
0000
1000
,
1000
0000
0000
0001
,
0001
0000
0000
0100
,
0100
0000
0000
0000
0000
0100
0000
0000
,
0010
0010
0010
0010
,
0000
0000
0000
0000
,
1000
0000
1000
1000
,
0000
0000
0000
0000
,
0000
0000
1001
0000
,
0000
0000
0110
0000
,
0000
0000
1001
0000
,
0000
0010
0010
0000
,
0100
0100
0100
0100
,
0000
1001
0000
1001
,
0000
0010
0010
0010
,
0000
1001
0000
1001
,
0000
1000
1000
1000
,
0000
1001
0000
1000
,
1000
0000
0000
1000
0000
0000
0000
0000
,
0010
0010
0010
0000
,
1000
1000
1000
1000
,
1000
1000
1000
0000
,
0001
0001
0001
0001
,
0001
0001
0001
0000
,
0100
0100
0100
0000
,
0010
0010
0010
0000
,
1000
1000
1000
0000
,
1001
0000
0010
0010
,
0010
0000
1000
0000
,
0001
0001
0001
0000
,
1000
1000
1000
0000
,
0100
0100
0100
0000
,
0001
0000
1000
0000
,
0010
0010
0010
0000
,
1000
1000
1000
0000
,
0001
0000
0100
0000
,
0010
0010
0010
0010
,
0010
0000
0000
0000
,
0100
0100
0100
0100
,
0100
0000
0000
0000
,
0001
0001
0001
0001
,
0001
0000
0000
0000
,
1000
1000
1000
1000
,
1000
0000
0000
0000
,
0100
0000
1001
0000
,
0100
0000
1001
0000
,
0010
0000
1001
0000
,
0100
0100
0100
0000
,
1000
0000
1001
0000
,
0001
0000
1001
0000
,
1000
0000
1001
0000
,
0010
0010
0010
0000
,
0100
0000
1001
0000
,
0010
0000
1001
0000
,
0100
0000
1001
0000
,
0010
0010
0010
0000
,
1000
0000
0110
0000
,
0001
0000
0110
0000
,
1000
0000
0110
0000
,
1001
0000
0000
0000
,
1001
0000
0000
0000
;

//---------------dance-double - ----------------
#NOTES:
     dance-double:
     :
     Easy:
     10:
     0.504092,0.735005,0.593243,0.092453,0.026966,458.000000,381.000000,77.000000,12.000000,0.000000,0.000000,0.504092,0.735005,0.593243,0.092453,0.026966,458.000000,381.000000,77.000000,12.000000,0.000000,0.000000:
00000000
00000000
00000000
00000000
,
00000000
00000000
00000000
00000000
,
00000000
00000000
00000000
00000000
,
00100000
00100000
00100000
00100000
,
00100000
00100000
00100000
00100000
,
00001000
00000100
00000010
00000001
,
00001001
00000000
00000000
00000000
,
00002000
00003010
00000100
00010000
,
00001000
01000000
00010000
10000000
,
00100000
10100000
01000000
01010000
,
10000000
11000000
01010000
01010000
,
10000000
00010000
00100000
00001000
,
00010000
00000010
00001000
00001001
,
00000010
00000100
00010000
00001000
,
01000000
00010000
00020000
10030000
,
00100000
00100000
10010000
10010000
,
10000000
01000000
00100000
00010000
,
00000100
00000100
00001001
00001001
,
00000010
00000100
00001000
00010000
,
00100000
00100000
01100000
01100000
,
01000000
00010000
00001000
00000100
,
00000010
00000010
00000110
00000110
,
00000100
00010000
00001000
00000000
,
00001000
00010000
01000000
10000000
,
00100000
00100000
00100000
10010000
,
10000000
01000000
00010000
00001000
,
00000100
00000100
00000100
00001001
,
00000010
00000000
00001000
00000000
00001000
00000100
00001000
00000000
,
00000010
00000000
00000001
00000000
00000001
00000100
00000001
00000000
,
00000010
00010000
00001000
00100000
,
01000000
00100000
10010000
10010000
,
10000000
01000000
10000000
00000000
00010000
00000000
10010000
00000000
,
00100000
00100000
00010000
00001000
,
00000100
00001000
00000100
00000000
00000010
00000000
00000010
00000000
,
00001001
00000000
00000100
00000100
,
00010000
00000000
00001000
00000000
00100000
00010000
00100000
00000000
,
00010000
00000000
01000000
00000000
10000000
00010000
10000000
00000000
,
00100000
10000000
01000000
00010000
,
00022000
00033000
00200000
00300000
,
10000000
10000000
10000000
01000000
,
00010000
00010000
00010000
00000100
,
00000001
00000001
00000100
00010000
,
00001000
00000000
00000000
10010000
,
10000000
00000000
00000000
00011000
,
00010000
00000000
00000000
00001001
,
00001000
00000000
00000000
00001001
,
00000020
00000000
00010030
00011000
,
00002000
00000000
01003000
10010000
,
20000000
00000000
30000000
10010000
,
10010000
00000000
00000000
00100000
00000000
01000000
00000000
00000000
,
00010000
00010000
00010000
00010000
,
10000000
10000000
10000000
10000000
,
01000000
00000000
00001000
00010000
,
00000000
00000000
00000010
00001000
00000010
00001000
00000010
00000000
,
00000000
00000000
00000000
00001000
00010000
00000000
00000000
00000000
,
00000000
00000000
00000000
00001000
00010000
00000000
00000000
00000000
,
00000000
00000000
00001000
00000000
00010000
00001000
00000000
00000000
,
00000000
00020000
02000000
03030000
,
11000000
11000000
01010000
01010000
,
11000000
01010000
11000000
00000000
,
00110000
00110000
00011000
00011000
,
00110000
00011000
00011000
00000000
,
00000110
00000110
00001001
00001001
,
00000110
00001001
00000110
00001001
,
00000011
00000000
00000000
00001100
00000000
00001100
00000000
00000000
,
00011000
00011000
00022000
00033000
,
00010000
00010000
00010000
01000000
,
10000000
10000000
10000000
00100000
,
00001000
00001000
00001000
00000100
,
00000001
00000001
00000001
00000100
,
00010000
00100000
01000000
00010000
,
00000100
00001000
00000100
00000001
,
00001000
00010000
00001000
00010000
,
00011000
00000000
00100000
00100000
,
00110000
01000000
01000000
10000000
,
00100000
00001000
00010000
00000010
,
00000100
00000100
00000101
00001000
,
00000010
00010000
00001000
01000000
,
00100000
10100000
00100000
10100000
,
01000000
00001000
00010000
00000010
,
00000100
00001001
00000100
00001001
,
00000010
00010000
00001000
00000000
,
00010000
00001000
00010000
00000000
00010000
00000000
00010000
00000000
,
01000000
10000000
00100000
00001000
,
00010000
00001000
00010000
00000000
00010000
00000000
00010000
00000000
,
00000100
00001000
00000010
00000001
,
00000100
00010000
00000100
00000000
00010000
00000000
00010000
00000000
,
00001000
01000000
10000000
00100000
,
01000000
00001000
01000000
00000000
00001000
00000000
00001000
00000000
,
00010000
00000100
00001000
00000010
,
00000001
00000000
00000000
00000010
00001000
00000000
00000100
00000000
,
00010000
00000000
00000000
00001000
01000000
00000000
00100000
00000000
,
10000000
00000000
00000000
10000000
00010000
00000000
01000000
00000000
,
00001000
00010000
00000010
00000100
,
00001001
00000000
00000000
00000001
00001000
00000000
00000100
00000000
,
00010000
00000000
00000000
00001000
01000000
00000000
00100000
00000000
,
10000000
00000000
00000000
01000000
00100000
00000000
00001000
00000000
,
00010000
00000100
00001100
00000000
,
00001001
00000000
00000000
00001000
00000000
00000000
00001000
00000000
00000000
00000000
00000000
00000000
00000000
00000000
00000000
00000000
,
00011000
00000000
00000000
00001000
00000000
00000000
00001000
00000000
00000000
00000000
00000000
00000000
00000000
00000000
00000000
00000000
,
10010000
00000000
00000000
10000000
00000000
00000000
10000000
00000000
00000000
00000000
00000000
00000000
00000000
00000000
00000000
00000000
,
00011000
00000000
00000000
00010000
00000000
00000000
00010000
00000000
00000000
00000000
00000000
00000000
00000000
00000000
00000000
00000000
,
00001010
00000000
00000000
00000010
00000000
00000000
00001000
00000000
00000000
00000000
00000000
00000000
00000000
00000000
00000000
00000000
,
00110000
00000000
00000000
00010000
00000000
00000000
00100000
00000000
00000000
00000000
00000000
00000000
00000000
00000000
00000000
00000000
,
00001100
00000000
00000000
00000100
00000000
00000000
00001000
00000000
00000000
00000000
00000000
00000000
00000000
00000000
00000000
00000000
,
00110000
01000000
10010000
00000000
,
10010000
00000000
00000000
00000000
;

//---------------dance-double - ----------------
#NOTES:
     dance-double:
     :
     Challenge:
     17:
     0.886013,1.062926,1.063215,0.238838,0.223429,805.000000,667.000000,138.000000,31.000000,0.000000,0.000000,0.886013,1.062926,1.063215,0.238838,0.223429,805.000000,667.000000,138.000000,31.000000,0.000000,0.000000:
00000000
00000000
00000000
00000000
,
00000000
00000000
00000000
00000000
,
00000000
00000000
00000000
00000000
,
00001000
00010000
00001000
00000000
00010000
00001000
00010000
00000000
,
00001000
00010000
00000000
00001000
00011000
00000000
00010000
00000000
,
00010000
00100000
01000000
10000000
01000000
00100000
00010000
01000000
,
10000000
01000000
00000000
00000000
00010000
01000000
00000000
00000000
01000000
00200000
00000000
00000000
10300000
02000000
00000000
00000000
,
13000000
00000000
10100000
00000000
00010000
01000000
01100000
00000000
,
00100000
00000000
00110000
00000000
00001000
00010000
00010100
00000000
,
00001000
00001100
00000010
00000110
,
00001000
00000010
00001001
00000000
00000001
00000010
00001001
00000000
,
00000011
00000000
00000000
00000000
00000100
00000000
00000010
00000000
00000000
00000000
00000010
00000000
00000100
00000000
00000100
00000001
,
00000000
00000000
00001000
00000000
00000001
00000000
00000001
00000000
00001000
00000010
00001000
00000000
00000000
00000000
00000100
00000000
,
00000100
00000100
00010000
00010000
00001000
00001000
00010000
00010000
,
01000000
01000000
00010000
00010000
00100000
00000000
01000000
00100000
,
00010000
00010000
10000000
10000000
01100000
00000000
10100000
00000000
,
11000000
00000000
11000000
00000000
01010000
00000000
00100000
00002000
,
00000000
00000000
00013000
00000000
00010000
00000000
00000020
00000000
00000000
00000000
00001030
00000100
00001000
00000000
00000000
00000000
,
00001000
00000000
00000010
00000100
00000000
00000000
00000010
00000100
00000000
00000000
00000010
00000100
00000000
00000000
00001000
00000000
,
00000010
00000001
00000100
00000010
00001100
00000100
00000100
00000000
,
00001001
00000001
00001001
00001000
00001100
00000100
00000101
00000002
,
00000000
00001003
00000100
00010000
00001000
01000000
00010000
10000000
,
20020000
00000000
00030000
00000000
00010000
00010000
30010000
00000000
,
00100000
00001000
00010000
00000100
00001000
00000010
00000100
00000000
,
00000001
00001000
00000100
00000000
00010000
00001000
00100000
00000000
,
00010000
10000000
01000000
00100000
01000000
00010000
00100000
00000000
,
00100000
00001000
00010000
00000000
00000100
00001000
00000010
00000000
,
00001000
00000000
00000001
00000000
00001000
00000000
00000100
00000000
00001000
00000000
00000010
00000000
00001000
00000100
00001000
00000000
,
00000100
00010000
00001000
00100000
00010000
01000000
00100000
00000000
,
10000000
00000000
00100000
00000000
10000000
00000000
00010000
00000000
01000000
00000000
00010000
00000000
10000000
00010000
10000000
00000000
,
00100000
01000000
00001000
00010000
00000100
00001000
00000010
00000000
,
00000010
00000010
00001000
00001000
00001100
00000000
00001010
00000000
,
00001000
00100000
00010000
01000000
00100000
10000000
10100000
00000000
,
10000000
00010000
00100000
00100000
00010000
10000000
00100000
00100000
,
10010000
00000000
00000000
00100000
00001000
00010000
00000100
00000000
,
00001000
00000010
00001000
00000010
00001000
00000100
00001000
00000100
,
00010000
00001000
00100000
00010000
01000000
00100000
10000000
01000000
,
00100000
00010000
00100000
00001000
00010000
00000010
00000100
00000001
,
00001000
00000100
00010000
00001000
01000000
00100000
10000000
01000000
,
10010000
00000000
00000000
00110000
00000000
00000000
00001100
00000000
,
00000101
00000000
00000000
00011000
00000000
00000000
01100000
00000000
,
10000000
00100000
10000000
00100000
10000000
00010000
10000000
00000000
00010000
10000000
00010000
10000000
00010000
01000000
00010000
00000000
,
11000000
00000000
00000000
01010000
00000000
00000000
01010000
00000000
00000000
00011000
00000000
00000000
00001100
00000000
00000000
00000000
,
00000101
00000000
00000000
00000101
00000000
00000000
00001100
00000000
00000000
00011000
00000000
00000000
01010000
00000000
00000000
00000000
,
10100000
00000000
00000000
10100000
00000000
00000000
00110000
00000000
00000000
00101000
00000000
00000000
00001010
00000000
00000000
00000000
,
00001001
00000000
00000000
00001001
00000000
00000000
00001010
00000000
00000000
00010010
00000000
00000000
00011000
00000000
00000000
00000000
,
00110000
00000000
00000000
00110000
00000000
00000000
10010000
00000000
00000000
01010000
00000000
00000000
01001000
00000000
00000000
00000000
,
00011000
00000000
00000000
00011000
00000000
00000000
00001010
00000000
00000000
00000110
00000000
00000000
00001001
00000000
00000000
00000000
,
00000101
00000000
00000000
00000101
00000000
00000000
00001100
00000000
00000000
00010100
00000000
00000000
00011000
00000000
00000000
00000000
,
10010000
00000000
00000000
10010000
00000000
00000000
00020000
00000000
00000000
00000000
20030000
00000000
00000000
00000000
30100000
00000000
,
10100000
00000000
10000000
00000000
00100000
00000000
00100000
01000000
00100000
00000000
00000000
00000000
00200000
00000000
00000000
00000000
,
01000000
00000000
01000000
00000000
01000000
00000000
01300000
00100000
,
00010000
00000000
00100000
00000000
00000000
00000000
00000000
00000000
00001000
00010000
00000000
00000000
00001000
00010000
00000000
00000000
,
00002000
00000000
00013000
00100000
01000000
10000000
10010000
00000000
,
01100000
00010000
00100000
01000000
10010000
00000000
01100000
00000000
,
10010000
00010000
00000000
00100000
00001000
00000000
00011000
00000000
,
00001000
00000100
00000001
00000010
00001000
00000100
00000001
00000010
,
00001001
00000000
00000000
00000000
00000110
00000000
00000000
00000000
00001000
00000002
00000000
00000000
00000000
00000000
00000103
00000000
,
00000100
00000010
00001010
00001000
00011000
00000000
10100000
10000000
,
10000000
10000000
00000000
01010000
00000000
10100000
10000000
00000000
,
00110000
00100000
00000000
00100000
00000000
00100000
00101000
00000000
,
00010000
00010100
00000000
00010100
00000000
00001000
00001001
00001000
,
00000010
00000100
00000010
00000100
00001001
00000000
00001001
00000000
,
00000100
00010000
00000000
00011000
00000000
00001000
01000000
00100000
,
10000000
01000000
00100000
10000000
01000000
00010000
00100000
10000000
,
20010000
00000000
00000000
00000000
30200000
00000000
00000000
01300000
,
01010000
00100000
01000000
00100000
02000000
00010000
03010000
00000000
,
00100000
00001000
00200000
00001000
00302000
00000000
00023000
00030100
,
00010100
00010000
00000020
00000100
00000130
00000001
00000002
00001000
,
00002003
00000100
00003200
00010000
00020300
00000100
00030100
00000000
,
00010000
00001000
01000000
00010000
10000000
00010000
00100000
00001000
,
00010000
00000100
00001000
00000001
00000100
00000010
00010000
00001000
,
01000000
00100000
01000000
00000000
00010000
10000000
00010000
00000000
10000000
01000000
10000000
00000000
00010000
01000000
00010000
00000000
,
00110000
00001100
00000101
00001010
,
00210000
00000000
10300000
01000000
00100000
00010000
00100000
01000000
,
10010000
01000000
00100000
01000000
00010000
00100000
01000000
00000000
,
10000000
00100000
01000000
00001000
00010000
00000100
00001000
00000010
,
00000100
00000001
00001001
00000000
00000010
00001000
00001001
00000000
,
00000011
00000100
00000010
00001000
00000010
00000100
00000001
00000010
,
00000110
00000010
00001000
00000100
00010000
00001000
00100000
01000000
,
00010000
10000000
00100000
01000000
00001000
00010000
00000100
00001000
,
00000001
00000010
00000100
00001000
00000100
00010000
00001000
00100000
,
00100000
00100000
00100000
00000000
10010000
00000000
10010000
00000000
,
10000000
00000000
01000000
00000000
00100000
00000000
00010000
00000000
01000000
00100000
01000000
00000000
10000000
00000000
00000000
00000000
,
00010000
00010000
00010000
00100000
00001000
00010000
00000010
00000100
,
00000001
00000100
00000010
00000001
00000100
00000100
00000110
00000000
,
00001000
00000000
00000010
00000000
00001000
00000001
00001000
00000000
00000200
00000000
00000001
00000000
00000302
00000000
00000000
00000000
,
00000103
00000010
00001000
00000010
00010000
00001000
01000000
00010000
,
01000000
00100000
10000000
00020000
01000000
01030000
00100000
10000000
,
10010000
00110000
10100000
10010000
,
00100000
01000000
10000000
00010000
10010000
00000000
00100000
00000000
,
00001000
00010000
00000100
00001000
00000010
00000000
00001010
00000000
,
00000001
00000100
00000010
00001000
00000100
00010000
00001000
01000000
,
00010000
10000000
01000000
00100000
00001000
00010000
00000010
00000100
,
00000001
00001000
00000100
00010000
00011000
00000000
01001000
00000000
,
01000000
00010000
10000000
00100000
10100000
00000000
01010000
00000000
,
01000000
00001000
00010000
00000000
00010000
00000100
00001000
00000000
,
00000001
00000100
00001000
00000100
00000001
00000100
00001000
00000000
,
00000010
00000000
00000000
00001010
00000000
00000000
00001000
00000000
00000000
00001100
00000000
00000000
00010100
00000000
00000000
00000000
,
00100000
00000000
00000000
00110000
00000000
00000000
00010000
00000000
00000000
01010000
00000000
00000000
10010000
00000000
00000000
00000000
,
10000000
00000000
00000000
10100000
00000000
00000000
00010000
00000000
00000000
00110000
00000000
00000000
10010000
00000000
00000000
00000000
,
00100000
00000000
00000000
00101000
00000000
00000000
00011000
00000000
00000000
00001010
00000000
00000000
00001001
00000000
00000000
00000000
,
00000001
00000000
00000000
00001100
00000000
00000000
00010000
00000000
00000000
01010000
00000000
00000000
10010000
00000000
00000000
00000000
,
10000000
00000000
00000000
01010000
00000000
00000000
00010000
00000000
00000000
00001100
00000000
00000000
00000101
00000000
00000000
00000000
,
00000001
00000000
00000000
00000011
00000000
00000000
00001000
00000000
00000000
00101000
00000000
00000000
10000000
00000000
00000000
00000000
,
01000000
00000000
00000000
00001000
00000000
00000000
00020000
00000000
00002000
00000000
00000000
00000000
00033000
00000000
00000000
00000000
,
00022000
00033000
00000000
00000000
00000000
00000000
00000000
00000000
;

//---------------dance-double - ----------------
#NOTES:
     dance-double:
     :
     Hard:
     14:
     0.803465,0.899399,0.893717,0.077045,0.111715,730.000000,614.000000,116.000000,10.000000,0.000000,0.000000,0.803465,0.899399,0.893717,0.077045,0.111715,730.000000,614.000000,116.000000,10.000000,0.000000,0.000000:
// measure 0
00000000
00000000
00000000
00000000
,  // measure 1
00000000
00000000
00000000
00000000
,  // measure 2
00000000
00000000
00000000
00000000
,  // measure 3
00000010
00001000
00000010
00001000
00000010
00001000
00000100
00010000
,  // measure 4
00001000
01000000
00001000
01000000
00001000
01000000
00100000
10000000
,  // measure 5
01000000
00100000
00010000
00000000
00100000
00001000
00010000
00000000
,  // measure 6
00001100
00000011
00000110
00000110
,  // measure 7
00001001
00000000
00000001
00000100
00000010
00001000
00000010
00000100
,  // measure 8
00000010
00001000
00000100
00001000
00000100
00010000
00001000
01000000
,  // measure 9
00100000
10000000
00100000
10000000
00100000
01000000
00100000
01000000
,  // measure 10
00100000
10000000
01000000
00100000
00001000
00010000
00000100
00001000
,  // measure 11
00000001
00000100
00000001
00000000
00001000
00000100
00001000
00000000
,  // measure 12
00000010
00010000
00001000
00000000
00001000
01000000
00010000
00000000
,  // measure 13
10000000
00100000
01000000
00000000
00001000
00010000
00000010
00000000
,  // measure 14
00000100
00000001
00001000
00000000
00000100
00000000
00011000
00000000
,  // measure 15
00100000
00100000
00100000
00100000
01100000
00000000
10010000
00000000
,  // measure 16
10000000
01000000
00100000
00000000
00100000
00001000
00010000
00000000
,  // measure 17
00000100
00000100
00000100
00000100
00000100
00000000
00001001
00000000
,  // measure 18
00000010
00001000
00000100
00000000
00100000
00010000
01000000
00000000
,  // measure 19
00100000
00100000
10000000
10000000
00100000
00000000
10100000
00000000
,  // measure 20
01000000
00010000
00010000
00000100
00000100
00001000
00000001
00000000
,  // measure 21
00000010
00000010
00001000
00001000
00000010
00000010
00001001
00000000
,  // measure 22
00000010
00001000
00010000
01000000
,  // measure 23
10000000
00100000
10000000
00100000
10000000
00000000
01000000
00000000
,  // measure 24
00010000
00001000
00000010
00000001
,  // measure 25
00000100
00000010
00000100
00000010
00000100
00000000
00000010
00000000
,  // measure 26
00001000
00010000
01000000
10000000
,  // measure 27
00100000
01000000
00100000
10000000
00000000
00010000
01000000
00100000
,  // measure 28
00000000
10000000
00010000
00100000
00001000
00010000
00000010
00001000
,  // measure 29
00000001
00000100
00000001
00000100
00000000
00000100
00001000
00000100
,  // measure 30
00000000
00000100
00010000
00001000
01000000
00010000
10000000
01000000
,  // measure 31
10000000
10000000
10000000
10000000
00010000
00000000
01000000
00000000
,  // measure 32
00001000
00000000
00010000
00000000
00000010
00000100
00000010
00000000
,  // measure 33
00000001
00000001
00000001
00000001
00001000
00000000
00000010
00000000
,  // measure 34
00001100
00000000
00000000
00000100
00010000
00001000
01000000
00000000
,  // measure 35
00010000
10000000
00010000
10000000
00000000
00001000
00010000
00001000
,  // measure 36
00000000
00000001
00001000
00000001
00001000
00000000
00000010
00000000
,  // measure 37
00010000
00001000
00010000
00001000
00000000
10000000
00100000
10000000
,  // measure 38
00000000
00001000
00010000
00001000
00010000
00000000
00000010
00000000
,  // measure 39
00001001
00000100
00010000
01000000
,  // measure 40
10010000
01000000
00010000
00000100
,  // measure 41
00001001
00000010
00010000
00100000
,  // measure 42
10010000
00000000
00000000
10010000
00000000
00000000
10100000
00000000
00000000
10100000
00000000
00000000
01010000
00000000
00000000
00000000
,  // measure 43
00011000
00000000
00000000
00011000
00000000
00000000
00001010
00000000
00000000
00001010
00000000
00000000
00001001
00000000
00000000
00000000
,  // measure 44
00001100
00000000
00000000
00001100
00000000
00000000
00011000
00000000
00000000
00011000
00000000
00000000
01010000
00000000
00000000
00000000
,  // measure 45
10100000
00000000
00000000
10100000
00000000
00000000
00110000
00000000
00000000
00110000
00000000
00000000
00011000
00000000
00000000
00000000
,  // measure 46
00001100
00000000
00000000
00001010
00000000
00000000
00000101
00000000
00000000
00001001
00000000
00000000
00001001
00000000
00000000
00000000
,  // measure 47
00001010
00000000
00000000
00001100
00000000
00000000
00010100
00000000
00000000
00011000
00000000
00000000
01001000
00000000
00000000
00000000
,  // measure 48
01010000
00000000
00000000
10000000
00000000
00000000
01010000
00000000
00000000
10000000
00000000
00000000
01010000
00000000
00100000
00000000
,  // measure 49
00001000
00010000
00000010
00000001
00000000
00000200
00000000
00000310
,  // measure 50
00000010
00001000
00001000
00000100
00000100
00000000
00010000
00001000
,  // measure 51
00100000
00010000
00000000
10010000
00000000
11000000
00000000
00100000
,  // measure 52
10000000
01000000
00000000
00100000
00001000
00000000
00011000
00000000
,  // measure 53
00000010
00000000
00000100
00000001
00001000
00000010
00001000
00000000
,  // measure 54
00000100
00010000
00001000
01000000
00100000
10000000
01000000
00100000
,  // measure 55
00001000
00010000
00000100
00001000
00000010
00000100
00000001
00001000
,  // measure 56
00000100
00010000
00001000
01000000
00100000
10000000
01000000
00100000
,  // measure 57
00010000
00002000
00020000
00033000
,  // measure 58
00000010
00000100
00001000
00000001
00001001
00000000
00001001
00000000
,  // measure 59
00000010
00001000
00000100
00000000
00000100
00001000
00000010
00000001
,  // measure 60
00000000
00000100
00010000
00001000
00000000
00100000
00010000
00000000
,  // measure 61
10000000
01000000
00100000
00010000
01000000
00000000
10010000
00000000
,  // measure 62
00100000
10000000
01000000
00100000
00010000
00100000
00010000
00000000
,  // measure 63
00100000
00001000
00000000
00010000
00000000
00000100
00001000
00000010
,  // measure 64
00000110
00000000
00001000
00000200
00000000
00020300
00000000
00031000
,  // measure 65
00011000
00101000
02002000
03003000
,  // measure 66
01000000
00100000
01000000
00100000
01000000
00100000
10000000
00010000
,  // measure 67
00100000
00001000
00100000
00001000
00100000
00001000
00010000
00000010
,  // measure 68
00000100
00000001
00000100
00000001
00000100
00000001
00001000
00000010
,  // measure 69
00010000
00001000
00010000
00001000
00010000
00001000
01000000
00010000
,  // measure 70
10000000
01000000
10000000
00010000
01000000
00010000
01000000
00001000
,  // measure 71
00010000
00001000
00010000
00000100
00001000
00000100
00001000
00000001
,  // measure 72
00000100
00000001
00001000
00000100
00010000
00001000
01000000
00010000
,  // measure 73
10000000
00100000
00001000
00011000
,  // measure 74
00010100
00000000
00000010
00001000
00000100
00000000
00001000
00000010
,  // measure 75
00000100
00000001
00000000
00000001
00000000
00000001
00001000
00000010
,  // measure 76
00000100
00000000
00000100
00010000
00001000
00000000
00001000
01000000
,  // measure 77
00100000
10000000
00000000
10100000
00000000
10100000
00000000
00100000
,  // measure 78
01000000
00000000
01000000
00001000
00010000
00000000
00010000
00000010
,  // measure 79
00000100
00000001
00000000
00001001
00000000
00001001
00000000
00000001
,  // measure 80
00001000
00000000
00000100
00010000
00001000
00000000
00001000
00100000
,  // measure 81
00010000
01000000
00100000
10000000
01000000
00100000
00010000
00100000
,  // measure 82
00001000
00010000
00000100
00010000
00001100
00000000
00000101
00000000
,  // measure 83
00000010
00001000
00000100
00001000
00000000
00001100
00000000
00000100
,  // measure 84
00010000
00001000
01000000
00100000
10000000
01000000
11000000
00000000
,  // measure 85
01010000
00000000
00011000
00000000
00001100
00000000
00000001
00000100
,  // measure 86
00001000
00000100
00001000
00010000
00001000
00000000
00101000
00000000
,  // measure 87
00010000
01000000
00000000
10010000
00000000
01000000
00000000
00001000
,  // measure 88
00010000
00000010
00000100
00000001
00001000
00000100
00001100
00000000
,  // measure 89
00001010
00011000
00011000
01010000
,  // measure 90
00100000
10000000
01000000
10000000
10010000
00000000
00110000
00000000
,  // measure 91
00100000
00001000
00010000
00000100
00001100
00000000
00001010
00000000
,  // measure 92
00000010
00000100
00000001
00001000
00000001
00000001
00001000
00000000
,  // measure 93
00000010
00001000
00000100
00000000
00000100
00010000
00001000
00000000
,  // measure 94
00001000
01000000
01000000
00100000
00100000
00000000
10010000
00000000
,  // measure 95
01000000
00010000
00010000
00100000
00100000
00000000
10010000
00000000
,  // measure 96
10000000
00010000
00100000
00001000
00010000
00000100
00001000
00000000
,  // measure 97
00000010
00000100
00001000
00000000
00001001
00000000
00000000
00000000
,  // measure 98
00001010
00000000
00000000
00001100
00000000
00000000
00001010
00000000
00000000
00001100
00000000
00000000
00001010
00000000
00000000
00000000
,  // measure 99
00011000
00000000
00000000
00101000
00000000
00000000
00011000
00000000
00000000
00101000
00000000
00000000
00011000
00000000
00000000
00000000
,  // measure 100
10100000
00000000
00000000
10010000
00000000
00000000
10100000
00000000
00000000
10010000
00000000
00000000
10100000
00000000
00000000
00000000
,  // measure 101
11000000
00000000
00000000
10010000
00000000
00000000
11000000
00000000
00000000
01010000
00000000
00000000
10010000
00000000
00000000
00000000
,  // measure 102
01010000
00000000
00000000
00001000
00000000
00000000
00010000
00000000
00000000
00001100
00000000
00000000
00000101
00000000
00000000
00000000
,  // measure 103
00001100
00000000
00000000
00010000
00000000
00000000
00011000
00000000
00000000
01000000
00000000
00000000
01010000
00000000
00000000
00000000
,  // measure 104
10100000
00000000
00000000
00001000
00000000
00000000
10100000
00000000
00000000
00001000
00000000
00000000
00011000
00000000
00000000
00000000
,  // measure 105
00001010
00000000
00000000
00000001
00000000
00000000
00000100
00000000
00020000
00000000
00000000
00000000
00031000
00000000
00000000
00000000
,  // measure 106
00022000
00033000
00000000
00000000
00000000
00000000
00000000
00000000
;

//---------------dance-double - ----------------
#NOTES:
     dance-double:
     :
     Medium:
     13:
     0.676892,0.899399,0.785855,0.084749,0.111715,615.000000,513.000000,102.000000,11.000000,0.000000,0.000000,0.676892,0.899399,0.785855,0.084749,0.111715,615.000000,513.000000,102.000000,11.000000,0.000000,0.000000:
00000000
00000000
00000000
00000000
,
00000000
00000000
00000000
00000000
,
00000000
00000000
00000000
00000000
,
00110000
00010000
00010000
00010000
,
11000000
10000000
10000000
10000000
,
01010000
00010000
00011000
00010000
,
00010100
00000000
00000010
00000010
,
00001001
00000000
00000110
00000000
00001000
00000100
00001000
00000000
,
00000010
00000000
00001001
00000000
00000100
00001000
00000100
00000000
,
00010000
00001000
00010000
00000000
00100000
00010000
00100000
00000000
,
10000000
01000000
10000000
01000000
10000000
00100000
10000000
00000000
,
01000000
00000000
01010000
00000000
00100000
00001000
00100000
00000000
,
00010000
00000000
00010100
00000000
00001000
00000100
00001000
00000000
,
00000010
00000100
00000010
00000000
00000001
00001000
00000001
00000000
,
00001000
00000100
00001000
00000100
00001000
00000000
00000100
00000000
,
00010000
00001000
00010000
00001000
00010000
00000000
00001000
00000000
,
00010000
00000000
00100000
00000000
01000000
00000000
10000000
00010000
,
00000000
00010000
10000000
00010000
00000000
01000000
00010000
00000000
,
00100000
00000000
00001000
00000000
00010000
00000000
00000010
00001000
,
00000010
00001000
00000010
00001000
00000001
00000000
00000100
00000000
,
00000010
00000000
00001000
00000000
00000100
00000000
00010000
00001000
,
00000000
01000000
00010000
01000000
00000000
00010000
10000000
00000000
,
01000000
01000000
01000000
10010000
,
10000000
00100000
10000000
00100000
10000000
00000000
00100000
00000000
,
00001000
00010000
00000010
00001000
,
00000001
00001000
00000001
00001000
00000001
00000000
00000010
00000000
,
00010000
00001000
00100000
00010000
,
10000000
01000000
00010000
00000000
10000000
01000000
00010000
00000000
,
00100000
00010000
00001000
00000000
00010000
00001000
00000100
00000000
,
00001000
00000100
00000001
00000000
00001000
00000100
00000001
00000000
,
00000100
00001000
00010000
00000000
00001000
00000000
00100000
00000000
,
10000000
01000000
10000000
00010000
01000000
00000000
00001000
00000000
,
00010000
00000000
00000010
00000000
00000100
00000001
00001000
00000000
,
00000001
00000010
00000001
00001000
00000010
00000000
00001000
00000000
,
00001100
00000000
00000000
00000100
00010000
00000000
00011000
00000000
,
00001000
01000000
00010000
01000000
00001000
01000000
00100000
01000000
,
00010000
00100000
00001000
00100000
00010000
00100000
10000000
00100000
,
00001000
00010000
00000100
00010000
00000010
00001000
00000001
00001000
,
00000100
00000000
00000010
00000010
00000020
00000000
00000130
00000100
,
00000100
00000000
00000000
00000001
00001000
00000000
00000100
00000000
,
00011000
00000000
00000000
00001000
00010000
00000000
01000000
00000000
,
10010000
00000000
00000000
10000000
00010000
00000000
00100000
00000000
,
00011000
00000000
00000000
00010000
00000000
00000000
00010000
00000000
00000000
00000100
00000000
00000000
00001001
00000000
00000000
00000000
,
00001001
00000000
00000000
00000001
00000000
00000000
00000001
00000000
00000000
00010000
00000000
00000000
00011000
00000000
00000000
00000000
,
01001000
00000000
00000000
01000000
00000000
00000000
01000000
00000000
00000000
00010000
00000000
00000000
10010000
00000000
00000000
00000000
,
01100000
00000000
00000000
01000000
00000000
00000000
01000000
00000000
00000000
01000000
00000000
00000000
10010000
00000000
00000000
00000000
,
11000000
00000000
00000000
01000000
00000000
00000000
00100000
00000000
00000000
00100000
00000000
00000000
10010000
00000000
00000000
00000000
,
00110000
00000000
00000000
00100000
00000000
00000000
00001000
00000000
00000000
00001000
00000000
00000000
00011000
00000000
00000000
00000000
,
00001100
00000000
00000000
00001000
00000000
00000000
00000010
00000000
00000000
00000010
00000000
00000000
00000110
00000000
00000000
00000000
,
00001001
00000000
00000000
00000010
00000000
00000100
00000000
00000000
,
00000001
00000100
00001000
00000100
,
00010000
01000000
10000000
01000000
,
00100000
00001000
00010000
00000100
,
00001000
00000000
00000010
00000100
00000010
00000100
00000010
00000000
,
00001001
00000000
00000000
00000010
00001000
00000000
00000100
00000000
,
00011000
00000000
00000000
00001000
01000000
00000000
00010000
00000000
,
01010000
00000000
00000000
10000000
00100000
00000000
01000000
00000000
,
10010000
00200000
00002000
00303000
,
00001000
00010000
00000100
00010000
00001000
00000000
00000100
00000000
,
00000010
00000000
00000001
00000000
00000100
00000000
00001000
00000100
,
00000000
00010000
00001000
00100000
00000000
00100000
00010000
00000000
,
10000000
01000000
00100000
00010000
,
01000000
00010000
01000000
00010000
01000000
00000000
00100000
00000000
,
00001000
00010000
00000010
00000100
,
00000010
00000010
00000000
00000100
00000000
00001001
00000000
00000000
,
00000020
00020030
00002000
00033000
,
00011000
00011000
00011000
01010000
,
11000000
11000000
11000000
01010000
,
00011000
00011000
00011000
00001100
,
00000101
00000101
00000101
00001100
,
00011000
00110000
10100000
00110000
,
00011000
00001010
00000011
00001010
,
00011000
01010000
00011000
00001100
,
00011000
00100000
10000000
10000000
,
01010000
00000000
00100000
00001000
00010000
00000000
00000100
00001000
,
00000010
00000100
00000000
00000100
00000000
00000100
00000000
00000100
,
00000001
00000000
00000010
00001000
00000100
00000000
00000100
00010000
,
00001000
01000000
00000000
00100000
00000000
00010000
00000000
10000000
,
01000000
00000000
10000000
00010000
01000000
00000000
01000000
00010000
,
01000000
00001000
00000000
00001000
00000000
00001000
00010000
00001000
,
00010000
00000000
00000100
00001000
00000010
00000000
00000100
00000001
,
00001000
00000100
00000000
00000100
00001000
00000000
00000001
00000000
,
00001000
00000100
00001000
00000100
00001000
00000000
00000101
00000000
,
00001000
00000101
00001000
00001100
,
00000100
00010000
00001000
00010000
00001000
00000000
00101000
00000000
,
00001000
00110000
00001000
00110000
,
00010000
01000000
10000000
01000000
00010000
00000000
01100000
00000000
,
10000000
00000000
01100000
00000000
00010000
00000000
00100000
00001000
,
00010000
00000010
00001000
00000001
00000100
00000010
00000100
00000000
,
00001001
00000010
00000220
00000330
,
00000001
00001000
00000100
00000000
00011000
00000000
00000000
00000000
,
10000000
00010000
01000000
00000000
10010000
00000000
00000000
00000000
,
00010000
00001000
00000100
00000000
00100000
00001000
00010000
00000000
,
00010000
01000000
00100000
10010000
,
10000000
00100000
01000000
00000000
01010000
00000000
00100000
00000000
,
00100000
00001000
00010000
00000000
00011000
00000000
00010000
00000000
,
00000100
00001000
00000010
00000000
00001010
00000000
00000010
00000000
,
00000100
00000001
00001000
00000010
00000100
00000000
00000000
00000000
,
00001100
00000000
00000000
00001100
00000000
00000000
00001100
00000000
00000000
00001100
00000000
00000000
00001010
00000000
00000000
00000000
,
00011000
00000000
00000000
00011000
00000000
00000000
00011000
00000000
00000000
00011000
00000000
00000000
01001000
00000000
00000000
00000000
,
01100000
00000000
00000000
01100000
00000000
00000000
01100000
00000000
00000000
01100000
00000000
00000000
10010000
00000000
00000000
00000000
,
10000000
00000000
00000000
00100000
00000000
00000000
01000000
00000000
00000000
00001000
00000000
00000000
00010000
00000000
00000010
00000000
,
00000100
00000000
00000000
00000100
00000000
00000000
00000100
00000000
00000000
00001001
00000000
00000000
00001001
00000000
00000000
00000000
,
00010000
00000000
00000000
00010000
00000000
00000000
00010000
00000000
00000000
00001000
00000000
00000000
00011000
00000000
00000000
00000000
,
01000000
00000000
00000000
01000000
00000000
00000000
00100000
00000000
00000000
10000000
00000000
00000000
10010000
00000000
00000000
00000000
,
01010000
00000000
00000000
00010000
00000000
00000000
00100000
00000000
00002000
00000000
00000000
00000000
00013000
00000000
00000000
00000000
,
00022000
00033000
00000000
00000000
00000000
00000000
00000000
00000000
;
