#TITLE:Breakin' Chain;
#SUBTITLE:;
#ARTIST:REDALiCE feat. MONICO;
#TITLETRANSLIT:;
#SUBTITLETRANSLIT:;
#ARTISTTRANSLIT:;
#GENRE:;
#CREDIT:;
#MENUCOLOR:;
#METERTYPE:DDR;
#BANNER:Breakin' Chain.png;
#BACKGROUND:Breakin' Chain-jacket.png;
#LYRICSPATH:;
#CDTITLE:;
#MUSIC:Breakin' Chain.ogg;
#OFFSET:-2.095;
#SAMPLESTART:30.920;
#SAMPLELENGTH:12.430;
#SELECTABLE:YES;
#LISTSORT:;
#DISPLAYBPM:103.000;
#BPMS:0.000=103.000;
#STOPS:;
#BGCHANGES:;
#ATTACKS:;

//---------------dance-double - ----------------
#NOTES:
     dance-double:
     :
     Hard:
     13:
     0.633,0.695,0.289,0.338,0.619:
00000000
00000000
00000000
00000000
,
00000000
00000000
00000000
00000000
,
00000000
00000000
00000000
00000000
,
00000000
00000000
00000000
00000100
00001000
00000000
00010000
00000000
00001000
00000000
00010000
00100000
00000000
00000000
00000000
00000000
,
00002000
00000000
00000000
00013000
00001000
00000000
00010000
00000000
00002000
00000000
00000000
00103000
00010000
00000000
01000000
00000000
,
00100000
00000000
10000000
00000000
01000000
00000000
00010000
00200000
00000000
00000000
00000000
00310000
00100000
00000000
00001000
00010000
,
00002000
00000000
00000000
00013000
00000100
00000000
00001000
00000000
00000010
00000000
00000000
00000100
00000001
00000000
00000010
00000000
,
00000001
00000000
00001000
00000010
00000000
00000000
00000100
00000000
00000001
00000000
00001000
00000010
00000000
00000000
00000000
00000000
,
00000001
00000000
00000100
00000010
00001000
00000000
00000010
00000000
00000100
00000001
00000010
00000000
00001010
00000000
00001010
00000000
,
00000100
00000000
00010000
00001000
00010000
00000000
00001000
00000000
00100000
00010000
00100000
00000000
01010000
00000000
01010000
00000000
,
10000000
01000000
00000000
00100000
00010000
00000000
01000000
00010000
01000000
00010000
00000000
00100000
00001000
00000000
00010000
00000000
,
00000100
00001000
00000010
00001000
00000100
00000001
00000010
00000001
00000100
00000000
00000010
00000000
00010000
00000000
00001000
00020000
,
00000000
00001000
00000000
00001000
00031000
00000000
00001000
00000000
00011000
00000000
00101000
00000000
00001000
00100000
00010000
00000000
,
02000000
00000000
03100000
00000000
10000000
00100000
01000000
00000000
00010000
00000000
00100000
00000000
00010000
00100000
00001000
00000000
,
00010000
00000100
00001000
00000000
00001000
00000001
00000100
00000000
00000001
00000000
00001001
00000000
00001000
00000000
00000100
00010000
,
00000000
00001000
01000000
00000000
00100000
00000000
10000000
00010000
00100000
00000000
00010000
00000000
10010000
00000000
00100000
02000000
,
00000000
00000000
00100000
00000000
03100000
00000000
00110000
00000000
00200000
00000000
00001000
00000000
00301000
00000000
00001000
00020000
,
00000100
00000000
00030100
00000000
00000100
00000000
00000100
00001000
00000010
00000000
00000101
00000000
00000001
00000000
00000001
00000100
,
00000000
00000100
00000010
00000000
00001010
00000000
00000100
00010000
00001000
00000000
00011000
00000000
00011000
00000000
00001000
00100000
,
00010000
00000000
00110000
00000000
00110000
00000000
01000000
00100000
00010000
01000000
00010000
01000000
00100000
10000000
00100000
10000000
,
01000000
00000000
01000000
00000000
00010000
00000000
10000000
00010000
20000000
00000000
30000000
00000000
00010000
00100000
01000000
00000000
,
10000000
01000000
00100000
00000000
00100000
00001000
00010000
00000000
00000100
00000000
00001000
00000000
00000100
00001000
00000010
00000000
,
00000100
00000001
00000010
00000000
00000010
00001000
00000100
00000000
00010100
00000000
00010100
00000000
00010100
00000000
00011000
00000000
,
00101000
00000000
00101000
00000000
00101000
00000000
00110000
00000000
01000000
00010000
01000000
00010000
00100000
00010000
00100000
00010000
,
00100000
00000000
00110000
00000000
00011000
00000000
00001100
00000000
00000010
00001000
00000010
00001000
00000000
00000001
00000100
00000000
,
00000001
00000000
00000100
00000000
00000010
00000000
00001000
00000000
00000200
00000000
00010300
00002000
00000000
00013000
00000100
00000000
,
00010000
00000000
00001000
00000000
01000000
00010000
01000000
00000000
01000000
00010000
01000000
00010000
00000000
00100000
00001000
00000000
,
00010000
00001000
00010000
00001000
00000000
00010000
00000100
00000000
00000100
00001000
00000010
00001000
00000000
00000100
00000001
00000000
,
00000010
00000000
00000110
00000000
00000001
00000000
00000020
00002000
00000000
00000000
00000000
00000000
00003030
00000000
00000100
00000000
,
00000000
00010000
00001000
00100000
00000000
00100000
00010000
01000000
00000000
01000000
00100000
10000000
00000000
10000000
01000000
00100000
,
00000000
00100000
00010000
01000000
00010000
00000000
00100000
00000000
00002000
00000000
00000000
00000000
00013000
00000000
00001000
00000000
,
00010000
00000100
00010000
00000100
00000000
00001000
00000010
00000000
00000100
00000001
00000100
00000001
00000100
00000010
00000100
00000010
,
00001000
00000100
00001000
00000100
00010000
00000000
00001000
00020000
00002000
00000000
00000000
00000000
00000000
00000000
00000000
00000000
,
00000000
00000000
00000000
00000000
00033000
00000000
00001000
00000000
00021000
00000000
00000000
00000000
00031000
00000000
00002000
00200000
,
00000000
00000000
00303000
00000000
00010000
00000000
00100000
00010000
00100000
00000000
00010000
00000000
01000000
00000000
00100000
10000000
,
00000000
00100000
10000000
00000000
00010000
00000000
01000000
00000000
00001000
00000000
00100000
00000000
00001000
00000000
00010000
00001000
,
00000000
00010000
00000010
00000000
00001000
00000000
00000000
00000100
00000001
00000000
00000010
00000000
00000001
00000000
00000010
00000002
,
00000000
00000000
00000100
00000000
00000103
00000000
00000010
00000000
00001020
00000000
00000000
00000000
00001030
00000000
00000100
00020000
,
00001000
00000000
00000000
00000000
00031000
00000000
00001000
00100000
00010000
00000000
01000000
00000000
00100000
00000000
10000000
00100000
,
00000000
00100000
00010000
00000000
01000000
00000000
00010000
00000000
00110000
00000000
00000000
00101000
00000000
00000000
00020000
00000000
,
00000100
00000000
00000100
00000000
00000100
00000000
00030100
00000000
00001100
00000000
00000000
00010100
00000000
00000000
00002000
00000000
,
00010000
00000000
00013000
00000000
00010000
00000000
00000100
00020000
00000200
00000000
00000000
00000000
00000000
00030300
00000000
00000000
,
00000020
00000000
00001030
00000200
00000000
00001300
00000020
00000000
00000130
00000001
00000100
00000010
00000100
00000010
00001000
00000100
,
00020000
00000000
00031000
00200000
00000000
00301000
00020000
00000000
00031000
00100000
00010000
00100000
00010000
01000000
00100000
01000000
,
20000000
00000000
30100000
02000000
00000000
03100000
20000000
00000000
30100000
01000000
00010000
00100000
00010000
00100000
00001000
00010000
,
00000200
00000000
00001300
00000020
00000000
00001030
00000200
00000000
00010300
00001000
00010000
00001000
00010000
00000000
00001000
00100000
,
00010000
00000000
00000000
00010000
01000000
00000000
00100000
00000000
10000000
00100000
01000000
00000000
01000000
00010000
00100000
00000000
,
00100000
00001000
00010000
00001000
00000000
00001000
00010000
00000000
00010000
00000100
00001000
00000100
00000000
00001000
00000010
00000000
,
00000100
00000000
00000001
00000100
00000001
00000000
00001010
00000000
00000100
00000000
00010000
00001000
00010000
00000000
00101000
00000000
,
00010000
00100000
00010000
00100000
01000000
10000000
01000000
10000000
01000000
00100000
01000000
00100000
00010000
00000000
00100000
00002000
,
00020000
00000000
00000000
00000000
,
00033000
00000000
00000000
00000000
;

//---------------dance-single - ----------------
#NOTES:
     dance-single:
     :
     Hard:
     13:
     0.625,0.695,0.239,0.388,0.607: // measure 1
0000
0000
0000
0000
,  // measure 2
0000
0000
0000
0000
,  // measure 3
0000
0000
0000
0000
,  // measure 4
0000
0000
0100
0010
0000
0000
0100
0000
0100
0000
0010
0100
0000
0000
0000
0000
,  // measure 5
0002
0000
0000
1003
0001
0000
1000
0000
0002
0000
0000
0103
0001
0000
0010
0000
,  // measure 6
0100
0000
0010
0000
0100
0000
0010
0200
0000
0000
0000
0310
0100
0000
0001
1000
,  // measure 7
0002
0000
0000
1003
0001
0000
0010
0000
0100
0000
0000
0010
0100
0000
0010
0000
,  // measure 8
1000
0000
0001
0100
0000
0000
0100
0000
0100
0000
0001
1000
0000
0000
0000
0000
,  // measure 9
1000
0000
0010
0100
0001
0000
0100
0000
0010
1000
0100
0000
1001
0000
1001
0000
,  // measure 10
0010
0000
1000
0001
1000
0000
0001
0000
0100
1000
0100
0000
1010
0000
1010
0000
,  // measure 11
0001
0010
0000
0100
1000
0000
0010
1000
0010
1000
0000
0100
0001
0000
1000
0000
,  // measure 12
0010
0001
0100
0001
0010
1000
0100
1000
0010
0000
0100
0000
1000
0000
0001
2000
,  // measure 13
0000
0001
0000
0001
3001
0000
0001
0000
1001
0000
0101
0000
0001
0100
0001
0200
,  // measure 14
0000
0000
0301
0000
0001
0000
0010
0001
0010
0000
0100
0000
1000
0000
0001
0010
,  // measure 15
0000
0010
0001
0000
0001
1000
0001
0000
1000
0000
1001
0000
0001
0000
0010
1000
,  // measure 16
0000
0001
0010
0000
0100
0000
0001
1000
0100
0000
1000
0000
1001
0000
0100
0020
,  // measure 17
0000
0000
0100
0000
0130
0000
1100
0000
0200
0000
0001
0000
0301
0000
0001
2000
,  // measure 18
0010
0000
3010
0000
0010
0000
0010
1000
0010
0000
0100
0000
1000
0000
0010
1000
,  // measure 19
0000
1000
0010
0000
0100
0000
0010
0000
0001
1000
0000
0001
1000
0000
0001
0000
,  // measure 20
1000
0000
0100
0000
0010
0000
0001
0000
1000
0010
1000
0010
0100
0001
0100
0001
,  // measure 21
0010
0000
0010
0000
1000
0000
0001
1000
0002
0000
0003
0000
0010
0100
0010
0000
,  // measure 22
0100
0010
0100
0000
1000
0001
1000
0000
0010
0000
0100
0000
0100
0001
0100
0000
,  // measure 23
0010
1000
0010
0000
0100
0001
0100
0000
1010
0000
1010
0000
1010
0000
1001
0000
,  // measure 24
0101
0000
0101
0000
0101
0000
0110
0000
0010
1000
0010
1000
0001
0100
0001
0100
,  // measure 25
1000
0000
1100
0000
1001
0000
0011
0000
0200
0000
0301
0020
0000
0031
0200
0000
,  // measure 26
0301
0000
0010
0000
0100
0000
1000
0000
0020
0000
1030
0002
0000
1003
0010
0000
,  // measure 27
1000
0000
0001
0000
0010
1000
0010
0000
0020
0000
1030
0200
0000
1300
0020
0000
,  // measure 28
1030
0000
1000
0001
0000
1000
0010
0000
0010
1000
0100
1000
0000
0010
0001
0000
,  // measure 29
0100
0000
0110
0000
1000
0000
0200
0002
0000
0000
0000
0000
0303
0000
0010
0000
,  // measure 30
0000
1000
0001
0100
0000
0100
1000
0010
0000
0010
0100
0001
0000
0001
0010
0100
,  // measure 31
0000
0100
1000
0010
1000
0000
0100
0000
0002
0000
0000
0000
1003
0000
0001
0000
,  // measure 32
1000
0010
1000
0010
0000
0001
0100
0000
0010
1000
0010
1000
0010
0100
0010
0100
,  // measure 33
0001
0010
0001
0010
0001
0000
0001
2000
0002
0000
0000
0000
0000
0000
0000
0000
,  // measure 34
0000
0000
0000
0000
3003
0000
0001
0000
2001
0000
0000
0000
3001
0000
0002
0200
,  // measure 35
0000
0000
0303
0000
1000
0000
0100
1000
0100
0000
1000
0000
0010
0000
0100
0001
,  // measure 36
0000
0100
0001
0000
1000
0000
0010
0000
0001
0000
0100
0000
0001
0000
1000
0001
,  // measure 37
0000
1000
0100
0000
0001
0000
0000
0010
1000
0000
0100
0000
1000
0000
0100
2000
,  // measure 38
0000
0000
0010
0000
3010
0000
0100
0000
0201
0000
0000
0000
0301
0000
0010
0002
,  // measure 39
0000
0000
0000
0000
1003
0000
0001
0100
0001
0000
0010
0000
0100
0000
0001
0100
,  // measure 40
0000
0100
0001
0000
0010
0000
1000
0000
1100
0000
0000
0101
0000
0000
2000
0000
,  // measure 41
0010
0000
0010
0000
0010
0000
3010
0000
0011
0000
0000
1010
0000
0000
0002
0000
,  // measure 42
1000
0000
1003
0000
1000
0000
0010
2000
0020
0000
0000
0000
0000
3030
0000
0000
,  // measure 43
0200
0000
0301
0020
0000
0031
0200
0000
0310
1000
0010
0100
0010
0100
0001
0100
,  // measure 44
0002
0000
0103
0020
0000
0130
0002
0000
0013
0100
1000
0100
1000
0010
0100
0010
,  // measure 45
2000
0000
3100
0020
0000
0130
0002
0000
0103
0010
1000
0100
1000
0100
0001
1000
,  // measure 46
0020
0000
0031
0200
0000
0301
0020
0000
1030
0001
1000
0001
1000
0000
0001
0100
,  // measure 47
0001
0000
0000
1000
0010
0000
0100
0000
0001
0100
0010
0000
0010
1000
0100
0000
,  // measure 48
0100
0001
0100
0001
0000
0001
1000
0000
0001
0010
0001
0010
0000
0001
0100
0000
,  // measure 49
0010
0000
0100
0010
0100
0000
0101
0000
0010
0000
0010
0001
0010
0000
0101
0000
,  // measure 50
1000
0100
1000
0100
0010
0001
0010
0001
0010
0100
0010
0100
1000
0000
0100
0002
,  // measure 51
2000
0000
0000
0000
,  // measure 52
3003
0000
0000
0000
;

//---------------dance-double - ----------------
#NOTES:
     dance-double:
     :
     Medium:
     9:
     0.341,0.358,0.008,0.289,0.091:
00000000
00000000
00000000
00000000
,
00000000
00000000
00000000
00000000
,
00000000
00000000
00000000
00000000
,
00000000
00000000
00000000
00000000
,
00020000
00000000
00000000
00000000
00032000
00000000
00000000
00000000
00013000
00000000
00000000
00001000
00000000
00000000
00010000
00000000
,
00000100
00000000
00001000
00000000
00000010
00000000
00000010
00001000
00000000
00000000
00000000
00000000
00001000
00000000
00000010
00000000
,
00002000
00000000
00000000
00000000
00003200
00000000
00000000
00000000
00010300
00000000
00000000
00001000
00000000
00000000
00010000
00000000
,
00001000
00000000
00100000
00010000
00000000
00000000
00001000
00000000
00001000
00000000
00100000
00010000
00000000
00000000
00000000
00000000
,
00010000
00000000
00001000
00000000
00010000
00000000
00000000
00001000
00000000
00000000
00100000
00000000
00010000
00000000
00100000
00000000
,
00000000
00000000
01000000
00000000
00001000
00000000
00000000
01000000
00000000
00000000
00001000
00000000
00010000
00000000
00001000
00000000
,
00000000
00000000
00010000
00000000
00000100
00000000
00000000
00002000
00000000
00000000
00000000
00000000
00003100
00000000
00000000
00000000
,
00000000
00000000
00000100
00000000
00001000
00000000
00010000
00000000
00001000
00000000
00100000
00000000
00010000
00000000
02000000
00020000
,
00000000
00000000
00000000
00000000
03030000
00000000
20000000
00000000
00200000
00000000
00000000
00000000
30300000
00000000
01000000
00020000
,
00000000
00000000
00030000
00100000
00001000
00010000
00001000
00010000
,
00000000
00000200
00000000
00000000
00000300
00000000
00001000
00000000
00000010
00000000
00000100
00000000
00000010
00000000
00000000
00000000
,
00001000
00000000
00000100
00000000
00001000
00000000
00000000
00000000
00010000
00000000
00001000
00000000
00010000
00000000
00001000
00020000
,
00000000
00000000
00000000
00000000
00030000
00000000
00001000
00000000
00200000
00000000
00000000
00000000
00310000
00000000
00000000
02000000
,
00000000
00000000
03000000
00100000
10000000
01000000
10000000
01000000
,
00000000
00200000
00000000
00000000
00300000
00000000
00001000
00000000
00010000
00000000
00000000
00001000
00000000
00000000
00020000
00000000
,
00000000
00000000
00000000
00000000
00030000
00000000
00000010
00000000
00000100
00000000
00000000
00000010
00000000
00000000
00000200
00000000
,
00000000
00000000
00000300
00000000
00000010
00000000
00001000
00000020
00000000
00000000
00000030
00000000
00001000
00000000
00001000
00000000
,
00000010
00000010
00000100
00000100
00000001
00000001
00001000
00001000
,
00000100
00000100
00010000
00010000
00001000
00001000
01000000
01000000
,
00010000
00010000
10000000
10000000
00100000
00100000
01000000
01000000
,
00001000
00001000
00001000
00011000
00010000
00000000
00001000
00000000
,
00010000
00000100
00001000
00000000
00000010
00000000
00000100
00000000
,
00000001
00001000
00000100
00000000
00010000
00000000
00001000
00000000
,
00100000
00010000
01000000
00000000
00100000
00000000
10000000
00000000
,
00010000
00000000
01000000
00001000
00010000
00000000
00010000
00000000
,
00010000
00000100
00001000
00000000
00000010
00000000
00000010
00000000
,
00000001
00000100
00000001
00000000
00001000
00000000
00001000
00000000
,
00000100
00010000
00001000
00000000
00010000
00000000
00001000
00000000
,
00100000
00000000
00010000
00000000
00100000
00000000
00010000
00200000
00000000
00000000
00000000
00000000
00000000
00000000
00000000
00000000
,
00000000
00300000
00002000
00013000
,
00020000
00000000
00030100
00000000
00001000
00000100
00000010
00000000
,
00000001
00000010
00000100
00000000
00000200
00000000
00010300
00000000
,
00002000
00000000
00013000
00000000
00001000
00100000
00010000
00000000
,
00010000
00100000
01000000
00000000
20000000
00000000
30100000
00000000
,
02000000
00000000
03010000
00000000
00100000
00100000
00001000
00000000
,
00010000
00000000
00010000
00000000
00001000
00000000
00000000
00000000
00010000
00000000
00000000
00000100
00000000
00000000
00010000
00000000
,
00000000
00000000
00001000
00000000
00001000
00000000
00000000
00000000
00001000
00000000
00000000
00100000
00000000
00000000
00001000
00000000
,
00000000
00000000
00010000
00000000
00010000
00000000
00001000
00020000
00000000
00000000
00000000
00000000
00000000
00000000
00030000
00000000
,
00002000
00000000
00203000
00000000
00310000
01000000
10000000
00000000
,
00200000
00000000
20300000
00000000
31000000
00010000
00100000
00000000
,
00002000
00000000
00023000
00000000
00030100
00001000
00000100
00000000
,
00000020
00000000
00000032
00000000
00000103
00000010
00000100
00000000
,
00000010
00001000
00000100
00000000
00010000
00001000
00010000
00000000
,
00100000
00010000
01000000
00000000
10000000
00010000
10000000
00000000
,
00100000
00100000
00100000
00000000
00001000
00001000
00001000
00000000
,
00010000
00000000
00000100
00000000
00010000
00000000
00000100
00000000
00010000
00000000
00001000
00000000
00010000
00000000
00001000
00020000
,
00000000
00000000
00000000
00000000
,
00030000
00000000
00000000
00000000
;

//---------------dance-single - ----------------
#NOTES:
     dance-single:
     :
     Medium:
     9:
     0.341,0.358,0.008,0.289,0.091:
0000
0000
0000
0000
,
0000
0000
0000
0000
,
0000
0000
0000
0000
,
0000
0000
0000
0000
,
0002
0000
0000
0000
2003
0000
0000
0000
3001
0000
0000
1000
0000
0000
0001
0000
,
1000
0000
0001
0000
0010
0000
0010
0100
0000
0000
0000
0000
1000
0000
0001
0000
,
0020
0000
0000
0000
0230
0000
0000
0000
0301
0000
0000
1000
0000
0000
0001
0000
,
1000
0000
0001
1000
0000
0000
0010
0000
0010
0000
0001
1000
0000
0000
0000
0000
,
0001
0000
1000
0000
0001
0000
0000
1000
0000
0000
0010
0000
0001
0000
0010
0000
,
0000
0000
0100
0000
1000
0000
0000
0100
0000
0000
1000
0000
0001
0000
1000
0000
,
0000
0000
0001
0000
0100
0000
0000
2000
0000
0000
0000
0000
3100
0000
0000
0000
,
0000
0000
0001
0000
1000
0000
0001
0000
1000
0000
0001
0000
0100
0000
0200
0002
,
0000
0000
0000
0000
0303
0000
2000
0000
0020
0000
0000
0000
3030
0000
0100
0002
,
0000
0000
0003
0010
1000
0001
1000
0001
,
0000
0200
0000
0000
0300
0000
1000
0000
0010
0000
0100
0000
0010
0000
0000
0000
,
1000
0000
0100
0000
1000
0000
0000
0000
0001
0000
1000
0000
0001
0000
1000
0002
,
0000
0000
0000
0000
0003
0000
1000
0000
0020
0000
0000
0000
1030
0000
0000
0200
,
0000
0000
0310
0000
1000
0100
1000
0100
,
0000
0020
0000
0000
0030
0000
0001
0000
1000
0000
0000
0001
0000
0000
0002
0000
,
0000
0000
0000
0000
0003
0000
0010
0000
0100
0000
0000
0010
0000
0000
0200
0000
,
0000
0000
0300
0000
0010
0000
0001
0020
0000
0000
0030
0000
0001
0000
0001
0000
,
0010
0010
0100
0100
1000
1000
0010
0010
,
0100
0100
0001
0001
1000
1000
0100
0100
,
0001
0001
1000
1000
0010
0010
0100
0100
,
1000
1000
1000
1001
0001
0000
1000
0000
,
0001
0100
1000
0000
0010
0000
0100
0000
,
0001
1000
0100
0000
0001
0000
1000
0000
,
0010
0001
0100
0000
0010
0000
1000
0000
,
0001
0000
0100
1000
0001
0000
0001
0000
,
0001
0100
1000
0000
0010
0000
0010
0000
,
0001
0100
0001
0000
1000
0000
1000
0000
,
0100
0001
1000
0000
0001
0000
1000
0000
,
0010
0000
0001
0000
0010
0000
0001
0020
0000
0000
0000
0000
0000
0000
0000
0000
,
0000
0030
2000
3001
,
0002
0000
0103
0000
1000
0100
0010
0000
,
0001
0010
0100
0000
0200
0000
0301
0000
,
2000
0000
3001
0000
1000
0010
0001
0000
,
0001
0010
1000
0000
2000
0000
3010
0000
,
0200
0000
0301
0000
0010
0010
1000
0000
,
0001
0000
0001
0000
1000
0000
0000
0000
0001
0000
0000
0100
0000
0000
0001
0000
,
0000
0000
1000
0000
1000
0000
0000
0000
1000
0000
0000
0010
0000
0000
1000
0000
,
0000
0000
0001
0000
0001
0000
1000
0002
0000
0000
0000
0000
0000
0000
0003
0000
,
2000
0000
3020
0000
0031
0100
1000
0000
,
0020
0000
2030
0000
3100
0001
0010
0000
,
2000
0000
3002
0000
0103
1000
0100
0000
,
0020
0000
0032
0000
0103
0010
0100
0000
,
0010
1000
0100
0000
0001
1000
0001
0000
,
0010
0001
0100
0000
1000
0001
1000
0000
,
0010
0010
0010
0000
1000
1000
1000
0000
,
0001
0000
0100
0000
0001
0000
0100
0000
0001
0000
1000
0000
0001
0000
1000
0002
,
0000
0000
0000
0000
,
0003
0000
0000
0000
;

//---------------dance-single - ----------------
#NOTES:
     dance-single:
     :
     Beginner:
     2:
     0.134,0.144,0.000,0.000,0.000:
0000
0000
0000
0000
,
0000
0000
0000
0000
,
0000
0000
0000
0000
,
0000
0000
0000
0000
,
0001
0000
0001
0000
,
1000
0000
1000
0000
,
0001
0000
0001
0000
,
1000
0000
0000
0000
,
0000
0010
0000
0010
,
0000
0100
0000
0100
,
0000
0010
0000
0010
,
0000
0100
0100
0100
,
0100
0000
0001
0000
,
1000
0000
0001
0001
,
0001
0000
1000
0000
,
0001
0000
1000
1000
,
1000
0000
0010
0000
,
0100
0000
0010
0010
,
0010
0000
0100
0000
,
0010
0000
0100
0100
,
0100
0100
0100
0000
,
0100
0000
0010
0000
,
0010
0000
1000
1000
,
1000
0000
0001
0001
,
0001
0000
0010
0000
,
0010
0000
0100
0000
,
0100
0000
0010
0000
,
0010
0000
0100
0000
,
0100
0100
0100
0000
,
0001
0000
1000
0000
,
1000
0000
0001
0000
,
0001
0000
1000
1000
,
1000
1000
1000
0000
,
0000
0000
0010
0000
,
0100
0000
0010
0010
,
0010
0000
1000
0000
,
0001
0000
1000
1000
,
1000
0000
0100
0000
,
0010
0000
0100
0100
,
0100
0000
0001
0000
,
1000
0000
0001
0001
,
0001
0000
1000
0000
,
0001
0001
0001
0000
,
1000
1000
1000
0000
,
0001
0001
0001
0000
,
0100
0100
0100
0000
,
0010
0010
0010
0000
,
1000
1000
1000
0000
,
0001
0001
0001
0000
,
1000
1000
1000
0000
,
1000
0000
0000
0000
;

//---------------dance-double - ----------------
#NOTES:
     dance-double:
     :
     Easy:
     4:
     0.211,0.232,0.025,0.173,0.000:
00000000
00000000
00000000
00000000
,
00000000
00000000
00000000
00000000
,
00000000
00000000
00000000
00000000
,
00000000
00000000
00000000
00000000
,
00100000
00010000
01000000
00000000
,
00100000
10000000
01000000
00000000
,
00100000
00010000
00001000
00000000
,
00010000
00001000
00000100
00000000
,
00000010
00000010
00001000
00000000
,
00000010
00000010
00000001
00000100
,
00000010
00001000
00000100
00010000
,
00001000
00001000
00010000
00010000
,
00022000
00033000
00020000
00030000
,
00002000
00003000
00100000
00100000
,
00200000
00300000
00010000
10000000
,
00010000
10000000
01000000
01000000
,
02000000
03000000
00002000
00003000
,
00020000
00030000
00001000
00001000
,
00001000
00000000
00010000
00000100
,
00010000
00000100
00001000
00000010
,
00001000
00000010
00002002
00003003
,
00000002
00000003
00002000
00003000
,
00000002
00000003
00000100
00000100
,
00010000
00010000
00001000
00001000
,
00020000
00030000
00001000
00001000
,
00001000
00001000
01000000
01000000
,
01000000
01000000
00100000
00100000
,
00100000
00100000
10000000
10000000
,
10000000
00010000
00100000
00100000
,
00100000
00100000
00001000
00001000
,
00001000
00001000
00010000
00010000
,
00010000
00000100
00001000
00001000
,
00001000
00001000
00001000
00000000
,
00000000
00000000
00000020
00000000
,
00000230
00000000
00001300
00000001
,
00001000
00000000
00000010
00001000
,
00000100
00010000
00001000
00100000
,
00010000
01000000
00200000
00000000
,
02300000
00000000
03010000
10000000
,
00010000
00000000
10000000
01000000
,
00010000
01000000
00001000
00010000
,
00000100
00000010
00002000
00003000
,
00000001
00000001
00000001
00000100
,
00001000
00001000
00001000
00000100
,
00010000
00010000
00010000
00001000
,
00100000
00100000
00100000
00000000
,
10000000
10000000
10000000
00100000
,
01000000
01000000
01000000
00001000
,
00010000
00010000
00010000
00000010
,
00000100
00000100
00000100
00000000
,
00002002
00000000
00000000
00000000
,
00003003
00000000
00000000
00000000
;

//---------------dance-single - ----------------
#NOTES:
     dance-single:
     :
     Easy:
     4:
     0.211,0.232,0.025,0.173,0.000:
0000
0000
0000
0000
,
0000
0000
0000
0000
,
0000
0000
0000
0000
,
0000
0000
0000
0000
,
0010
0001
0100
0000
,
0010
1000
0100
0000
,
0010
0001
1000
0000
,
0001
1000
0100
0000
,
0010
0010
1000
0000
,
0010
0010
0001
0100
,
0010
1000
0100
0001
,
1000
1000
0001
0001
,
2002
3003
0002
0003
,
2000
3000
0010
0010
,
0020
0030
0001
1000
,
0001
1000
0100
0100
,
0200
0300
2000
3000
,
0002
0003
1000
1000
,
1000
0000
0001
0100
,
0001
0100
1000
0010
,
1000
0010
2002
3003
,
0002
0003
2000
3000
,
0002
0003
0100
0100
,
0001
0001
1000
1000
,
0002
0003
1000
1000
,
1000
1000
0100
0100
,
0100
0100
0010
0010
,
0010
0010
1000
1000
,
1000
0001
0010
0010
,
0010
0010
1000
1000
,
1000
1000
0001
0001
,
0001
0100
1000
1000
,
1000
1000
1000
0000
,
0000
0000
0020
0000
,
0230
0000
1300
0001
,
1000
0000
0010
1000
,
0100
0001
1000
0010
,
0001
0100
0020
0000
,
0230
0000
0301
1000
,
0001
0000
1000
0100
,
0001
0100
1000
0001
,
0100
0010
2000
3000
,
0001
0001
0001
0100
,
1000
1000
1000
0100
,
0001
0001
0001
1000
,
0010
0010
0010
0000
,
1000
1000
1000
0010
,
0100
0100
0100
1000
,
0001
0001
0001
0010
,
0100
0100
0100
0000
,
2002
0000
0000
0000
,
3003
0000
0000
0000
;
