#TITLE:Blue Spring Express;
#SUBTITLE:;
#ARTIST:DJ Scratch & Bend;
#TITLETRANSLIT:;
#SUBTITLETRANSLIT:;
#ARTISTTRANSLIT:;
#GENRE:;
#CREDIT:;
#MENUCOLOR:;
#METERTYPE:DDR X;
#BANNER:Blue Spring Express.png;
#BACKGROUND:Blue Spring Express-jacket.png;
#LYRICSPATH:;
#CDTITLE:;
#MUSIC:Blue Spring Express.ogg;
#OFFSET:1.395;
#SAMPLESTART:61.400;
#SAMPLELENGTH:12.000;
#SELECTABLE:YES;
#LISTSORT:;
#BPMS:0.000=172.000;
#STOPS:;
#BGCHANGES:1.500=Blue Spring Express.avi=1.000=1=0=1,
324.000=Blue Spring Express-jacket.png=1.000=0=0=1,
99999=-nosongbg-=1.000=0=0=0 // don't automatically add -songbackground-
;
#ATTACKS:;

//---------------dance-single - ----------------
#NOTES:
     dance-single:
     :
     Beginner:
     3:
     0.179,0.280,0.080,0.071,0.000:
0000
0000
0000
0000
,
0000
0000
0000
0000
,
0000
0000
0000
0000
,
0000
0000
0000
0000
,
0000
0000
0000
0000
,
0010
0000
0000
0000
,
0010
0000
0000
0000
,
0010
0000
0000
0000
,
0010
0000
0000
0000
,
1000
0000
0000
0000
,
0001
0000
0000
0000
,
1000
0000
0000
0000
,
0001
0000
0000
0000
,
0100
0000
0000
0000
,
0010
0000
0000
0000
,
0100
0000
0000
0000
,
0010
0000
0000
0000
,
0001
0000
0001
0000
,
0001
0000
0000
0000
,
1000
0000
1000
0000
,
1000
0000
0000
0000
,
0010
0000
0010
0000
,
0010
0000
0010
0000
,
0100
0000
0100
0000
,
0100
0000
0100
0000
,
2002
0000
0000
0000
,
0000
0000
0000
3003
,
0000
0000
0000
0000
,
0000
0000
0000
0000
,
0010
0000
0000
0000
,
0001
0000
0000
0000
,
0100
0000
0000
0000
,
1000
0000
0000
0000
,
0010
0000
0010
0000
,
0001
0000
0001
0000
,
0100
0000
0100
0000
,
1000
0000
1000
0000
,
0002
0000
0003
0000
,
2000
0000
3000
0000
,
0002
0000
0003
0000
,
2000
0000
3000
0000
,
0020
0000
0030
0000
,
0200
0000
0300
0000
,
0010
0000
0010
0000
,
0100
0100
0100
0000
,
1001
0000
0001
0000
,
0001
0000
0001
0000
,
1000
0000
1000
0000
,
1000
0000
1000
0000
,
0010
0000
0100
0000
,
0010
0000
0100
0000
,
0001
0000
1000
0000
,
0001
0000
1000
0000
,
0010
0000
0010
0000
,
0100
0000
0100
0000
,
0010
0000
0010
0000
,
0100
0000
0100
0000
,
0001
0000
0001
0000
,
1000
0000
1000
0000
,
0001
0000
1000
0000
,
0001
0001
0001
0000
,
1000
1000
0000
0000
,
0100
0100
0000
0000
,
0010
0010
0000
0000
,
0001
0001
0000
0000
,
1001
1001
0000
0000
,
0110
0110
0000
0000
,
1000
0000
0001
0000
,
1000
1000
1000
0000
,
0001
0000
0001
0000
,
1000
0000
1000
0000
,
0010
0000
0010
0000
,
0100
0000
0100
0000
,
0001
0001
0001
0000
,
1000
1000
1000
0000
,
0010
0010
0010
0000
,
0100
0100
0100
0000
,
1001
0000
1001
0000
,
0000
1001
0000
0000
;

//---------------dance-double - ----------------
#NOTES:
     dance-double:
     :
     Easy:
     5:
     0.388,0.524,0.170,0.518,0.000:
00000000
00000000
00000000
00000000
,
00000000
00000000
00000000
00000000
,
00000000
00000000
00000000
00000000
,
00000000
00000000
00000000
00000000
,
00000000
00000000
00000000
00000000
,
00010000
01000000
00010000
01000000
,
00010000
01000000
00010000
00000100
,
00001000
00000010
00001000
00000010
,
00001000
00000010
00001000
00100000
,
00010000
10000000
00010000
10000000
,
00010000
10000000
01000000
00001000
,
00010000
00000010
00001000
00000010
,
00001000
00000010
00010000
00001000
,
00100000
00010000
00100000
00010000
,
00000100
00001000
00000100
00001000
,
00000100
00010000
00100000
00010000
,
00000200
00000000
00000000
00000300
,
00000010
00001000
00000010
00001000
,
00000100
00000001
00000100
00001000
,
00100000
00010000
00100000
00010000
,
10000000
01000000
10000000
00100000
,
00001000
00010000
00001000
00010000
,
00000100
00010000
00001000
00010000
,
00011000
00000000
00110000
00000000
,
00001100
00011000
00110000
00011000
,
00002100
00000000
00000000
00000000
,
00003020
00000000
00000000
00000000
,
00000032
00000000
00000203
00000000
,
00000320
00000000
00000000
00000000
,
00002030
00000000
00000000
00000000
,
00203000
00000000
00000000
00000000
,
00320000
00000000
00000000
00000000
,
20030000
00000000
32000000
00000000
,
03020000
00000000
00000000
00000000
,
00030200
00000000
00000000
00000000
,
00002300
00000000
00003020
00000000
,
00000032
00000000
00002003
00000000
,
00203000
00010000
00000000
00320000
,
02030000
00100000
00000000
03200000
,
00302000
00010000
00000000
00023000
,
00030020
00000100
00000000
00000100
,
00020030
00000100
00000000
00030200
,
00020300
00100000
00000000
00230000
,
20300000
00100000
00000000
30200000
,
00302000
00023000
00030200
00002300
,
00003010
00000010
00000010
00000010
,
00002002
00000000
00000000
00003003
,
00000000
00000100
00001000
00000100
,
00020000
00031000
00002000
00013000
,
00100000
00010000
02000000
03000000
,
00100000
10000000
02000000
03000000
,
00100000
00001000
00000100
00001000
,
00200000
00000000
00320000
00000000
,
00030100
00000010
00000100
00000010
,
00000001
00000200
00000000
00000300
,
00000010
00001000
00000100
00010000
,
00001000
00200000
00000000
00300000
,
01000000
00200000
00300000
00010000
,
00000100
00002000
00003000
00000010
,
00000001
00000100
00000010
00001000
,
00000200
00020300
00032000
02003000
,
03100000
00100000
10010000
10010000
,
00010000
00010000
00001100
00001100
,
00000010
00000010
00001001
00001001
,
00000100
00000100
00011000
00011000
,
00100000
00010000
00000200
00000300
,
00000100
00001000
00200000
00300000
,
00010000
10000000
01000000
00100000
,
00001000
00000100
00000010
00000001
,
00001000
00001001
00000001
00001001
,
00002000
00000000
00103000
00010000
,
10000000
01000000
00010000
00100000
,
00002000
00000000
00013000
00001000
,
00000010
00000100
00000020
00000030
,
00001000
00000100
00020000
00030000
,
00001000
00100000
00010000
10000000
,
02000000
00000000
03020000
00000000
,
00031000
00000010
00000001
00000100
,
00000000
00011000
00000000
00000000
;

//---------------dance-single - ----------------
#NOTES:
     dance-single:
     :
     Easy:
     5:
     0.360,0.419,0.080,0.456,0.000:
0000
0000
0000
0000
,
0000
0000
0000
0000
,
0000
0000
0000
0000
,
0000
0000
0000
0000
,
0000
0000
0000
0000
,
0100
1000
0100
0001
,
0100
1000
0100
0001
,
0010
1000
0010
0001
,
0010
1000
0010
0001
,
0010
0001
0010
1000
,
1000
0010
0001
0010
,
1000
0100
0001
0100
,
1000
0100
0001
0100
,
0100
0010
0100
0010
,
0001
1000
0001
1000
,
0001
0010
0100
1000
,
0200
0000
0000
0300
,
0010
0001
0010
1000
,
0100
1000
0100
0001
,
0010
1000
0010
0001
,
0100
1000
0100
0001
,
0001
0010
1000
0100
,
0010
1000
0100
0001
,
0010
0001
0100
1000
,
0100
0001
0010
1000
,
2001
0000
0000
0000
,
3020
0000
0000
0000
,
0032
0000
0203
0000
,
0320
0000
0000
0000
,
2030
0000
0000
0000
,
3020
0000
0000
0000
,
0032
0000
0000
0000
,
2003
0000
3200
0000
,
0302
0000
0000
0000
,
0203
0000
0000
0000
,
2300
0000
3020
0000
,
0032
0000
2003
0000
,
3020
0001
0000
0031
,
0200
1000
0000
1300
,
0020
0001
0000
0031
,
0200
1000
0000
1300
,
0020
1000
0000
1030
,
0200
0001
0000
0301
,
0020
1030
0200
0301
,
0020
0032
0203
0300
,
1000
0100
0001
0100
,
2002
0000
0000
3003
,
0000
0001
0100
1000
,
0002
0103
2000
3010
,
1000
0010
0200
0300
,
1000
0001
0200
0300
,
0100
0001
1000
0001
,
0020
0000
0032
0000
,
0013
1000
0010
0100
,
0010
0200
0000
0300
,
0100
1000
0001
0010
,
0001
0020
0000
0030
,
0100
0020
0030
1000
,
0010
2000
3000
0001
,
0100
1000
0100
0001
,
0200
0302
2003
3200
,
0310
0110
0000
0000
,
0010
0110
0000
0000
,
1000
1001
0000
0000
,
1000
1001
0000
0000
,
0001
1001
0200
0300
,
1000
1001
0020
0030
,
0001
1000
0001
0010
,
1000
0010
0010
0100
,
1000
0001
1000
0001
,
0100
0010
0100
0010
,
1000
0001
1000
0001
,
2000
0000
3001
0100
,
0010
1000
0020
0030
,
0001
0100
0002
0003
,
1000
0100
1000
0100
,
0002
0003
0200
0300
,
1000
0010
0001
0100
,
0000
1001
0000
0000
;

//---------------dance-double - ----------------
#NOTES:
     dance-double:
     :
     Hard:
     11:
     0.595,0.594,0.384,0.322,0.000:
00000000
00000000
00000000
00000000
,
00000000
00000000
00000000
00000000
,
00000000
00000000
00000000
00000000
,
00000000
00000000
00000000
00000000
,
00000000
00000000
00000000
00000000
,
01000000
00010000
01000000
00010000
00001000
00010000
00001000
00010000
,
00000100
00010000
00000100
00010000
00001000
00010000
00001000
00010000
,
00001000
00100000
00001000
00100000
00001000
00010000
00001000
00010000
,
00001000
01000000
00001000
01000000
00010000
00100000
01000000
10000000
,
00100000
01100000
00010000
10010000
,
01000000
01100000
00010000
00011000
,
00000100
00000110
00000001
00001001
,
00000010
00000110
00001000
00011000
,
00100000
01100000
10010000
01100000
,
00010000
00011000
00010100
00011000
,
00000100
00000110
00001001
00000110
,
00000100
00011000
00101000
00011000
,
00110000
00000000
01000000
10000000
01000000
00000000
00100000
00001000
,
00100000
00000000
00010000
00000100
00010000
00000000
00000100
00000000
,
00000001
00000000
00001000
00000010
00001000
00000000
00000100
00010000
,
00000100
00000000
00001000
01000000
00001000
00010000
00100000
01000000
,
10000000
00000000
01000000
00100000
01000000
00100000
01000000
00100000
,
01000000
00000000
00010000
00000100
00010000
00000100
00001000
00000100
,
00001000
00000010
00000001
00000010
00001000
00000100
00000001
00000100
,
00001000
00000100
00010000
00001000
00100000
00010000
01000000
10000000
,
00200000
00000000
00302000
00000000
,
00023000
00000000
00030200
00000000
,
00000320
00000000
00002030
00000000
,
00003200
00000000
00020300
00000000
,
00130000
00010000
01000000
10000000
,
00020000
00000000
00000000
00030000
,
00000000
00001000
00000100
00001000
00000100
00001000
00000100
00000010
,
00000001
00000100
00000000
00000001
00000000
00001000
00000010
00000000
,
00000001
00000010
00000100
00001000
00000000
00000000
00000000
00000000
,
00000100
00010000
00001000
00100000
00000000
00000000
00000000
00000000
,
00100000
00010000
01000000
10000000
00000000
00000000
00000000
00000000
,
01010000
00110000
00010100
00001100
,
00001000
00000100
00010000
00001000
,
00100000
00010000
01000000
00020000
00000000
00000000
00130000
00000000
,
00001000
00010000
00001000
00000100
,
00001000
00000000
00001000
00020000
00000000
00000000
00031000
00000000
,
00100000
00010000
00000000
20000000
00000000
00000000
30100000
00000000
,
01000000
00010000
00000000
00002000
00000000
00000000
00013000
00000000
,
00000100
00001000
00000010
00000001
,
00000200
00002300
00003200
00020300
,
00031000
00100000
10000000
01000000
,
00020000
00000000
00000000
00031000
,
00000000
00000100
00001000
00000100
00010000
00001000
00010000
00001000
,
00100000
00020000
00000000
02030000
00000000
03100000
10000000
00000000
,
01000000
00010000
00100000
00002000
00000000
00013000
00000100
00000000
,
00000100
00001000
00000010
00002000
00000000
00000000
00003100
00000000
,
00001000
01000000
00010000
00100000
00000000
00100000
00010000
01000000
,
00001000
00011000
00001100
00000110
,
00001000
00000100
00000001
00000000
00000001
00000100
00001000
00000000
,
00000010
00001000
00000100
00002000
00000000
00000000
00013000
00000000
,
00010000
01000000
10000000
00000000
10000000
01000000
00010000
00000000
,
00100000
00001000
00010000
00002000
00000000
00000000
00013000
00000000
,
00001000
00000100
00000001
00000100
00001000
00000100
00000001
00000000
,
00000100
00010000
00001000
00010000
00000100
00010000
00001000
00000000
,
00010000
00100000
10000000
00100000
00010000
00100000
10000000
00000000
,
02000000
03002000
00023000
00030100
,
00001001
00001001
00000000
00000000
00000010
00000000
00001001
00000000
,
00011000
00011000
00000000
00000000
00010000
00000000
00110000
00000000
,
10010000
10010000
00000000
00000000
01000000
00000000
01010000
00000000
,
00011000
00011000
00000000
00000000
00001100
00000000
00000110
00000000
,
00000001
00000100
00001000
00000100
00000001
00000100
00001000
00000100
,
00010000
00001000
00100000
00010000
00100000
10000000
00100000
00010000
,
00100000
00001000
00010000
00000100
00000001
00000100
00001000
00000100
,
00000001
00000010
00001000
00000010
00000001
00000000
00001001
00000000
,
00001000
00001000
00010000
00010000
00001000
00001000
00010000
00010000
,
00001000
00100000
00010000
02000000
00000000
00000000
03100000
00000000
,
10000000
01000000
00010000
01000000
10000000
01000000
00010000
00100000
,
00002000
00000000
00013000
00020000
00000000
00031000
00000100
00000010
,
00000001
00001000
00000100
00000020
00000000
00010030
00001000
00010000
,
00100000
00001000
00010000
00200000
00000000
01300000
10000000
01000000
,
00010000
00000100
00001000
00000100
00000010
00000001
00000010
00000001
,
00000020
00002030
00003200
00020300
,
00031000
00100000
00010000
01000000
10000000
01000000
00010000
00001000
,
00000000
00011000
00000000
00000000
;

//---------------dance-single - ----------------
#NOTES:
     dance-single:
     :
     Hard:
     11:
     0.595,0.594,0.384,0.322,0.000:
0000
0000
0000
0000
,
0000
0000
0000
0000
,
0000
0000
0000
0000
,
0000
0000
0000
0000
,
0000
0000
0000
0000
,
0100
0001
0100
0001
1000
0001
1000
0001
,
0100
0001
0100
0001
1000
0001
1000
0001
,
1000
0010
1000
0010
1000
0001
1000
0001
,
1000
0100
1000
0100
0001
0010
0100
1000
,
0010
0110
0001
1001
,
0100
0110
0001
1001
,
0100
0110
0001
1001
,
0010
0110
1000
1001
,
0010
0110
1001
0110
,
0001
1001
0101
1001
,
0100
0110
1001
0110
,
0100
1001
1010
1001
,
0011
0000
0100
1000
0100
0000
0010
1000
,
0010
0000
0001
0100
0001
0000
0100
0000
,
0001
0000
1000
0010
1000
0000
0100
0001
,
0100
0000
1000
0100
1000
0001
0010
0100
,
1000
0000
0100
0010
0100
0010
0100
0010
,
0100
0000
0001
0100
0001
0100
1000
0100
,
1000
0010
0001
0010
1000
0100
0001
0100
,
1000
0100
0001
1000
0010
0001
0100
1000
,
0020
0000
2030
0000
,
3002
0000
0203
0000
,
0320
0000
2030
0000
,
3200
0000
0302
0000
,
0013
0001
0100
1000
,
0002
0000
0000
0003
,
0000
1000
0100
1000
0100
1000
0100
0010
,
0001
0100
0000
0001
0000
1000
0010
0000
,
0001
0010
0100
1000
0000
0000
0000
0000
,
0100
0001
1000
0010
0000
0000
0000
0000
,
0010
0001
0100
1000
0000
0000
0000
0000
,
0101
0011
0101
1100
,
1000
0100
0001
1000
,
0010
0001
0100
0002
0000
0000
0013
0000
,
1000
0001
1000
0100
,
1000
0000
1000
0002
0000
0000
1003
0000
,
0010
0001
0000
2000
0000
0000
3010
0000
,
0100
0001
0000
2000
0000
0000
3001
0000
,
0100
1000
0010
0001
,
0200
2300
3200
0302
,
1003
0010
1000
0100
,
0002
0000
0000
1003
,
0000
0100
1000
0100
0001
1000
0001
1000
,
0010
0002
0000
0203
0000
0310
1000
0000
,
0100
0001
0010
2000
0000
3001
0100
0000
,
0100
1000
0010
2000
0000
0000
3100
0000
,
1000
0100
0001
0010
0000
0010
0001
0100
,
1000
1001
1100
0110
,
1000
0100
0001
0000
0001
0100
1000
0000
,
0010
1000
0100
2000
0000
0000
3001
0000
,
0001
0100
1000
0000
1000
0100
0001
0000
,
0010
1000
0001
2000
0000
0000
3001
0000
,
1000
0100
0001
0100
1000
0100
0001
0000
,
0100
0001
1000
0001
0100
0001
1000
0000
,
0001
0010
1000
0010
0001
0010
1000
0000
,
0200
2300
3002
0103
,
1001
1001
0000
0000
0010
0000
1001
0000
,
1001
1001
0000
0000
0001
0000
0011
0000
,
1001
1001
0000
0000
0100
0000
0101
0000
,
1001
1001
0000
0000
1100
0000
0110
0000
,
0001
0100
1000
0100
0001
0100
1000
0100
,
0001
1000
0010
0001
0010
1000
0010
0001
,
0010
1000
0001
0100
0001
0100
1000
0100
,
0001
0010
1000
0010
0001
0000
1001
0000
,
1000
1000
0001
0001
1000
1000
0001
0001
,
1000
0010
0001
0200
0000
0000
0310
0000
,
1000
0100
0001
0100
1000
0100
0001
0010
,
2000
0000
3001
0002
0000
1003
0100
0010
,
0001
1000
0100
0020
0000
0031
1000
0001
,
0010
1000
0001
0020
0000
0130
1000
0100
,
0001
0100
1000
0100
0010
0001
0010
0001
,
0020
2030
3200
0302
,
1003
0010
0001
0100
1000
0100
0001
1000
,
0000
1001
0000
0000
;

//---------------dance-double - ----------------
#NOTES:
     dance-double:
     :
     Medium:
     9:
     0.442,0.524,0.304,0.322,0.000:
00000000
00000000
00000000
00000000
,
00000000
00000000
00000000
00000000
,
00000000
00000000
00000000
00000000
,
00000000
00000000
00000000
00000000
,
00000000
00000000
00000000
00000000
,
00020000
00030000
00000200
00000300
,
00020000
00030000
00000100
00001000
,
00000020
00000030
00002000
00003000
,
00000020
00000030
00001000
00000100
,
00000001
00001100
00000001
00001100
,
00000001
00001100
00000010
00010000
,
00001000
00110000
00001000
00110000
,
00001000
00110000
00001000
01000000
,
10000000
01010000
10000000
01010000
,
10000000
01010000
00100000
00001000
,
00010000
00001100
00010000
00001100
,
00020000
00030020
00000230
00000320
,
00001030
00001100
00001000
00001100
,
00001000
00001100
00011000
00110000
,
01000000
01010000
01000000
01010000
,
01000000
01010000
00110000
00011000
,
00000100
00001100
00011000
00110000
,
00100000
00110000
00011000
00001100
,
00000100
00001000
00000100
00000000
00010000
00001000
00010000
00000000
,
00100000
00010000
00100000
00010000
00100000
00010000
00100000
00000000
,
20000000
00000000
00000000
00000000
,
30200000
00000000
00000000
00000000
,
00302000
00000000
00000000
00000000
,
00023000
00000000
00000000
00000000
,
00030100
00001000
00000010
00000001
,
00000200
00000000
00000000
00000300
,
00000000
00000001
00000000
00001000
00000000
00000001
00001000
00000000
,
00000100
00001000
00000000
00000100
00000000
00010000
00001000
00000000
,
00010000
00000000
00000000
00200000
00000000
00000000
00300000
00000000
,
01000000
00000000
00000000
20000000
00000000
00000000
30000000
00000000
,
00100000
00000000
00000000
00020000
00000000
00000000
00030000
00000000
,
00001000
00000100
00000010
00000001
,
00000100
00000010
00000100
00000010
,
00000100
00000000
00000000
00002000
00000000
00000000
00003000
00000000
,
00000100
00010000
00001000
00010000
,
00001000
00000000
00100000
00200000
00000000
00000000
00300000
00000000
,
01000000
00100000
00000000
02000000
00000000
00000000
03000000
00000000
,
00010000
00000100
00000000
00000200
00000000
00000000
00000300
00000000
,
00001000
00000010
00000100
00000010
,
00000002
00002003
00003200
00020300
,
00031000
00001000
00001000
00001000
,
00022000
00000000
00000000
00033000
,
00000000
00010000
00001000
00010000
00001000
00000000
00010000
00100000
,
00010000
00100000
00000000
01000000
00000000
00100000
00000000
00000000
,
10000000
01000000
00000000
01000000
00000000
00010000
01000000
00000000
,
00001000
00010000
00000000
00001000
00000000
00001000
00000100
00000000
,
00000100
00001010
00000100
00001010
,
00000001
00000100
00001000
00000000
00000001
00000100
00001000
00000000
,
00000010
00010000
00001000
00100000
,
00010000
01000000
00010000
02000000
00000000
00000000
03000000
00000000
,
10000000
00100000
00000000
01000000
00010000
00000000
00100000
00000000
,
00001000
00000000
00010000
00002000
00000000
00003000
00010000
00000000
,
00000100
00001000
00000000
00000020
00000000
00000000
00000030
00000000
,
00000001
00000100
00000000
00000020
00000000
00000000
00000030
00000000
,
00000100
00010000
00001000
00100000
,
00020000
00000000
20030000
00000000
,
30100000
00100000
00000000
00000000
10000000
00000000
00010000
00000000
,
01000000
01000000
00000000
00000000
00010000
00000000
00001000
00000000
,
00000010
00000010
00000000
00000000
00000001
00000000
00001000
00000000
,
00000100
00000100
00000000
00000000
00000001
00000000
00001000
00000000
,
00000100
00010000
00000100
00010000
,
00001000
00100000
00010000
00100000
,
10000000
01000000
00010000
00000000
00010000
01000000
10000000
00000000
,
10000000
00100000
00010000
00000000
00100000
00010000
00001000
00000000
,
00001100
00000010
00000001
00000100
,
00000010
00010000
00001000
00020000
00000000
00000000
00000000
00000000
,
00031000
00100000
00010000
10000000
,
01000000
00000000
01010000
00000000
00100000
00110000
00000000
00010000
,
00001000
00010000
00001000
00000000
00001000
00000100
00000000
00000010
,
00000100
00000000
00000001
00000100
00000000
00002000
00000000
00013000
,
00010000
00000000
00010000
00001000
00000000
00010000
00001000
00000000
,
00000100
00010000
00001000
00100000
,
10000000
01000000
00010000
00000100
,
00000000
00011000
00000000
00000000
;

//---------------dance-single - ----------------
#NOTES:
     dance-single:
     :
     Medium:
     9:
     0.442,0.524,0.304,0.322,0.000: // measure 1
0000
0000
0000
0000
,  // measure 2
0000
0000
0000
0000
,  // measure 3
0000
0000
0000
0000
,  // measure 4
0000
0000
0000
0000
,  // measure 5
0000
0000
0000
0000
,  // measure 6
2000
3000
0020
0030
,  // measure 7
2000
3000
0010
0001
,  // measure 8
0200
0300
0002
0003
,  // measure 9
0200
0300
0001
0010
,  // measure 10
1000
0011
1000
0011
,  // measure 11
1000
0011
0100
1000
,  // measure 12
0001
1100
0001
1100
,  // measure 13
0001
1100
0001
0010
,  // measure 14
0001
1010
0001
1010
,  // measure 15
0001
1010
0100
0001
,  // measure 16
1000
0011
1000
0011
,  // measure 17
2000
3200
0320
0230
,  // measure 18
0301
0011
0001
0011
,  // measure 19
0001
0011
1001
1100
,  // measure 20
0010
1010
0010
1010
,  // measure 21
0010
1010
1100
1001
,  // measure 22
0010
0011
1001
1100
,  // measure 23
0100
1100
1001
0011
,  // measure 24
0010
0001
0010
0000
1000
0001
1000
0000
,  // measure 25
0100
1000
0100
1000
0100
1000
0100
0000
,  // measure 26
0002
0000
0000
0000
,  // measure 27
0203
0000
0000
0000
,  // measure 28
0302
0000
0000
0000
,  // measure 29
2003
0000
0000
0000
,  // measure 30
3010
0001
0100
1000
,  // measure 31
0020
0000
0000
0030
,  // measure 32
0000
1000
0000
0001
0000
1000
0001
0000
,  // measure 33
0010
0001
0000
0010
0000
1000
0001
0000
,  // measure 34
1000
0000
0000
0200
0000
0000
0300
0000
,  // measure 35
0010
0000
0000
0002
0000
0000
0003
0000
,  // measure 36
0100
0000
0000
2000
0000
0000
3000
0000
,  // measure 37
0001
0010
0100
1000
,  // measure 38
0010
0100
0010
0100
,  // measure 39
0010
0000
0000
0002
0000
0000
0003
0000
,  // measure 40
0010
1000
0001
1000
,  // measure 41
0001
0000
0100
0200
0000
0000
0300
0000
,  // measure 42
0010
0100
0000
0020
0000
0000
0030
0000
,  // measure 43
1000
0010
0000
0020
0000
0000
0030
0000
,  // measure 44
0001
0100
0010
0100
,  // measure 45
2000
3002
0023
2030
,  // measure 46
3001
0001
0001
0001
,  // measure 47
2002
0000
0000
3003
,  // measure 48
0000
1000
0001
1000
0001
0000
1000
0100
,  // measure 49
1000
0100
0000
0010
0000
0100
0000
0000
,  // measure 50
0001
0010
0000
0010
0000
1000
0010
0000
,  // measure 51
0001
1000
0000
0001
0000
0001
0010
0000
,  // measure 52
0010
0101
0010
0101
,  // measure 53
1000
0010
0001
0000
1000
0010
0001
0000
,  // measure 54
0100
1000
0001
0100
,  // measure 55
1000
0010
1000
0020
0000
0000
0030
0000
,  // measure 56
0001
0100
0000
0010
1000
0000
0100
0000
,  // measure 57
0001
0000
1000
0002
0000
0003
1000
0000
,  // measure 58
0010
0001
0000
0200
0000
0000
0300
0000
,  // measure 59
1000
0010
0000
0200
0000
0000
0300
0000
,  // measure 60
0010
1000
0001
0100
,  // measure 61
2000
0000
3002
0000
,  // measure 62
0103
0100
0000
0000
0001
0000
1000
0000
,  // measure 63
0010
0010
0000
0000
1000
0000
0001
0000
,  // measure 64
0100
0100
0000
0000
1000
0000
0001
0000
,  // measure 65
0010
0010
0000
0000
1000
0000
0001
0000
,  // measure 66
0010
1000
0010
1000
,  // measure 67
0001
0100
1000
0100
,  // measure 68
0001
0010
1000
0000
1000
0010
0001
0000
,  // measure 69
0001
0100
1000
0000
0100
1000
0001
0000
,  // measure 70
0011
0100
1000
0010
,  // measure 71
0100
1000
0001
2000
0000
0000
0000
0000
,  // measure 72
3001
0100
1000
0001
,  // measure 73
0010
0000
1010
0000
0100
1100
0000
1000
,  // measure 74
0001
1000
0001
0000
0001
0010
0000
0100
,  // measure 75
0010
0000
1000
0010
0000
0002
0000
1003
,  // measure 76
1000
0000
1000
0001
0000
1000
0001
0000
,  // measure 77
0010
1000
0001
0100
,  // measure 78
0001
0010
1000
0010
,  // measure 79
0000
1001
0000
0000
;
