#TITLE:Beyond the Seven;
#SUBTITLE:;
#ARTIST:Nhato;
#TITLETRANSLIT:;
#SUBTITLETRANSLIT:;
#ARTISTTRANSLIT:;
#GENRE:;
#CREDIT:;
#MENUCOLOR:;
#METERTYPE:DDR;
#BANNER:Beyond the Seven.png;
#BACKGROUND:Beyond the Seven-bg.png;
#LYRICSPATH:;
#CDTITLE:;
#MUSIC:Beyond the Seven.ogg;
#OFFSET:-1.235;
#SAMPLESTART:81.300;
#SAMPLELENGTH:16.000;
#SELECTABLE:YES;
#LISTSORT:;
#DISPLAYBPM:142.000;
#BPMS:0.000=142.000;
#STOPS:;
#BGCHANGES:-3.000=Beyond the Seven.avi=1.000=1=1=0,
99999=-nosongbg-=1.000=0=0=0 // don't automatically add -songbackground-
;
#ATTACKS:;

//---------------dance-double - ----------------
#NOTES:
     dance-double:
     :
     Medium:
     8:
     0.432,0.503,0.372,0.680,0.146:
00000000
00000000
00000000
00000000
,
00000000
00000000
00000000
00000000
,
00000000
00000000
00000000
00000000
,
00000000
00000000
00000000
00000000
,
00200000
00001000
00000000
00301000
,
00020000
00000100
00000000
00030100
,
00002000
00003010
00000200
00000301
,
00000010
00000100
00002002
00003003
,
00000010
00002000
00003010
00002000
,
00003100
00020000
00031000
00200000
,
00310000
20000000
31000000
00200000
,
00310000
00020000
00030100
00002000
,
00003010
00000100
00000020
00000000
00001030
00000001
00002000
00000000
,
00003001
00000100
00000002
00000000
00001003
00000100
00002000
00000000
,
00003100
00010000
00002000
00000000
00103000
00010000
02000000
00000000
,
03200000
00000000
10300000
10010000
,
01000000
01100000
01000000
01100000
,
00001000
00011000
00010000
00011000
,
00000100
00001100
00000100
00001100
,
00000001
00000011
00000100
00000110
,
00001000
00001100
00001000
00001100
,
00010000
00011000
00001000
00101000
,
00100000
00110000
01000000
01010000
,
20020000
30030000
11000000
00110000
,
00200000
00302000
00023000
00030200
,
00002300
00003010
00000220
00000330
,
00000001
00000200
00000320
00002030
,
00003100
00010000
00022000
00033000
,
00100000
00020000
02030000
03200000
,
20300000
31000000
02200000
03300000
,
00100000
00002000
00023000
00030020
,
00000230
00000301
00002002
00003003
,
00000020
00000000
00002030
00000000
,
00003200
00010300
00001000
00020000
,
00031000
00000000
00010000
00001000
,
00200000
00000000
00310000
01000000
,
00200000
10000000
00000000
10300000
,
00000000
00000000
20000000
00000000
30200000
00000000
00000000
01300000
,
00100000
00000000
00002000
00023000
,
00032000
00000000
00023000
00030100
,
00000220
00000330
00000022
00000033
,
00000220
00000330
00020200
00030300
,
00022000
00033000
02002000
03003000
,
02020000
03030000
20020000
30030000
,
11000000
11000000
01010000
01010000
,
00101000
00101000
00011000
00011000
,
00010010
00010010
00001001
00001001
,
00000200
00000000
00000020
00000330
,
00000001
00000000
00000000
00000001
00000000
00000000
00000000
00000000
00001000
00000000
00000000
00001000
00000000
00000000
00000000
00000000
,
00000010
00000000
00000000
00000010
00000000
00000000
00000000
00000000
00010000
00000000
00000000
00010000
00000000
00000000
00000000
00000000
,
00001000
00000000
00000000
00001000
00000000
00000000
00000000
00000000
01000000
00000000
00000000
01000000
00000000
00000000
00000000
00000000
,
00100000
00000000
00000000
00100000
00000000
00000000
00000000
00000000
10000000
00000000
00000000
10000000
00000000
00000000
10000000
00000000
,
00010000
00000000
00000000
00010000
00000000
00000000
00000000
00000000
00100000
00000000
00000000
00100000
00000000
00000000
00000000
00000000
,
00001000
00000000
00000000
00001000
00000000
00000000
00000000
00000000
00010000
00000000
00000000
00010000
00000000
00000000
00000000
00000000
,
00000010
00000000
00000000
00000010
00000000
00000000
00000000
00000000
00000100
00000000
00000000
00000100
00000000
00000000
00000000
00000000
,
00001001
00000110
00002002
00003003
,
00000100
00000000
00000000
00000100
00000000
00000000
00000000
00000000
00010000
00000000
00000000
00010000
00000000
00000000
00000000
00000000
,
00001000
00000000
00000000
00001000
00000000
00000000
00000000
00000000
01000000
00000000
00000000
01000000
00000000
00000000
00000000
00000000
,
00010000
00000000
00000000
00010000
00000000
00000000
00000000
00000000
10000000
00000000
00000000
10000000
00000000
00000000
00000000
00000000
,
00100000
00000000
00000000
00100000
00000000
00000000
00000000
00000000
00010000
00000000
00000000
00001000
00000000
00000000
00010000
00000000
,
00001000
00000000
00000000
00001000
00000000
00000000
00000000
00000000
00010000
00000000
00000000
00010000
00000000
00000000
00000000
00000000
,
00000010
00000000
00000000
00000010
00000000
00000000
00000000
00000000
00000100
00000000
00000000
00000100
00000000
00000000
00000000
00000000
,
00000001
00000000
00000000
00000001
00000000
00000000
00000000
00000000
00000100
00000000
00000000
00000100
00000000
00000000
00000000
00000000
,
00000020
00000230
00020300
00031000
,
00000000
00000000
00000000
00001000
00000000
00000000
00001000
00000000
00000000
00000000
00000000
00010000
00000000
00000000
00010000
00000000
,
00000000
00000000
00000000
00001000
00000000
00000000
00001000
00000000
00000000
00000000
00000000
00010000
00000000
00000000
00010000
00000000
,
00001000
00000000
00000000
00001000
00100000
00000000
00000000
00100000
00001000
00000000
00000000
00001000
00010000
00000000
00000000
00010000
,
00001000
01000000
00100000
10000000
00100000
01000000
00002000
00020000
,
00000000
00000000
00000000
00000000
,
00033000
00000000
00000000
00000000
;

//---------------dance-single - ----------------
#NOTES:
     dance-single:
     :
     Medium:
     8:
     0.427,0.503,0.372,0.680,0.146:
0000
0000
0000
0000
,
0000
0000
0000
0000
,
0000
0000
0000
0000
,
0000
0000
0000
0000
,
0020
1000
0000
1030
,
0002
0100
0000
0103
,
2000
3010
0200
0301
,
0010
0100
2002
3003
,
0010
0200
0310
0200
,
0310
0002
1003
0002
,
1003
2000
3100
2000
,
3100
0002
0013
0002
,
0013
0020
1030
2000
,
3100
0200
0301
0002
,
0103
0001
0200
0000
0310
0001
0020
0000
,
0230
0000
1300
1001
,
0100
0110
0100
0110
,
1000
1001
0001
1001
,
0100
1100
0100
1100
,
0001
0011
0100
0110
,
1000
1100
1000
1100
,
0001
1001
1000
1010
,
0010
0011
0100
0101
,
2002
3003
1010
0101
,
0020
0230
0302
0203
,
2300
3010
0220
0330
,
0001
0200
0320
2030
,
3100
0001
2002
3003
,
0010
0002
0203
0320
,
2030
3100
0220
0330
,
0010
2000
3002
0023
,
0230
0301
2002
3003
,
0020
0000
2030
0000
,
3200
0301
1000
0002
,
1003
0000
0001
1000
,
0020
0000
0031
0100
,
0020
1000
0000
1030
,
0000
0000
2000
0000
3020
0000
0000
0130
,
0010
0000
2000
3002
,
2003
0000
3002
0103
,
0220
0330
0022
0033
,
0220
0330
0202
0303
,
2002
3003
2200
3300
,
0202
0303
2002
3003
,
1100
1100
0101
0101
,
1001
1001
0110
0110
,
0011
0011
1001
1001
,
0200
0000
0020
0330
,
0001
0000
0000
0001
0000
0000
0000
0000
0010
0000
0000
0010
0000
0000
0000
0000
,
0100
0000
0000
0100
0000
0000
0000
0000
1000
0000
0000
1000
0000
0000
0000
0000
,
1000
0000
0000
1000
0000
0000
0000
0000
0100
0000
0000
0100
0000
0000
0000
0000
,
0010
0000
0000
0010
0000
0000
0000
0000
0001
0000
0000
0001
0000
0000
0001
0000
,
1000
0000
0000
1000
0000
0000
0000
0000
0010
0000
0000
0010
0000
0000
0000
0000
,
0100
0000
0000
0100
0000
0000
0000
0000
0001
0000
0000
0001
0000
0000
0000
0000
,
0010
0000
0000
0010
0000
0000
0000
0000
0100
0000
0000
0100
0000
0000
0000
0000
,
1001
0110
2002
3003
,
0100
0000
0000
0100
0000
0000
0000
0000
0001
0000
0000
0001
0000
0000
0000
0000
,
1000
0000
0000
1000
0000
0000
0000
0000
0010
0000
0000
0010
0000
0000
0000
0000
,
0001
0000
0000
0001
0000
0000
0000
0000
1000
0000
0000
1000
0000
0000
0000
0000
,
0010
0000
0000
0010
0000
0000
0000
0000
0100
0000
0000
0100
0000
0000
0100
0000
,
0001
0000
0000
0001
0000
0000
0000
0000
0010
0000
0000
0010
0000
0000
0000
0000
,
0100
0000
0000
0100
0000
0000
0000
0000
1000
0000
0000
1000
0000
0000
0000
0000
,
0100
0000
0000
0100
0000
0000
0000
0000
0010
0000
0000
0010
0000
0000
0000
0000
,
0002
2003
0002
3003
,
0000
0000
0000
1000
0000
0000
1000
0000
0000
0000
0000
0001
0000
0000
0001
0000
,
0000
0000
0000
1000
0000
0000
1000
0000
0000
0000
0000
0001
0000
0000
0001
0000
,
1000
0000
0000
1000
0001
0000
0000
0001
1000
0000
0000
1000
0001
0000
0000
0001
,
1000
1000
0001
0001
1000
1000
2000
0002
,
0000
0000
0000
0000
,
3003
0000
0000
0000
;

//---------------dance-single - ----------------
#NOTES:
     dance-single:
     :
     Beginner:
     3:
     0.164,0.248,0.008,0.065,0.000:
0000
0000
0000
0000
,
0000
0000
0000
0000
,
0000
0000
0000
0000
,
0000
0000
0000
0000
,
0001
0000
0001
0000
,
1000
0000
1000
0000
,
0010
0000
0010
0000
,
0100
0000
0200
0300
,
0000
0010
0000
0010
,
0000
1000
0000
1000
,
0000
0100
0000
0100
,
0000
0001
0000
0001
,
0000
1000
0000
1000
,
0000
0001
0000
0001
,
0000
0100
0000
0100
,
0100
0000
0000
0000
,
0010
0000
0010
0000
,
1000
0000
1000
0000
,
0001
0000
0001
0000
,
0100
0000
0100
0000
,
0010
0000
1000
0000
,
0001
0000
0100
0000
,
1000
0000
0100
0000
,
0020
0000
0030
0000
,
0001
0000
0001
0000
,
1000
0000
2000
3000
,
1000
0000
0010
0000
,
0010
0000
0200
0300
,
0100
0000
0001
0000
,
1000
0000
0002
0003
,
0001
0000
0010
0000
,
0100
0000
1000
0000
,
0002
0000
0000
0003
,
0000
1000
1000
0000
,
0001
0000
0000
0000
,
0100
0000
0010
0000
,
0100
0000
0000
0000
,
0000
0001
0001
0000
,
1000
0000
0010
0000
,
0100
0000
0001
0000
,
1001
0000
0010
0000
,
0010
0000
0010
0000
,
0100
0000
0100
0000
,
0100
0000
0100
0000
,
0001
0001
0001
0000
,
1000
1000
1000
0000
,
0010
0010
0010
0000
,
0200
0000
0300
0000
,
0001
0000
0001
0000
,
1000
0000
1000
0000
,
0010
0000
0010
0000
,
0100
0000
0100
0000
,
0001
0000
1000
0000
,
0010
0000
0100
0000
,
0010
0000
1000
0000
,
0001
0001
0002
0003
,
0001
0000
0010
0000
,
0100
0000
1000
0000
,
1000
0000
0100
0000
,
0010
0000
0001
0001
,
0001
0000
0100
0000
,
0010
0000
1000
0000
,
0010
0000
0100
0000
,
0010
0010
0010
0000
,
1000
0000
1000
0000
,
0001
0000
0001
0000
,
0100
0100
0100
0100
,
0100
0100
0100
0100
,
0100
0000
0000
0000
;

//---------------dance-double - ----------------
#NOTES:
     dance-double:
     :
     Easy:
     5:
     0.289,0.307,0.016,0.405,0.000:
00000000
00000000
00000000
00000000
,
00000000
00000000
00000000
00000000
,
00000000
00000000
00000000
00000000
,
00000000
00000000
00000000
00000000
,
00020000
00001000
00000000
00001000
,
00000000
00001000
00000000
00031000
,
00000200
00010000
00000000
00010300
,
00020000
00001000
00002000
00033000
,
00000000
00000200
00000300
00000020
,
00000030
00000200
00000300
00000020
,
00000030
00000002
00000003
00002000
,
00003000
00000002
00000003
00002000
,
00003000
00000100
00020000
00030100
,
00020000
00031000
00200000
00301000
,
00200000
00310000
02000000
13000000
,
00200000
00000000
00001000
00301000
,
00010000
00001000
00010000
00000100
,
00001000
00000100
00001000
00000100
,
00000010
00000001
00000010
00000001
,
00000100
00001000
00000100
00010000
,
00001000
00100000
00001000
00100000
,
00010000
01000000
00010000
01000000
,
00100000
10000000
01000000
00100000
,
00002000
00000000
00020000
00033000
,
00000000
00010000
00001000
00000100
,
00000020
00000030
00000200
00000300
,
00000000
00000001
00000100
00000010
,
00002000
00003000
00020000
00030000
,
00000000
00001000
00100000
00010000
,
02000000
03000000
20000000
30000000
,
00000000
00100000
01000000
00001000
,
00020000
00030000
00000200
00001300
,
00020000
00000000
00000000
00000000
,
00000000
00031000
00200000
00000000
,
00310000
00000000
00000000
00000000
,
02000000
00000000
03100000
10000000
,
02000000
00000000
00000000
03000000
,
00000000
00100000
00002000
00000000
,
00013000
00000000
00000100
00001000
,
00000020
00000000
00000032
00000000
,
00000203
00000300
00000200
00000300
,
00000020
00000030
00000020
00000030
,
00002000
00003000
00002000
00003000
,
00020000
00030000
00020000
00030000
,
00000010
00010000
00001000
00010000
,
00001000
01000000
00010000
01000000
,
10000000
01000000
00100000
00010000
,
00002000
00000000
00020000
00033000
,
00010000
00010000
00001000
00001000
,
00010000
00000010
00000100
00000010
,
00010000
00010000
00001000
00001000
,
01000000
00010000
01000000
00100000
,
01000000
01000000
00001000
00001000
,
00010000
00000010
00010000
00000100
,
00010000
00010000
00001000
00001000
,
01000000
00010000
00200000
00300000
,
10000000
10000000
00010000
00010000
,
01000000
01000000
00100000
00100000
,
00001000
00001000
00010000
00010000
,
00000010
00000010
00000100
00000100
,
00000001
00000010
00000100
00001000
,
00000100
00010000
00001000
00100000
,
00010000
00100000
01000000
10000000
,
01000000
01000000
20020000
30030000
,
00000000
00010000
10000000
00010000
,
00000000
10000000
00010000
10000000
,
00100000
01000000
00001000
00010000
,
00000010
00000100
00000001
00000100
,
00002002
00000000
00000000
00000000
,
00003003
00000000
00000000
00000000
;

//---------------dance-single - ----------------
#NOTES:
     dance-single:
     :
     Easy:
     5:
     0.295,0.335,0.032,0.437,0.000:
0000
0000
0000
0000
,
0000
0000
0000
0000
,
0000
0000
0000
0000
,
0000
0000
0000
0000
,
0002
1000
0000
1000
,
0000
1000
0000
1003
,
2000
0001
0000
3001
,
0002
1000
2000
3003
,
0000
0200
0300
0020
,
0030
0200
0300
0020
,
0030
0002
0003
2000
,
3000
0002
0003
2000
,
3000
0020
0130
0020
,
0130
0002
1003
0002
,
1003
0002
1003
0002
,
2003
0000
0001
3001
,
0010
0100
0010
0100
,
1000
0100
1000
0100
,
0010
0001
0010
0001
,
0100
1000
0100
0001
,
1000
0010
1000
0010
,
0001
0100
0001
0100
,
0010
1000
0100
0001
,
2000
0000
0002
3003
,
0000
0001
1000
0100
,
0020
0030
0200
0300
,
0000
0001
0100
0010
,
2000
3000
0002
0003
,
0000
1000
0010
0001
,
0200
0300
2000
3000
,
0000
0010
0100
1000
,
0002
0003
0200
1300
,
0002
0000
0000
0000
,
0000
1003
0020
0000
,
0031
0000
0000
0000
,
0200
0000
0310
1000
,
0200
0000
0000
0300
,
0000
0010
2000
0000
,
3001
0000
0100
1000
,
0020
0000
0032
0000
,
0203
0300
0200
0300
,
0020
0030
0020
0030
,
2000
3000
2000
3000
,
0002
0003
0002
0003
,
0010
0001
0010
0001
,
1000
0100
1000
0100
,
0001
0010
0100
1000
,
2000
0000
0002
3003
,
0001
0001
1000
1000
,
0001
0010
0100
1000
,
0001
0001
1000
1000
,
0010
1000
0100
0001
,
1000
1000
0001
0001
,
1000
0100
0010
0001
,
1000
1000
0001
0001
,
0100
0010
0220
0330
,
1000
1000
0001
0001
,
0100
0100
0010
0010
,
1000
0001
0100
0010
,
0100
0001
2002
3003
,
0001
0010
0100
1000
,
1000
0100
0010
0001
,
0001
0010
0100
1000
,
0100
0100
2002
3003
,
0000
0001
1000
0001
,
0000
1000
0001
1000
,
0001
0010
0100
1000
,
0010
0100
0010
0100
,
2002
0000
0000
0000
,
3003
0000
0000
0000
;

//---------------dance-single - Copied from Copied f----------------
#NOTES:
     dance-single:
     Copied from Copied f:
     Hard:
     11:
     0.574,0.614,0.324,0.478,0.299:
0000
0000
0000
0000
,
0000
0000
0000
0000
,
0000
0000
0000
0000
,
0000
0000
0000
0000
0000
0000
0000
0000
1001
0000
0000
1001
0000
0000
1000
0000
,
1200
0310
0002
0013
,
2000
3010
0002
0103
,
0020
1030
0200
0310
,
0002
0013
1001
0200
,
0310
0000
0000
1000
0020
0000
1030
0000
0010
0000
0100
0000
0002
0000
0103
0000
,
0001
0000
0000
0010
0002
0000
0103
0000
0001
0000
0100
0000
0020
0000
0130
0000
,
0010
0000
0000
1000
0200
0000
1300
0000
0100
0000
1000
0000
0020
0000
1030
0000
,
0010
0000
0000
0100
0002
0000
0103
0000
0010
0000
0100
0000
0002
0000
1003
0000
,
0010
0000
0000
1000
0020
0000
0130
0000
0100
0000
0000
0001
0200
0000
0310
0000
,
0010
0000
0000
1000
0020
0000
0130
0000
0100
0000
0000
0001
0200
0000
0310
0000
,
0010
1000
0100
0010
0001
0100
0010
1000
,
0001
0000
0000
0001
0000
0010
0000
0000
1000
0000
0000
1000
0200
0000
0000
0000
,
0310
0001
0101
0000
0010
1000
1100
0000
,
0010
0000
0100
0000
1001
0000
0000
0000
1000
0000
0000
0001
0000
0101
0000
0000
,
0010
1000
1010
0000
0100
0001
0101
0000
,
0010
0000
0010
0000
0110
0000
0000
0000
0001
0000
0000
1000
0000
1100
0000
0000
,
0001
0001
0101
0000
1000
1000
1100
0000
,
0010
0000
0100
0000
1001
0000
0000
0000
0010
0000
0000
0100
0000
0110
0000
0000
,
0001
0010
0011
0000
1000
0100
1100
0000
,
1001
0000
0000
0100
0000
0010
0100
0010
0200
0000
0000
0301
0000
0000
1001
0000
,
1000
0100
2100
0000
3010
0100
0102
0000
,
0013
0001
0201
0000
0320
0000
2030
0000
,
3100
1000
2100
0000
3010
0100
0102
0000
,
0013
0000
0001
0000
0101
0000
0000
0000
1001
0000
0000
0010
0000
0000
0100
0000
,
0010
1000
1200
0000
0310
0001
0201
0000
,
0310
1000
1200
0000
0310
0000
1001
0000
,
1000
0100
0011
0000
0001
0010
1100
0000
,
0020
0000
0000
0000
0230
0000
0000
0000
0301
0000
0000
0010
0000
0000
1000
0000
,
2001
0000
3002
0000
,
0203
0310
1000
0002
,
0203
0000
0000
0000
0000
0000
0300
0010
,
2000
0000
0000
0000
3001
0000
0000
0000
0010
0000
0000
0100
0000
0000
0010
0000
,
0200
0001
0000
0301
,
0020
0000
1030
0000
2000
0000
3010
0100
,
0002
0000
0000
0000
0013
0000
0001
0000
0100
0000
0000
0010
0000
0000
0100
0010
,
0200
0000
0000
0301
0020
0000
1030
0000
,
1001
0000
0000
1000
0000
0000
0100
0000
0001
0000
0000
0001
0000
0000
0100
0000
,
1000
0000
0000
1000
0000
0000
0100
0000
0010
0000
0000
0010
0000
0000
0100
0000
,
0001
0000
0000
0001
0000
0000
0010
0000
0100
0000
0000
0100
0000
0000
0010
0000
,
0001
0000
0000
0001
0000
0000
0100
0000
1000
0000
0000
1000
0000
0000
0001
0000
,
1000
0100
1000
0100
1000
0001
1000
0001
,
0010
0001
0010
0001
0100
0010
0100
0010
,
1000
0100
0010
0001
0001
0010
0100
1000
,
2000
0000
0002
3003
,
1001
0000
0000
0001
0000
0000
1000
0000
0100
0000
0000
0100
0000
0000
1000
0000
,
0001
0000
0000
0001
0000
0000
0100
0000
0010
0000
0000
0010
0000
0000
1000
0000
,
0100
0000
0000
0100
0000
0000
1000
0000
0010
0000
0000
0010
0000
0000
0100
0000
,
0001
0000
0000
0001
0000
0000
1000
0000
1001
0000
0000
1001
0000
0000
0100
0000
,
0001
0000
0000
0001
0000
0000
0010
0000
0100
0000
0000
0100
0000
0000
1000
0000
,
0100
0000
0000
0100
0000
0000
0010
0000
0001
0000
0000
0001
0000
0000
0100
0000
,
0010
0000
0000
1000
0000
0000
0010
0000
1000
0010
0000
0100
0000
0000
0001
0000
,
2000
0010
3020
0100
0130
0000
1001
0000
,
0101
0000
0000
0001
0100
0000
0010
0000
0100
0000
0000
1000
0010
0000
0100
0000
,
0010
0000
0000
0100
0001
0000
0100
0000
0010
0000
0000
0100
0001
0000
1000
0000
,
0010
0000
0000
1000
0010
0000
0100
0000
0010
0000
0000
0100
0001
0000
0100
0000
,
0010
0000
0000
0100
0001
0000
0010
0000
0100
0000
0000
1000
0000
0000
0001
0000
,
0100
0000
0000
0010
0010
0000
1000
0000
0001
0000
0000
0001
0001
0000
0100
0000
,
0010
0000
0000
1000
1000
0000
0001
0000
0100
0000
0000
0010
0000
0000
1000
0000
,
0001
0000
0000
0100
0000
0000
0001
0000
1000
0000
0000
0100
0000
0000
1000
0000
,
0002
2003
3020
0130
,
1000
0000
0000
0200
0000
0000
1000
0000
1300
0000
0000
2000
0000
0000
0010
0000
,
3010
0000
0000
0020
0000
0000
0130
0000
0100
0000
0000
0200
0000
0000
0001
0300
,
0001
0010
0001
0010
1000
0100
1000
0100
,
0010
0100
0010
0000
1000
0001
1000
0000
0010
0100
0010
0100
0010
0100
0020
0200
,
0000
0000
0000
0000
,
0330
0000
0000
0000
;

//---------------dance-double - Copied from Copied f----------------
#NOTES:
     dance-double:
     Copied from Copied f:
     Hard:
     11:
     0.571,0.582,0.356,0.542,0.283:
00000000
00000000
00000000
00000000
,
00000000
00000000
00000000
00000000
,
00000000
00000000
00000000
00000000
,
00000000
00000000
00000000
00000000
00000000
00000000
00000000
00000000
00010000
00000000
00000000
00010000
00000000
00000000
00001000
00000000
,
00010000
00000000
00000000
00000200
00000000
00000000
00000000
00000000
00001300
00000000
00000000
00002000
00000000
00000000
00000000
00000000
,
00003010
00000000
00000000
00000020
00000000
00000000
00000000
00000000
00000031
00000000
00000000
00000002
00000000
00000000
00000000
00000000
,
00000103
00000000
00000000
00000200
00000000
00000000
00000000
00000000
00010300
00000000
00000000
00002000
00000000
00000000
00000000
00000000
,
00103000
00000000
00000000
00020000
00000000
00000000
00000000
00000000
01030000
00000000
00000000
00000000
00200000
00000000
00000000
00000000
,
10300000
00000000
00000000
10000000
00200000
00000000
01300000
00000000
00100000
00000000
01000000
00000000
00020000
00000000
00130000
00000000
,
00001000
00000000
00000000
00010000
00002000
00000000
00013000
00000000
00000100
00000000
00001000
00000000
00000020
00000000
00000130
00000000
,
00000001
00000000
00000000
00000001
00002000
00000000
00003010
00000000
00000100
00000000
00000010
00000000
00020000
00000000
00030100
00000000
,
00010000
00000000
00000000
00001000
00200000
00000000
00310000
00000000
00010000
00000000
01000000
00000000
10000000
00000000
00010000
00000000
,
01000000
00000000
00000000
00100000
20000000
00000000
30100000
00000000
01000000
00000000
00000000
00010000
00200000
00000000
00310000
00000000
,
00100000
00000000
00000000
00001000
00020000
00000000
00031000
00000000
00010000
00000000
00000000
00000010
00002000
00000000
00003010
00000000
,
00000100
00000001
00000010
00001000
00000100
00010000
00001000
00100000
,
00010000
00000000
00000000
00010000
00000000
02000000
00000000
00000000
03100000
00000000
00000000
00100000
00000000
02000000
00000000
00000000
,
03010000
00001000
00011000
00000000
00000100
00001000
00001100
00000000
,
00000010
00000000
00000100
00000000
00000110
00000000
00000000
00000000
00000001
00000000
00000000
00001000
00000000
00001001
00000000
00000000
,
00000001
00000100
00001100
00000000
00000010
00001000
00001100
00000000
,
00000100
00000000
00010000
00000000
00011000
00000000
00000000
00000000
00002000
00000000
00000000
00103000
00000000
00020000
00000000
00000000
,
01030000
00100000
10100000
00000000
10000000
01000000
01100000
00000000
,
00100000
00000000
00001000
00000000
00011000
00000000
00000000
00000000
00010000
00000000
00000000
00010000
00000000
00010100
00000000
00000000
,
00001000
00000010
00001010
00000000
00000001
00000100
00001001
00000000
,
00001010
00000000
00000000
00000010
00000000
00000010
00001000
00000010
00001000
00000000
00000000
00000100
00000000
00000000
00010000
00000000
,
00011000
00010000
00002000
00000000
00103000
00010000
02010000
00000000
,
03100000
10000000
21000000
00000000
30200000
00000000
00320000
00000000
,
00130000
00001000
00021000
00000000
00030100
00001000
00001020
00000000
,
00000230
00000000
00000302
00000000
00000023
00000000
00001030
00000100
,
00001000
00000010
00001020
00000000
00001030
00000100
00002100
00000000
,
00003100
00010000
00021000
00000000
00032000
00000000
00203000
00000000
,
00310000
00100000
02000000
00000000
03100000
01000000
20000000
00000000
,
30100000
00000000
00000000
00000000
00001000
00000000
00000000
00000000
00010000
00000000
00000000
00001000
00000000
00000000
00010000
00000000
,
00002000
00000000
00023000
00000000
,
00030020
00000031
00000100
00000020
,
00002030
00000000
00000000
00000000
00000000
00000000
00003000
00010000
,
00000200
00000000
00000000
00000000
00000000
00000000
00000000
00000000
00010300
00000000
00000000
00001000
00000000
00000000
00010000
00000000
,
00002000
00100000
00000000
00103000
,
00200000
00000000
00010000
00000000
00010000
00000000
00310000
01000000
,
00020000
00000000
00000000
00000000
10030000
00000000
00000000
00000000
00100000
00000000
00000000
10000000
00000000
00000000
00100000
00000000
,
20000000
00000000
30010000
01000000
00200000
00000000
01300000
00000000
,
10010000
11000000
10010000
01010000
,
00101000
00011000
00101000
00011000
,
00010010
00001010
00010010
00001010
,
00000101
00001010
00000101
00001010
,
00000010
00001000
00000200
00000000
00000310
00001000
00000200
00000000
,
00010300
00001000
00200000
00000000
00301000
01000000
00020000
00000000
,
10030000
01000000
00100000
00010000
01000000
00010000
00100000
00001000
,
00020000
00001000
00002000
00033000
,
00001100
00000000
00000000
00000100
00000000
00000000
00000010
00000000
00000100
00000000
00000000
00000001
00000000
00000000
00000100
00000000
,
00000010
00000000
00000000
00001000
00000000
00000000
00000010
00000000
00001000
00000000
00000000
00000100
00000000
00000000
00010000
00000000
,
00001000
00000000
00000000
00100000
00000000
00000000
00001000
00000000
01000000
00000000
00000000
00010000
00000000
00000000
00100000
00000000
,
01000000
00000000
00000000
10000000
00000000
00000000
00100000
00000000
01000000
00000000
00000000
00010000
00000000
00000000
01000000
00000000
,
00010000
00000000
00000000
00100000
00000000
00000000
00001000
00000000
00010000
00000000
00000000
00000100
00000000
00000000
00001000
00000000
,
00000010
00000000
00000000
00000100
00000000
00000000
00000001
00000000
00001000
00000000
00000000
00000100
00000000
00000000
00010000
00000000
,
00001000
00000000
00000000
01000000
00000000
00000000
00010000
00000000
10000000
00010000
00000000
10000000
00000000
00000000
00100000
00000000
,
01000000
00100000
10000000
00010000
20020000
00000000
30030000
00000000
,
01010000
00000000
00000000
01000000
00010000
00000000
00100000
00000000
00001000
00000000
00000000
00010000
00001000
00000000
00010000
00000000
,
00000010
00000000
00000000
00000100
00000010
00000000
00001000
00000000
00000001
00000000
00000000
00000100
00000010
00000000
00001000
00000000
,
00000100
00000000
00000000
00010000
00000100
00000000
00010000
00000000
00001000
00000000
00000000
00100000
00001000
00000000
00100000
00000000
,
00010000
00000000
00000000
01000000
00010000
00000000
01000000
00000000
00100000
00000000
00000000
10100000
00000000
00000000
10100000
00000000
,
10000000
00000000
00000000
00010000
00010000
00000000
01000000
00000000
00100000
00000000
00000000
00100000
00100000
00000000
01000000
00000000
,
00001000
00000000
00000000
00010000
00010000
00000000
00000100
00000000
00001000
00000000
00000000
00000010
00000010
00000000
00000100
00000000
,
00000001
00000000
00000000
00000001
00001000
00000000
00000010
00000000
00000100
00000000
00000000
00000001
00001000
00000000
00000010
00000000
,
00002000
00003002
00000023
00000130
,
00000101
00000000
00000000
00000200
00000000
00000000
00000010
00000000
00000310
00000000
00000000
00000020
00000000
00000000
00001000
00000000
,
00001030
00000000
00000000
00002000
00000000
00000000
00000100
00000000
00003100
00000000
00000000
00000200
00000000
00000000
00010000
00000000
,
00010300
00001000
00010000
00001000
00100000
00010000
00100000
00010000
,
10000000
00100000
10000000
00000000
01000000
00010000
01000000
00000000
00100000
00001000
00100000
00000000
00010000
00001000
00020000
00000000
,
00000000
00000000
00030000
00000000
;

//---------------dance-double - ----------------
#NOTES:
     dance-double:
     :
     Challenge:
     13:
     0.630,0.642,0.121,0.299,0.550:
00000000
00000000
00000000
00000000
,
00000000
00000000
00000000
00000000
,
00000000
00000000
00000000
00000000
,
00000000
00000000
00000000
00000000
00000000
00000000
00000000
00000000
10000000
00000000
00000000
01010000
00000000
00000000
10010000
00000000
,
00100000
00000000
00000000
01000000
00000000
00000000
00001000
00000000
00010000
00000000
00000000
00000100
00000000
00000000
00001000
00000000
,
00000001
00000000
00000000
00000010
00000000
00000000
00001000
00000000
00000100
00000000
00000000
00010000
00000000
00000000
00001000
00000000
,
01000000
00000000
00000000
00100000
00000000
00000000
10000000
00000000
00010000
00000000
00000000
00100000
00000000
00000000
00001000
00000000
,
00010000
00000000
00000000
00000100
00000000
00000000
00001000
00000000
00000020
00000000
00000000
00000000
00000230
00000000
00000000
00000000
,
00000301
00000000
00000000
00000001
00001000
00000000
00000010
00000000
00001000
00000000
00000100
00000000
00010000
00000000
00001000
00000000
,
01000000
00000000
00000000
00010000
01000000
00000000
00100000
00000000
10000000
00000000
01000000
00000000
00100000
00000000
00001000
00010000
,
00000100
00000000
00000000
00001000
00000010
00000000
00000100
00000000
00000001
00000000
00001000
00000000
00000100
00000000
00010000
00000000
,
00001000
00000000
00000000
00000000
00000000
00000000
00000000
00000000
00000000
01000000
00000000
00000000
00010000
00000000
00000000
00000000
00000000
00000000
10000000
00000000
00000000
00000000
00000000
00000000
00010000
00000000
00000000
00000000
00000000
00000000
01000000
00000000
00000000
00100000
00000000
00000000
10000000
00000000
00000000
00000000
01000000
00000000
00000000
00000000
00100000
00000000
00000000
00000000
,
00010000
00000000
00000000
01000000
00001000
00000000
00010000
00000000
00000100
00000000
00000000
00001000
00000001
00000000
00001000
00000000
,
00000100
00000000
00000000
00010000
00001000
00000000
00100000
00000000
00010000
00000000
00000000
10000000
01000000
00000000
00010000
00000000
,
00100000
00000000
00001000
00010000
00000000
00010000
00000100
00000000
00000100
00001000
00000000
00001000
00000001
00000000
00000010
00000000
,
00000002
00000000
00000000
00000100
00000000
00000203
00000000
00000000
00000320
00000000
00000000
00001030
00000100
00010000
00001000
00010000
,
00001000
00000000
00010000
00000000
00000100
00000000
00010000
00001000
00100000
00000000
00010000
00000000
01000000
00000000
00100000
01000000
,
10000000
00000000
00100000
00000000
01000000
00000000
00010000
00100000
01000000
00000000
00000000
00100000
00000000
00001000
00000000
00000000
,
00010000
00000000
00000100
00000000
00001000
00000000
00000010
00000100
00000001
00000000
00000010
00000000
00000001
00000000
00000010
00000100
,
00001000
00000000
00000001
00000000
00001000
00000000
00000100
00000000
00010000
00000000
00000000
00001000
00000000
00100000
00000000
00010000
,
00100000
00000000
00010000
00000000
01000000
00000000
00100000
10000000
00100000
00000000
01000000
00000000
00010000
00000000
00100000
00010000
,
00100000
00000000
00001000
00000000
00010000
00000000
00000100
00001000
00000100
00000000
00001000
00000010
00000000
00000010
00000000
00000100
,
00000001
00000000
00000010
00000000
00000100
00000000
00000010
00000100
00001000
00000000
00000001
00000000
00001000
00000000
00000100
00000000
,
00010000
00000000
00000000
00001000
00000000
00100000
00010000
01000000
00010000
00000000
00000000
01000000
00000000
00000000
10000000
00000000
,
00100000
10000000
02000000
00000000
13000000
00100000
02000000
00000000
,
03002000
00000000
00023000
00000000
00030100
00001000
00000010
00000000
,
00000100
00000001
00000020
00000000
00000031
00000100
00000020
00000000
,
00001030
00000100
00020000
00000000
00031000
00000000
00110000
00000000
,
00010000
00100000
02000000
00000000
13000000
00100000
02000000
00000000
,
03001000
00000000
00010000
00000000
00000200
00000000
00000000
00000000
00001300
00000010
00000100
00000000
00000002
00000000
00000000
00000000
,
00000013
00000010
00001000
00001000
00000100
00000100
00010000
00010000
,
00012000
00000000
00000000
00000000
02003000
00000000
00000000
00000000
03010000
00000000
00000000
00100000
00000000
00000000
01000000
00000000
,
12000000
00000000
00000000
10000000
00000000
00000000
00000000
00000000
00010000
00000000
00000000
00010000
00000000
00000000
00000000
00000000
,
23000000
00000000
00000000
00000000
30020000
00000000
00000000
00000000
00230000
00000000
00000000
00000000
00301000
00010000
00000100
00000000
,
00002000
00000000
00000000
00000010
00000000
00000000
00000010
00000000
00003020
00000000
00000000
00000000
00000130
00000001
00000100
00000000
,
00000020
00000000
00000000
00001000
00000000
00000000
00001030
00000000
00000100
00000000
00000000
00010000
00000000
00000000
00001000
00000000
,
01000000
00100000
10000000
00100000
01000000
00010000
00100000
00001000
,
00010000
00000000
00000200
00000000
00002300
00000000
00003010
00001000
,
00000200
00000000
00000000
00000000
00000302
00000000
00000000
00000000
00001003
00000000
00000000
00000100
00000000
00000000
00010000
00001000
,
00100000
00000000
00000000
00000000
01000000
00000000
00100000
01000000
10000000
00000000
00000000
11000000
00000000
00000000
01000000
00000000
,
01010000
00000000
00000000
00010000
00100000
00000000
00001000
00000000
00010000
00000000
00000000
00000100
00001000
00000000
00000001
00000000
,
00000100
00000000
00000000
00000010
00001000
00000000
00000100
00000000
00010000
00000000
00000000
00001000
00100000
00000000
00010000
00000000
,
01000000
00000000
00000000
00100000
10000000
00000000
01000000
00000000
10000000
00000000
00000000
00100000
01000000
00000000
00001000
00000000
,
00010000
00000000
00000000
00000100
00001000
00000000
00000001
00000000
00000010
00000000
00000000
00000001
00000100
00000000
00001000
00000000
,
00001010
00000010
00001000
00001000
00010000
00010000
00001000
00001000
,
01000000
00010000
10000000
00100000
00001000
00100000
10000000
01000000
,
10000000
00100000
10000000
00000000
00010000
01000000
00010000
00000000
00100000
00001000
00100000
00000000
00010000
00000100
00010000
00000000
,
00001200
00000320
00000032
00001003
,
00001001
00000000
00000000
00001000
00000000
00000000
00000100
00000000
00010000
00000000
00001000
00010000
00000000
00001000
00100000
00000000
,
00001000
00000000
00000000
00100000
00000000
00000000
00010000
00000000
01000000
00000000
00100000
01000000
00000000
00100000
10000000
00000000
,
00100000
00000000
00000000
01000000
00000000
00000000
00010000
00000000
00100000
00000000
00001000
00010000
00000000
00000100
00010000
00000000
,
00000100
00000000
00001000
00000010
00000000
00001000
00000001
00000000
00001000
00000000
00000010
00001000
00000000
00000100
00001000
00000000
,
00000100
00000000
00000000
00010000
00000000
00000000
00001000
00000000
00100000
00000000
00010000
00100000
00000000
00010000
00100000
00000000
,
00010000
00000000
00000000
01000000
00000000
00000000
00100000
00000000
10000000
00000000
00100000
01000000
00000000
00100000
10000000
00000000
,
01000000
00000000
10000000
01000000
00000000
10000000
00100000
00000000
00100000
00000000
01000000
00010000
00000000
01000000
00010000
00100000
,
00010000
00011000
00001010
00001001
,
00000110
00000000
00000000
00001000
00000000
00000000
00000100
00000000
00010000
00000000
00000000
00001000
00000000
00000000
01000000
00000000
,
00100000
00000000
00000000
10000000
00000000
00000000
00010000
00000000
00100000
00000000
00000000
00001000
00000000
00000000
00010000
00000000
,
00000010
00000000
00000000
00001000
00000001
00000000
00001000
00000000
00000100
00000000
00000000
00010000
00001000
00000000
00010000
00000000
,
00001000
00000000
00000000
01000000
00010000
00000000
01000000
00000000
00100000
00000000
00000000
10000000
00100000
00000000
01000000
00000000
,
00010000
00000000
01000000
00100000
00000000
00000000
10000000
00000000
00100000
00000000
01000000
00010000
00000000
00100000
00001000
00100000
,
00001000
00000000
00010000
00001000
00000000
00010000
00000100
00001000
00000100
00000000
00001000
00000010
00000000
00000100
00000001
00000000
,
00001000
00000000
00000000
00000100
00000000
00000000
00010000
00000000
00010000
00000000
00000000
00001000
00000000
01000000
00010000
01000000
,
00200000
20300000
32000000
03010000
,
10100000
00000000
00000000
00100000
00000000
00000000
00100000
00001000
00010000
00000000
00000000
00010000
00000000
00000000
00010000
00000100
,
00001000
00000000
00000000
00001000
00000000
00000000
00000010
00001000
00000100
00000000
00000000
00000100
00000000
00000000
00000001
00000010
,
00000100
00000000
00000000
00000100
00001000
00000000
00000000
00001000
01000000
00000000
00000000
01000000
10000000
00000000
00000000
10000000
,
00100000
00000000
10000000
00000000
01000000
00000000
00010000
00000000
00001000
00010000
00001000
00010000
00000010
00001000
00000010
00002000
,
00000002
00000000
00000000
00000000
,
00003003
00000000
00000000
00000000
;

//---------------dance-single - ----------------
#NOTES:
     dance-single:
     :
     Challenge:
     13:
     0.657,0.698,0.081,0.154,0.728: // measure 1
0000
0000
0000
0000
,  // measure 2
0000
0000
0000
0000
,  // measure 3
0000
0000
0000
0000
,  // measure 4
0000
0000
0000
0000
0000
0000
0000
0000
0011
0000
0000
1010
0000
0000
0011
0000
,  // measure 5
0011
0000
0000
0001
0000
0000
0001
0000
1000
0000
0000
1000
0000
0000
1000
0000
,  // measure 6
0010
0000
0000
0010
0000
0000
0010
0000
0100
0000
0000
0100
0000
0000
0100
0000
,  // measure 7
0001
0000
0000
0010
0000
0000
0100
0000
1000
0000
0000
0010
0000
0000
0100
0000
,  // measure 8
0001
0000
0000
1000
0000
0000
0010
0000
0200
0000
0000
0000
0320
0000
0000
0000
,  // measure 9
1030
0000
0000
0001
0100
0000
0001
0000
1000
0000
0001
0000
0100
0000
0010
1000
,  // measure 10
0010
0000
0000
0100
0001
0000
1000
0000
0010
0000
0100
0000
0001
0000
1000
0001
,  // measure 11
1000
0000
0000
0001
0100
0000
0010
0000
1000
0000
0010
0000
0100
0000
0001
0100
,  // measure 12
0001
0000
0000
0000
0000
0000
0000
0000
0000
1000
0000
0000
0010
0000
0000
0000
0000
0000
0100
0000
0000
0000
0000
0000
0001
0000
0000
0000
0000
0000
0100
0000
0000
0010
0000
0000
1000
0000
0000
0000
0100
0000
0000
0000
0010
0000
0000
0000
,  // measure 13
0001
0000
0000
0100
0010
0000
0100
0010
0100
0000
0000
0001
0100
0000
0001
1000
,  // measure 14
0001
0000
0000
1000
0100
0000
1000
0001
1000
0000
0000
0001
0010
0000
0001
1000
,  // measure 15
0001
0000
1000
0001
0000
0100
0010
0000
1000
0001
0000
1000
0100
0000
0010
0000
,  // measure 16
0001
0000
0000
0001
0000
0100
0000
0000
0010
0000
0000
0010
1000
0010
1000
0010
,  // measure 17
0100
0000
0001
0000
1000
0000
0001
0100
0001
0000
0010
0000
0100
0000
1000
0001
,  // measure 18
1000
0000
0010
0000
0100
0000
0001
0010
0001
0000
0000
0100
0000
0010
0000
1000
,  // measure 19
0010
0000
1000
0000
0100
0000
1000
0010
1000
0000
0010
0000
0100
0000
0001
0100
,  // measure 20
0001
0000
0100
0000
0010
0000
1000
0000
1001
0000
0000
0010
0000
0100
0000
0001
,  // measure 21
0100
0000
0010
0000
1000
0000
0100
1000
0010
0000
0100
0000
0001
0000
0010
0001
,  // measure 22
0100
0000
0010
0000
1000
0000
0100
0000
1000
0000
0010
0100
0000
0001
0000
0100
,  // measure 23
0010
0000
1000
0000
0100
0000
0010
0001
0100
0000
0001
0000
0010
0000
0100
0000
,  // measure 24
1000
0000
0000
0001
0000
1000
0100
0010
0001
0000
0000
0100
0000
0000
1000
0000
,  // measure 25
0001
0000
0100
0000
0001
0000
0000
0001
0100
0000
0000
0100
1000
0000
0000
1000
,  // measure 26
0010
0000
0000
0010
0001
0000
0000
0001
0100
0000
0010
1000
0100
0000
0000
0000
,  // measure 27
0100
0000
0000
0100
0001
0000
0000
0001
1000
0000
0000
1000
0010
0000
0000
0010
,  // measure 28
0100
0000
0000
0100
0001
0000
0000
0001
1000
0000
0001
0000
0100
0000
0010
0000
,  // measure 29
1000
0000
0000
1000
0100
0000
0000
0100
0001
0000
0000
0001
0010
0000
0000
0010
,  // measure 30
0001
0000
0000
0001
0100
0000
0000
0100
0010
0000
1000
0010
0100
0000
0001
0000
,  // measure 31
1000
0100
1000
0000
0001
0000
0010
0000
0001
0100
0001
0000
0100
0000
0010
0000
,  // measure 32
1000
0000
0000
0001
0000
0100
0010
0100
0010
0000
0000
1000
0000
0000
0001
0000
,  // measure 33
0200
0000
0000
0010
0000
0000
0010
0000
0000
0000
0000
0001
0000
0000
0001
0000
,  // measure 34
0301
0200
0320
2030
,  // measure 35
3002
0000
0000
0100
0000
0000
0100
0000
0103
0000
0000
0000
0010
1000
0100
0000
,  // measure 36
2000
0000
0000
0010
0000
0000
3010
0000
0100
0000
0000
0001
0000
0000
1000
0000
,  // measure 37
0001
0000
0000
0010
0001
0000
0100
0000
0001
0000
0000
1000
0010
0000
1000
0000
,  // measure 38
0100
0000
0000
1000
0001
0000
0100
0000
0010
0000
0000
0010
1000
0000
0001
0000
,  // measure 39
0100
0000
0000
0001
1000
0000
0010
0000
1000
0000
0000
0001
0000
0000
0100
0010
,  // measure 40
1000
0000
0010
0100
0000
0000
0010
0100
0001
0000
0000
0100
0000
0000
0010
0000
,  // measure 41
1010
0000
0000
1000
0100
0000
1000
0000
0010
0000
0000
0010
0100
0000
0001
0000
,  // measure 42
0010
0000
0000
0010
0001
0000
0100
0000
0010
0000
0000
0010
1000
0000
0001
0000
,  // measure 43
0100
0000
0000
0100
0010
0000
1000
0000
0001
0000
0000
0001
1000
0000
0100
0000
,  // measure 44
0010
0000
0000
0010
0001
0000
0100
0000
0010
0000
0000
0010
1000
0000
0100
0000
,  // measure 45
1000
1000
0010
0010
0100
0100
0001
0001
,  // measure 46
1000
0100
0010
0001
1000
0010
0100
0001
,  // measure 47
0010
0001
0010
0000
0001
0100
0010
0000
0010
1000
0010
0000
0010
0100
0001
0000
,  // measure 48
0002
0203
0320
1030
,  // measure 49
0101
0000
0000
0001
0000
0001
0100
0000
0010
0000
0000
1000
0000
1000
0010
0000
,  // measure 50
1000
0000
0000
1000
0000
0100
1000
0000
0010
0000
0000
0010
0000
0100
0001
0000
,  // measure 51
0010
0000
0000
0010
0000
0001
0100
0000
0010
0000
0000
0010
0000
1000
0100
0000
,  // measure 52
1000
0000
0000
1000
0000
0001
0100
0000
0001
0000
0000
0001
0000
1000
0010
0000
,  // measure 53
1000
0000
0010
1000
0000
0010
1000
0000
0001
0000
0100
0001
0000
0100
0001
0000
,  // measure 54
1000
0000
0001
1000
0000
0001
1000
0000
0010
0000
0100
0010
0000
0100
0010
0000
,  // measure 55
1000
0000
0100
1000
0000
0100
1000
0000
0001
0000
0010
0001
0000
0100
0010
0100
,  // measure 56
0020
2030
3002
0103
,  // measure 57
0011
0000
0000
0001
0100
0000
1000
0000
0001
0000
0000
1000
0100
0000
0001
0000
,  // measure 58
1000
0000
0000
0001
0010
0000
0100
0000
1000
0000
0000
0001
0100
0000
0010
0000
,  // measure 59
0100
0000
0000
1000
0100
0000
0010
0000
0100
0000
0000
0001
1000
0000
0010
0000
,  // measure 60
0100
0000
0000
1000
0001
0000
0100
0000
0010
0000
0000
1010
0000
0000
0010
0000
,  // measure 61
0100
0000
0001
0100
0000
0000
0010
0000
1000
0000
0001
0100
0000
0010
1000
0010
,  // measure 62
1000
0000
0001
0010
0000
0100
0010
0100
0010
0000
1000
0100
0000
1000
0010
0000
,  // measure 63
0100
0000
0001
0100
0000
0010
0100
0000
0001
0000
1000
0100
0000
1000
0010
0100
,  // measure 64
0002
0023
0230
0301
,  // measure 65
1001
0000
0000
0001
0000
1000
0100
0010
0001
0000
0000
1000
0000
0001
0010
0100
,  // measure 66
1000
0000
0000
0010
0000
1000
0010
0100
0001
0000
0000
0100
0000
0010
1000
0100
,  // measure 67
1000
0000
0010
0100
0010
0000
1000
0100
1000
0000
0001
0100
0001
0000
0010
0100
,  // measure 68
0010
0000
0010
0000
0010
0000
0010
0000
1000
0100
1000
0100
0010
0001
0010
0002
,  // measure 69
2000
0000
0000
0000
,  // measure 70
3003
0000
0000
0000
;
