#TITLE:Believe in You;
#SUBTITLE:;
#ARTIST:DJ Shimamura feat. Renna;
#TITLETRANSLIT:;
#SUBTITLETRANSLIT:;
#ARTISTTRANSLIT:;
#GENRE:;
#CREDIT:;
#MENUCOLOR:;
#METERTYPE:DDR;
#BANNER:Believe in You-b.png;
#BACKGROUND:Believe in You.png;
#LYRICSPATH:;
#CDTITLE:;
#MUSIC:Believe in You.ogg;
#OFFSET:-0.123;
#SAMPLESTART:88.520;
#SAMPLELENGTH:12.430;
#SELECTABLE:YES;
#LISTSORT:;
#DISPLAYBPM:175.000;
#BPMS:0.000=175.000;
#STOPS:;
#BGCHANGES:-1.000=Believe In You.avi=1.000=1=1=0,
354.250=White.png=1.000=0=0=1,
99999=-nosongbg-=1.000=0=0=0 // don't automatically add -songbackground-
;
#ATTACKS:;

//---------------dance-single - ----------------
#NOTES:
     dance-single:
     :
     Hard:
     12:
     0.560,0.634,0.706,0.373,0.079:
0000
0000
0000
0000
,
0000
0000
0000
0000
,
0000
0000
0000
0000
,
0000
0000
0000
0000
,
0000
0000
0000
0000
,
0000
0000
0000
0000
,
0000
0000
0000
0000
,
0000
0000
0000
0000
,
0000
0000
0000
0000
,
0002
0000
0000
0003
,
0200
0000
0000
0300
,
2000
0000
0000
3000
,
0020
0000
0000
0030
,
0002
0000
0000
0003
,
2000
0000
0000
3000
,
0020
0000
0000
0200
,
0000
0000
0000
0330
,
1001
0000
0001
0200
0001
0000
0301
0000
,
1001
0000
0100
0020
0100
0000
0130
0000
,
1100
0000
0100
1000
0000
0100
2000
0000
,
0010
3010
0200
0302
,
0013
0000
0100
0020
0100
0000
0130
0000
,
1001
0000
1000
0020
1000
0000
1030
0000
,
1100
0000
0010
0100
0000
0010
0200
0000
,
0001
0301
1010
0101
,
1001
1001
1001
1100
,
1001
1001
1001
0101
,
0110
1010
1010
1010
,
0110
0101
0101
0011
,
1000
0001
1000
0000
0001
1000
0001
0000
,
0010
0100
0010
0000
0100
0010
0100
0000
,
1000
0100
0010
0001
1000
0010
0100
0001
,
2001
0000
0010
3010
,
0001
0000
0000
0000
1001
0000
0000
0001
0100
0000
0010
0000
0100
0000
0000
0000
,
1000
0000
0000
0000
1001
0000
0000
1000
0010
0000
0100
0000
0010
0000
0000
0000
,
1000
0000
0000
0000
0100
0000
0000
1000
0010
0000
0100
0000
0010
0000
0000
0000
,
0001
0000
0000
0000
0010
0000
0000
0001
0100
0000
0010
0000
0100
0000
0000
0000
,
1010
0000
0000
0000
0101
0000
0000
0001
0100
0000
0010
0000
0100
0000
0000
0000
,
0011
0000
0000
0000
1100
0000
0000
1000
0010
0000
0100
0000
0010
0000
0000
0000
,
1010
0000
0000
0000
0010
0000
0000
0010
0100
0000
0010
0000
0001
0000
0000
0000
,
0101
0000
0000
0000
0100
0000
0000
0010
0100
0000
0000
0000
1001
0000
0000
0000
,
0010
0000
0000
0000
1010
0000
0000
1000
0100
0000
0010
0000
0100
0000
0000
0000
,
0100
0000
0000
0000
0101
0000
0000
0001
0010
0000
0100
0000
0010
0000
0000
0000
,
1100
0000
0000
0000
0101
0000
0000
0001
0100
0000
0010
0000
0100
0000
0000
0000
,
0101
0000
0000
0000
1100
0000
0000
1000
0100
0000
0010
0000
0100
0000
0000
0000
,
0010
0100
0010
0100
0010
0100
0010
0000
,
1000
0100
1000
0100
1000
0100
1000
0000
,
0011
0000
0000
1001
0000
0000
1100
0000
,
0010
0100
1000
1001
,
0010
0002
2003
3002
,
0203
0000
0320
0000
0130
0000
0001
1001
,
0000
0020
2030
3020
,
0230
0000
0302
0000
0203
0000
0310
0110
,
0000
0000
0002
0000
0103
0010
0100
0000
,
2000
0000
3010
0200
0000
0302
0000
2003
,
0000
0001
0000
3001
,
0010
0000
0100
0110
0000
1001
0000
0000
,
1100
0000
1100
0000
0101
0000
0100
0001
,
0000
0010
0100
1000
0001
0000
1001
0000
,
0101
0000
0101
0000
1100
0000
0100
1000
,
0000
0010
0100
0001
0000
1000
1001
0000
,
0011
0000
0011
0000
0101
0000
0100
0001
,
0000
1000
0100
0010
0000
0001
0100
0000
,
1001
0110
1001
0110
,
2002
0000
3003
0000
1000
0010
0100
0000
,
0001
0000
0100
0020
1000
0000
1030
0000
,
1000
0000
0100
0002
0010
0000
0013
0000
,
0010
0000
0100
0002
0010
0000
0013
0000
,
0100
0000
0010
2000
0100
0000
3100
0000
,
0001
0000
1000
0020
0100
0000
0130
0000
,
1000
0000
0001
0200
0010
0000
0310
0000
,
1010
0000
0001
0101
0000
1000
1100
0000
,
0010
0110
0000
1000
0100
0010
1001
0000
,
0101
0000
1000
0200
0000
0301
0100
0000
,
1010
0000
0001
0020
0000
1030
0010
0000
,
1100
0000
0001
0020
0000
1030
0010
0000
,
1100
0000
0001
0200
0000
0000
0310
0000
,
1010
0000
0000
0101
0000
0000
0010
0000
,
1001
0000
0011
0110
,
1001
0000
0000
0110
0000
0000
2002
0000
,
0000
3003
0110
0110
,
1001
0000
0000
0000
0001
0000
0000
0010
0000
0000
0100
0000
0000
0000
0010
0000
,
1001
0000
0000
0000
1000
0000
0000
0100
0000
0000
0010
0000
0000
0000
0100
0000
,
0110
0000
0000
0000
0001
0000
0000
0010
0000
0000
0001
0000
0000
0000
0100
0000
,
0110
0000
0000
0000
1000
0000
0000
0100
0000
0000
1000
0000
0000
0000
0010
0000
,
0110
0000
0000
0000
0001
0000
0000
1000
0000
0000
0001
0000
0000
0000
0100
0000
,
0110
0000
0000
0000
1000
0000
0000
0001
0000
0000
1000
0000
0000
0000
0010
0000
,
1010
0000
0000
0000
0001
0000
0000
0100
0000
0000
0001
0000
0000
0000
0010
0000
,
0100
0000
0000
0000
0100
0000
0000
0010
0000
0000
0100
0000
0000
0000
0010
0000
;

//---------------dance-double - ----------------
#NOTES:
     dance-double:
     :
     Hard:
     12:
     0.513,0.564,0.531,0.396,0.067:
00000000
00000000
00000000
00000000
,
00000000
00000000
00000000
00000000
,
00000000
00000000
00000000
00000000
,
00000000
00000000
00000000
00000000
,
00000000
00000000
00000000
00000000
,
00000000
00000000
00000000
00000000
,
00000000
00000000
00000000
00000000
,
00000000
00000000
00000000
00000000
,
00000000
00000000
00000000
00000000
,
00020000
00000000
00000000
00000000
,
00030200
00000000
00000000
00000000
,
00020300
00000000
00000000
00000000
,
00030200
00000000
00000000
00000000
,
00002300
00000000
00003020
00000000
,
00000230
00000000
00000320
00000000
,
00000230
00000000
00000000
00000002
,
00000000
00000000
00000303
00000000
,
00001002
00000000
00000000
00000203
00000000
00000000
00000310
00000000
,
00000020
00000000
00000000
00002030
00000000
00000000
00003100
00000000
,
00000100
00000000
00010000
00001000
00000000
00020000
00002000
00000000
,
00000000
00033000
00101000
00110000
,
02010000
00000000
00000000
03200000
00000000
00000000
10300000
00000000
,
02000000
00000000
00000000
03020000
00000000
00000000
00130000
00000000
,
00200000
00000000
00301000
00020000
00000000
00031000
00020000
00000000
,
00000200
00030300
00001100
00000101
,
00000011
00000000
00000001
00000100
00000010
00000000
00001010
00000000
,
00001100
00000000
00000100
00010000
00001000
00000000
00011000
00000000
,
00101000
00000000
00100000
00010000
00000000
00100000
00020000
00000000
,
01000000
01030000
10100000
01010000
,
01100000
00000000
01000000
00010000
01000000
00000000
00001000
00000000
,
00010000
00000000
00000100
00010000
00000100
00000000
00001000
00000000
,
00001010
00001010
00000101
00000101
,
00002002
00003003
00000020
00000230
,
00000301
00000000
00000000
00000000
00000001
00000000
00000000
00000001
00000100
00000000
00000010
00000000
00001000
00000000
00000100
00000000
,
00001000
00000000
00000000
00000000
00001000
00000000
00000000
00001000
00000100
00000000
00010000
00000000
00001000
00000000
00100000
00000000
,
00010000
00000000
00010000
00100000
00000000
00010000
01000000
00100000
,
01000000
00000000
00000000
00000000
01000000
00000000
00000000
01000000
00100000
00000000
01000000
00000000
01100000
00000000
00000000
00000000
,
10010000
00000000
00000000
00000000
10000000
00000000
00000000
10000000
01000000
00000000
10000000
00000000
01000000
00000000
00000000
00000000
,
01010000
00000000
00000000
00000000
01000000
00000000
00000000
00010000
00100000
00000000
00010000
00000000
00100000
00000000
00000000
00000000
,
00101000
00000000
00000000
00011000
00000000
00000000
00010100
00000000
,
00001000
00000000
00000100
00000000
00000001
00000010
00000100
00000000
,
00001010
00000000
00000000
00000000
00001000
00000000
00000000
00001000
00000010
00000000
00000100
00000000
00000010
00000000
00000000
00000000
,
00001000
00000000
00000000
00000000
00001000
00000000
00000000
00000100
00001000
00000000
00000100
00000000
00010000
00000000
00000000
00000000
,
00001000
00000000
00100000
00010000
00000000
00100000
00010000
00000000
,
01000000
00000000
00100000
00000000
10000000
01000000
00100000
00000000
,
01010000
00000000
00000000
00100000
00000000
00000000
00001000
00000000
,
00011000
00000000
00000000
00010000
00000000
00000000
00000100
00000000
,
00001100
00000000
00000000
00000101
00000000
00000000
00001001
00000000
,
00000010
00000000
00000010
00000000
00000010
00000100
00001000
00000000
,
00000100
00020000
00032000
00023000
,
00032000
00000000
00203000
00000000
00320000
00000000
01030000
01000000
,
00000000
20000000
32000000
23000000
,
32000000
00000000
03020000
00000000
00230000
00000000
00301000
00001000
,
00000000
00000000
00010000
00000000
00000100
00001000
00000100
00000000
,
00001000
00000000
00000010
00000200
00000000
00000320
00000000
00000230
,
00000000
00000000
00000300
00000001
,
00001001
00000000
00001000
00000100
00000000
00001100
00000000
00000000
,
00001010
00000000
00001100
00000000
00001010
00000000
00001000
00000100
,
00000000
00010000
00001000
00010000
00000000
00001000
00100000
00000000
,
00110000
00000000
01010000
00000000
00110000
00000000
00100000
00001000
,
00000000
00100000
00010000
01000000
00000000
10000000
01000000
00000000
,
11000000
00000000
01100000
00000000
01010000
00000000
00100000
00001000
,
00000000
00010000
00000010
00001000
00000000
00000010
00000100
00000000
,
00001001
00000000
00000000
00000001
00000000
00000000
00000001
00000000
00001001
00000000
00000000
00001000
00000000
00000000
00001000
00000000
,
00001100
00000000
00000000
00000000
00010000
00001000
00010000
00000000
,
00020000
00000000
00031000
00002000
00100000
00000000
00100000
00000000
,
00100000
00010000
00010000
00013000
,
00001000
00000000
00100000
00020000
00100000
00000000
00100000
00000000
,
01000000
01000000
01000000
01030000
,
01000000
00000000
00100000
20000000
00100000
00000000
00100000
00000000
,
01000000
01000000
30100000
01010000
,
00110000
00000000
00000000
00010100
00000000
00000000
00001010
00000000
,
00000001
00000000
00000100
00000000
00000010
00001000
00000100
00000000
,
00010100
00000000
00001000
00010000
00001000
00000000
00101000
00000000
,
01010000
00000000
00010000
00100000
01000000
00000000
11000000
00000000
,
01010000
00000000
00100000
00001000
00010000
00000000
00010100
00000000
,
00001100
00000000
00000010
00000100
00001000
00000000
00001010
00000000
,
00000101
00000000
00000001
00000010
00000100
00000000
00001000
00000000
,
00001100
00000000
00000100
00010000
00001000
00000000
00101000
00000000
,
00110000
00000000
00000000
01010000
00000000
00000000
20020000
00000000
,
00000000
30030000
01100000
10010000
,
01100000
00000000
00000000
00000000
10000000
00000000
00000000
01000000
00000000
00000000
00100000
00000000
00000000
00000000
01000000
00000000
,
00001000
00000000
00000000
00000000
00100000
00000000
00000000
00001000
00000000
00000000
00010000
00000000
00000000
00000000
00010000
00000000
,
00000100
00000000
00000000
00000000
00001000
00000000
00000000
00000100
00000000
00000000
00001000
00000000
00000000
00000000
00000010
00000000
,
00000100
00000000
00000000
00000000
00000001
00000000
00000000
00000010
00000000
00000000
00000001
00000000
00000000
00000000
00000100
00000000
,
00000010
00000000
00000000
00000000
00001000
00000000
00000000
00000010
00000000
00000000
00001000
00000000
00000000
00000000
00000100
00000000
,
00010000
00000000
00000000
00000000
00001000
00000000
00000000
00010000
00000000
00000000
00001000
00000000
00000000
00000000
00010000
00000000
,
00001000
00000000
00000000
00000000
00100000
00000000
00000000
00010000
00000000
00000000
01000000
00000000
00000000
00000000
00100000
00000000
,
10000000
00000000
00000000
00000000
01000000
00000000
00000000
01000000
00000000
00000000
01000000
00000000
00000000
00000000
10010000
00000000
;

//---------------dance-double - ----------------
#NOTES:
     dance-double:
     :
     Medium:
     10:
     0.399,0.529,0.206,0.444,0.000:
00000000
00000000
00000000
00000000
,
00000000
00000000
00000000
00000000
,
00000000
00000000
00000000
00000000
,
00000000
00000000
00000000
00000000
,
00000000
00000000
00000000
00000000
,
00000000
00000000
00000000
00000000
,
00000000
00000000
00000000
00000000
,
00000000
00000000
00000000
00000000
,
00000000
00000000
00000000
00000000
,
00200000
00000000
00000000
00000000
,
00000000
00000000
00000000
00000000
,
00302000
00000000
00000000
00000000
,
00023000
00000000
00000000
00000000
,
00032000
00000000
00000000
00000000
,
00023000
00000000
00000000
00000000
,
00030200
00000000
00000000
00002000
,
00000000
00000000
00000000
00003300
,
00000020
00000000
00000000
00000032
00000000
00000000
00000103
00000000
,
00000020
00000000
00000000
00002030
00000000
00000000
00003100
00000000
,
00000100
00000000
00010000
00000100
00000000
00020000
00000200
00000000
,
00000000
00030300
00000100
00010000
,
00002000
00000000
00000000
00203000
00000000
00000000
01300000
00000000
,
00020000
00000000
00000000
20030000
00000000
00000000
31000000
00000000
,
10000000
00000000
00100000
01000000
00000000
00100000
02000000
00000000
,
00000000
03000000
00100000
00001000
,
00201000
00000000
00000000
00302000
00000000
00000000
00013000
00000000
,
00020000
00000000
00000000
00030020
00000000
00000000
00000130
00000000
,
00000001
00000000
00001000
00000010
00000000
00001000
00000200
00000000
,
00000000
00000000
00000000
00000300
00010000
00000000
00001000
00000000
,
01000000
01000000
00100000
10010000
,
00100000
00100000
00001000
00011000
,
00010100
00010100
00001010
00001010
,
00001001
00000000
00000010
00000010
,
00001001
00000000
00000001
00000100
00000001
00000000
00001000
00000000
,
00000100
00000000
00010000
00000100
00010000
00000000
00001000
00000000
,
00100000
00000000
00010000
01000000
00000000
00010000
02000000
00000000
,
00000000
03000000
10000000
00100000
,
01000000
00000000
00010000
01000000
00000000
01000000
00010000
00000000
,
00100000
00000000
00001000
00010000
00000000
00010000
00001000
00000000
,
00010000
00000000
00000100
00001000
00000000
00001000
00000100
00000000
,
00000010
00000001
00000100
00001001
,
00000010
00000000
00010000
00000100
00000000
00000100
00010000
00000000
,
00001000
00000000
00100000
00010000
00000000
00010000
00100000
00000000
,
00010000
00000000
01000000
10000000
00000000
10000000
01000000
00000000
,
00100000
00000000
01000000
00000000
00010000
00100000
00010000
00100000
,
00010000
00000000
00000000
01000000
00000000
00000000
00001000
00000000
,
00011000
00000000
00000000
00010000
00000000
00000000
00000010
00000000
,
00001001
00000000
00000000
00001001
00000000
00000000
00002002
00000000
,
00000000
00003003
00000010
00001001
,
00000000
00000100
00000100
00000100
,
00000010
00000000
00000100
00000000
00010000
00000000
00001000
00010000
,
00000000
00100000
00100000
00100000
,
00010000
00000000
01000000
00000000
00100000
00000000
10000000
01000000
,
00000000
00000000
10010000
00000000
00100000
01000000
00100000
00000000
,
10000000
00000000
00100000
00010000
00000000
00010000
00000000
00020000
,
00000000
00000000
00030000
00001000
,
00010000
00000000
00000100
00001000
00000000
00001100
00000000
00000000
,
00000010
00000000
00000001
00000000
00000010
00000000
00000001
00000100
,
00000000
00000010
00001000
00000100
00000000
00000000
00000000
00000000
,
00001000
00000000
00100000
00000000
00001000
00000000
00100000
00010000
,
00000000
00010000
01000000
00010000
00000000
01000000
00100000
00000000
,
10010000
00000000
11000000
00000000
10010000
00000000
01000000
00100000
,
00000000
01000000
00001000
00010000
00000000
00010000
00000100
00000000
,
00002000
00000000
00003002
00000000
,
00000103
00000000
00000000
00000000
00000010
00001000
00000100
00000000
,
00000200
00000000
00000000
00020000
00000000
00000000
00030300
00000000
,
00200000
00000000
00000000
00020000
00000000
00000000
00330000
00000000
,
02000000
00000000
00000000
00200000
00000000
00000000
03300000
00000000
,
00020000
00000000
00000000
20000000
00000000
00000000
30030000
00000000
,
00200000
00000000
00000000
00002000
00000000
00000000
00303000
00000000
,
00020000
00000000
00000000
00000020
00000000
00030000
00001030
00000000
,
00001001
00000000
00000000
00000101
00000000
00000000
00000020
00000000
,
00000000
00000000
00000030
00000000
00000001
00000100
00000001
00000000
,
00000020
00000000
00000000
00002030
00000000
00000000
00003100
00000000
,
00020000
00000000
00000000
00032000
00000000
00000000
00103000
00000000
,
00200000
00000000
00000000
00320000
00000000
00000000
01030000
00000000
,
00200000
00000000
00000000
20300000
00000000
00000000
31000000
00000000
,
00200000
00000000
00000000
02000000
00000000
00000000
00000000
00000000
,
03300000
00000000
10000000
00100000
,
00101000
00000000
00000000
00010100
00000000
00000000
00002020
00000000
,
00000000
00003030
00000100
00000010
,
00001001
00000000
00000001
00000000
00000001
00000100
00000001
00000000
,
00001000
00000000
00000010
00000000
00001000
00000100
00001000
00000000
,
00100000
00000000
00001000
00000000
00100000
00010000
01000000
00000000
,
00100000
00000000
10000000
00000000
00100000
10000000
00100000
00000000
,
01000000
00000000
00010000
00000000
00100000
00001000
00100000
00000000
,
00010000
00000000
00000100
00000000
00001000
00000010
00001000
00000000
,
00000010
00000000
00000001
00000000
00000100
00001000
00000100
00000000
,
00020000
00000000
00002000
00000000
00000000
00000000
00000000
00033000
;

//---------------dance-single - ----------------
#NOTES:
     dance-single:
     :
     Medium:
     10:
     0.399,0.529,0.214,0.444,0.000:
0000
0000
0000
0000
,
0000
0000
0000
0000
,
0000
0000
0000
0000
,
0000
0000
0000
0000
,
0000
0000
0000
0000
,
0000
0000
0000
0000
,
0000
0000
0000
0000
,
0000
0000
0000
0000
,
0000
0000
0000
0000
,
0020
0000
0000
0000
,
0000
0000
0000
0000
,
2030
0000
0000
0000
,
3002
0000
0000
0000
,
2003
0000
0000
0000
,
3002
0000
0000
0000
,
0203
0000
0000
0020
,
0000
0000
0000
0330
,
2000
0000
0000
3002
0000
0000
0103
0000
,
0002
0000
0000
2003
0000
0000
3100
0000
,
0100
0000
0001
0100
0000
0002
0200
0000
,
0000
0303
1000
0001
,
2000
0000
0000
3020
0000
0000
0130
0000
,
0002
0000
0000
2003
0000
0000
3100
0000
,
1000
0000
0010
0100
0000
0010
0200
0000
,
0000
0300
0010
1000
,
1002
0000
0000
2003
0000
0000
3001
0000
,
0200
0000
0000
0320
0000
0000
0130
0000
,
0001
0000
0100
0010
0000
0010
0200
0000
,
0000
0000
0000
0300
0001
0000
1000
0000
,
0100
0100
0010
1001
,
0010
0010
0100
1001
,
0110
0110
1001
1001
,
1001
0000
0010
0010
,
1001
0000
0001
0100
0001
0000
1000
0000
,
0100
0000
1000
0100
1000
0000
0100
0000
,
0010
0000
0001
0100
0000
0001
0200
0000
,
0000
0300
1000
0001
,
1001
0000
0001
0100
0000
0100
0001
0000
,
0010
0000
1000
0010
0000
0010
1000
0000
,
0001
0000
0100
1000
0000
1000
0100
0000
,
0010
0001
0100
1001
,
0010
0000
0001
1000
0000
1000
0001
0000
,
0100
0000
1000
0001
0000
0001
1000
0000
,
0001
0000
0100
0010
0000
0010
0100
0000
,
0010
0000
0100
0000
0001
1000
0001
1000
,
0001
0000
0000
0100
0000
0000
1000
0000
,
1001
0000
0000
0010
0000
0000
0001
0000
,
1001
0000
0000
1001
0000
0000
2002
0000
,
0000
3003
0010
1001
,
0000
0100
0100
0100
,
0010
0000
0100
0000
0001
0000
1000
0001
,
0000
0010
0010
0010
,
0001
0000
0100
0000
0010
0000
1000
0100
,
0000
0000
1001
0000
0010
0100
0010
0000
,
1000
0000
0010
0001
0000
0001
0000
0002
,
0000
0000
0003
1000
,
0001
0000
0100
1000
0000
1001
0000
0000
,
1000
0000
0001
0000
1000
0000
0001
0100
,
0000
0010
1000
0010
0000
0000
0000
0000
,
1000
0000
0010
0000
1000
0000
0010
0001
,
0000
0001
0100
0001
0000
0100
0010
0000
,
1001
0000
0101
0000
1001
0000
0100
0001
,
0000
0100
0010
0100
0000
0000
0100
0000
,
2000
0000
3002
0000
,
0103
0000
0000
0000
0010
1000
0010
0000
,
0200
0000
0000
0002
0000
0000
0303
0000
,
0020
0000
0000
0002
0000
0000
0033
0000
,
0200
0000
0000
0020
0000
0000
0330
0000
,
0002
0000
0000
2000
0000
0000
3003
0000
,
0020
0000
0000
2000
0000
0000
3030
0000
,
0002
0000
0000
0020
0000
0003
1030
0000
,
1001
0000
0000
0101
0000
0000
0020
0000
,
0000
0000
0030
0000
0001
0100
0001
0000
,
0020
0000
0000
2030
0000
0000
3100
0000
,
0002
0000
0000
2003
0000
0000
3010
0000
,
0020
0000
0000
0032
0000
0000
0103
0000
,
0020
0000
0000
2030
0000
0000
3100
0000
,
0020
0000
0000
0200
0000
0000
0000
0000
,
0330
0000
1000
0010
,
1010
0000
0000
0101
0000
0000
2002
0000
,
0000
3003
0100
0010
,
1001
0000
0001
0000
0001
0100
0001
0000
,
1000
0000
0010
0000
1000
0100
1000
0000
,
0010
0000
1000
0000
0010
0001
0010
0000
,
0010
0000
1000
0000
0010
1000
0010
0000
,
0100
0000
0001
0000
0010
1000
0010
0000
,
0001
0000
0100
0000
1000
0010
1000
0000
,
0010
0000
0001
0000
0100
1000
0100
0000
,
0002
0000
2000
0000
0000
0000
0000
3003
;

//---------------dance-single - ----------------
#NOTES:
     dance-single:
     :
     Beginner:
     2:
     0.163,0.244,0.032,0.135,0.000:
0000
0000
0000
0000
,
0000
0000
0000
0000
,
0000
0000
0000
0000
,
0000
0000
0000
0000
,
0000
0000
0000
0000
,
0000
0000
0000
0000
,
0000
0000
0000
0000
,
0000
0000
0000
0000
,
0000
0000
0000
0000
,
0002
0000
0000
0000
,
0003
0000
0000
0000
,
2000
0000
0000
0000
,
3000
0000
0000
0000
,
0002
0000
0000
0000
,
0003
0000
0000
0000
,
2000
0000
0000
0000
,
3000
0000
0000
0000
,
0010
0000
0010
0000
,
0010
0000
0010
0000
,
0100
0000
0100
0000
,
0100
0000
0100
0000
,
0010
0000
0010
0000
,
0010
0000
0010
0000
,
0100
0000
0100
0000
,
0100
0000
0100
0000
,
0001
0000
0001
0000
,
1000
0000
1000
0000
,
0001
0000
0001
0000
,
1000
0000
1000
0000
,
0010
0000
0010
0000
,
0100
0000
0100
0000
,
0200
0000
0300
0000
,
0100
0000
0000
0000
,
0001
0000
0001
0000
,
0001
0000
0001
0000
,
1000
0000
1000
0000
,
1000
0000
1000
0000
,
0010
0000
0010
0000
,
0100
0000
0100
0000
,
0001
0000
0001
0000
,
0001
0000
0000
0000
,
0010
0000
0010
0000
,
0100
0000
0100
0000
,
0010
0000
0010
0000
,
0100
0000
0100
0000
,
1001
0000
0000
0000
,
1001
0000
0000
0000
,
1001
0000
0000
1001
,
0000
0000
0010
0010
,
0000
0100
0100
0100
,
0100
0000
0000
0000
,
0000
0001
0001
0001
,
0001
0000
0000
0000
,
0000
1000
1000
1000
,
1000
0000
0000
0000
,
0020
0000
0030
0000
,
0200
0000
0300
0000
,
0001
0001
0001
0000
,
1000
0000
1000
0000
,
0010
0010
0010
0000
,
0100
0000
0100
0000
,
0001
0001
0001
0000
,
1000
0000
1000
0000
,
2000
0000
0000
3000
,
0000
0000
0000
0000
,
0020
0000
0000
0000
,
0030
0000
0000
0000
,
0200
0000
0000
0000
,
0300
0000
0000
0000
,
0002
0000
0000
0000
,
0003
0000
0000
0000
,
1000
0000
0000
1000
0000
0000
2000
0000
,
0000
0000
3000
0000
,
0020
0000
0030
0000
,
0100
0000
0100
0000
,
0002
0000
0003
0000
,
1000
0000
1000
0000
,
0020
0000
0000
0030
,
0000
0000
0000
0000
,
0001
0000
0000
0001
0000
0000
0002
0000
,
0000
0003
0001
0001
,
0002
0000
0000
0000
,
0003
0000
0000
0000
,
1000
0000
0000
0000
,
1000
0000
0000
0000
,
0001
0000
0001
0000
,
0100
0000
0100
0000
,
0010
0010
0010
0010
,
0010
0000
0000
0000
;

//---------------dance-double - ----------------
#NOTES:
     dance-double:
     :
     Easy:
     6:
     0.330,0.421,0.174,0.389,0.000:
00000000
00000000
00000000
00000000
,
00000000
00000000
00000000
00000000
,
00000000
00000000
00000000
00000000
,
00000000
00000000
00000000
00000000
,
00000000
00000000
00000000
00000000
,
00000000
00000000
00000000
00000000
,
00000000
00000000
00000000
00000000
,
00000000
00000000
00000000
00000000
,
00000000
00000000
00000000
00000000
,
00200000
00000000
00000000
00000000
,
02300000
00000000
00000000
00000000
,
03200000
00000000
00000000
00000000
,
02300000
00000000
00000000
00000000
,
03200000
00000000
00000000
00000000
,
00300000
00000000
00000000
00000000
,
00002000
00000000
00000000
00020000
,
00000000
00000000
00033000
00000000
,
00010000
00010000
00010000
00010000
,
00000100
00000100
00000100
00000100
,
00001000
00001000
00001000
00001000
,
00000100
00000100
00000100
00000100
,
00000001
00000001
00000001
00000001
,
00000010
00000010
00000010
00000010
,
00001000
00001000
00001000
00001000
,
00100000
00100000
00010000
01000000
,
10000000
10000000
10000000
00100000
,
01000000
01000000
01000000
00010000
,
00001000
00001000
00001000
00010000
,
00000100
00000100
00000100
00000010
,
00001001
00001000
00001000
00001000
,
00001001
00000001
00000001
00000001
,
00000100
00000100
00000100
00000100
,
00001001
00000000
00000010
00000100
,
00000020
00000000
00001030
00000100
,
00002000
00000000
00003100
00010000
,
00001000
00100000
00010000
00100000
,
01000000
10000000
01000000
10000000
,
00200000
00000000
01300000
00100000
,
02000000
00000000
13000000
00010000
,
10000000
00100000
01000000
00200000
,
00000000
00000000
10300000
10010000
,
00020000
00000000
00130000
00001000
,
00020000
00000000
00030100
00001000
,
00000010
00000001
00000100
00002002
,
00000000
00003003
00000010
00001000
,
00002200
00003300
00001000
00010000
,
00022000
00033000
00001000
00100000
,
00110000
00000000
00000000
10010000
00000000
00000000
11000000
00000000
,
00000000
00100000
01000000
10010000
,
00000000
00100000
00100000
00100000
,
00010000
10000000
00010000
10000000
,
00000000
01000000
01000000
01000000
,
00001000
00010000
00001000
00010000
,
00000000
00000100
00000100
00000100
,
00001000
00000010
00000001
00000100
,
00002002
00000000
00003003
00000000
,
00000010
00000100
00001000
00000000
,
00011000
00011000
00011000
00000000
,
00001000
00100000
00010000
00000000
,
10010000
10010000
10010000
00000000
,
01000000
00001000
00010000
00000000
,
00011000
00011000
00011000
00000000
,
00010000
00000010
00000100
00000000
,
00002000
00000000
00003002
00000000
,
00000103
00000000
00000010
00000010
,
00000020
00000000
00000000
00000030
,
00000200
00000000
00000000
00000300
,
00000002
00000000
00000000
00000003
,
00002000
00000000
00000000
00003000
,
00000200
00000000
00000000
00000300
,
00020000
00000000
00000000
00030000
,
00001000
00000000
00000000
00100000
00000000
00000000
00020000
00000000
,
00000000
00030000
10000000
01000000
,
00200000
00000000
01300000
00100000
,
00002000
00000000
00013000
00000100
,
00002000
00000000
00003010
00000001
,
00000200
00000000
00000310
00001000
,
00000200
00000000
00020300
00000000
,
00032000
00000000
00103000
00010000
,
02000000
00000000
00000000
03200000
00000000
00000000
02300000
00000000
,
00000000
00000000
03010000
10000000
,
20020000
00000000
00000000
00000000
,
00000000
00000000
30030000
00000000
,
00200000
01000000
01300000
00000000
,
20000000
01000000
31000000
00000000
,
00200000
00001000
00301000
00000000
,
00020000
00000010
00030010
00000000
,
00000200
00000001
00000301
00000000
,
00000200
00010000
00010300
00000000
;

//---------------dance-single - ----------------
#NOTES:
     dance-single:
     :
     Easy:
     6:
     0.324,0.386,0.159,0.365,0.000:
0000
0000
0000
0000
,
0000
0000
0000
0000
,
0000
0000
0000
0000
,
0000
0000
0000
0000
,
0000
0000
0000
0000
,
0000
0000
0000
0000
,
0000
0000
0000
0000
,
0000
0000
0000
0000
,
0000
0000
0000
0000
,
0020
0000
0000
0000
,
0230
0000
0000
0000
,
0320
0000
0000
0000
,
0230
0000
0000
0000
,
0320
0000
0000
0000
,
0030
0000
0000
0000
,
2000
0000
0000
0002
,
0000
0000
3003
0000
,
0001
0001
0001
0001
,
0100
0100
0100
0100
,
1000
1000
1000
1000
,
0100
0100
0100
0100
,
0001
0001
0001
0001
,
0010
0010
0010
0010
,
1000
1000
1000
1000
,
0010
0010
0001
0100
,
1000
1000
1000
0010
,
0001
0001
0001
0010
,
1000
1000
1000
0100
,
0001
0001
0001
0100
,
1001
1000
1000
1000
,
1001
0001
0001
0001
,
0100
0100
0100
0100
,
1001
0000
0010
0100
,
0020
0000
1030
0001
,
2000
0000
3001
1000
,
0001
0010
0100
1000
,
0100
1000
0100
1000
,
0020
0000
0031
1000
,
0002
0000
1003
0001
,
1000
0100
0010
0001
,
0010
0001
0010
0001
,
0002
0000
0013
0100
,
2000
0000
3100
0010
,
0010
0001
0100
2002
,
0000
3003
0010
1000
,
0002
0000
0013
0100
,
2000
0000
3100
0010
,
0001
0000
0000
1001
0000
0000
0110
0000
,
0000
0000
0110
1001
,
0000
0010
0010
0010
,
0001
1000
0001
1000
,
0000
0100
0100
0100
,
1000
0001
1000
0001
,
0000
0100
0100
0100
,
1000
0010
0001
0100
,
2002
0000
3003
0000
,
0010
0100
1000
0000
,
1001
1001
1001
0000
,
1000
0010
0001
0000
,
1001
1001
1001
0000
,
0001
0100
1000
0000
,
1001
1001
1001
0000
,
0001
0010
0100
1000
,
2002
0000
0000
0000
,
3003
0000
0010
0010
,
0020
0000
0000
0030
,
0200
0000
0000
0300
,
0002
0000
0000
0003
,
2000
0000
0000
3000
,
0020
0000
0000
0030
,
0200
0000
0000
0300
,
1000
0000
0000
0010
0000
0000
0002
0000
,
0000
0003
1000
0100
,
0020
0000
0130
0001
,
2000
0000
3001
0100
,
2000
0000
3100
0100
,
0020
0000
0031
0001
,
0200
0000
0302
0000
,
2003
0000
3010
0010
,
0200
0000
0000
0320
0000
0000
0230
0000
,
0000
0000
0301
1000
,
2002
0000
0000
0000
,
0000
0000
3003
0000
,
0020
0100
0130
0000
,
2000
0100
3100
0000
,
0020
1000
1030
0000
,
0002
0010
0013
0000
,
0200
0001
0301
0000
,
2000
0001
3001
0000
;
