#TITLE:Beautiful Day;
#SUBTITLE:;
#ARTIST:ND Lee;
#TITLETRANSLIT:;
#SUBTITLETRANSLIT:;
#ARTISTTRANSLIT:;
#GENRE:;
#CREDIT:;
#BANNER:Beautiful Day.png;
#BACKGROUND:Beautiful Day-bg.png;
#LYRICSPATH:;
#CDTITLE:;
#MUSIC:Beautiful Day.ogg;
#OFFSET:-0.120000;
#SAMPLESTART:26.866989;
#SAMPLELENGTH:20.240963;
#SELECTABLE:YES;
#DISPLAYBPM:83.000000;
#BPMS:0.000000=83.000000
;
#STOPS:
;
#BGCHANGES:0.000=Beautiful Day.avi=1.000=0=0=1=====,
99999=-nosongbg-=1.000=0=0=0 // don't automatically add -songbackground-
;
#KEYSOUNDS:;
#ATTACKS:;

//---------------dance-single - ----------------
#NOTES:
     dance-single:
     :
     Hard:
     9:
     0.287539,0.366170,0.123863,0.340623,0.058061,260.000000,244.000000,16.000000,44.000000,0.000000,0.000000,0.287539,0.366170,0.123863,0.340623,0.058061,260.000000,244.000000,16.000000,44.000000,0.000000,0.000000:
// measure 0
0000
0000
0000
0000
,  // measure 1
0000
0000
0000
0000
,  // measure 2
0000
0000
0000
0000
,  // measure 3
0000
0000
0100
0001
0100
0001
1000
0010
,  // measure 4
1000
0010
0100
0010
0001
0010
1000
0100
,  // measure 5
0010
0001
0002
0100
0000
1003
0020
0100
,  // measure 6
0032
0000
1000
0003
0020
0000
0100
0000
0000
0000
1030
0000
0002
0000
0100
0000
,  // measure 7
0000
1003
0100
0010
0100
0010
0100
0001
,  // measure 8
0100
0001
1000
0010
0200
0000
0020
0000
,  // measure 9
0000
0330
2000
3010
0002
0103
0020
1030
,  // measure 10
0200
0000
0000
0301
0000
0000
1000
0000
0100
0000
0000
0010
0000
0000
0100
0000
0000
0002
0000
0000
0000
0003
0000
0000
,  // measure 11
0000
0000
1000
0010
0002
1003
0200
0310
,  // measure 12
0002
1003
0020
0100
0000
0130
1000
0001
,  // measure 13
0000
0001
1000
0010
0002
0103
0020
1030
,  // measure 14
0200
0000
0000
0301
0000
0000
1000
0000
0100
0000
0000
0010
0000
0000
0100
0000
0000
0002
0000
0000
0000
0003
0000
0000
,  // measure 15
0000
0000
1000
0001
0010
0100
0002
0000
,  // measure 16
0000
0003
1000
0010
0000
0100
1001
0000
,  // measure 17
0000
0000
0010
0000
0101
0000
0000
1010
0000
0000
0000
0000
0101
0000
0000
1010
,  // measure 18
0000
0000
0100
0000
0000
0000
1000
0001
,  // measure 19
0010
0100
0001
0000
0010
0100
0010
0000
,  // measure 20
0000
1000
0010
0000
0000
0000
0001
0001
,  // measure 21
0100
0000
0010
1000
0000
0010
0100
0000
0000
0000
0000
0000
1000
0000
0000
0100
0000
0000
0001
0000
0000
0100
0000
0000
,  // measure 22
0000
0000
0002
0100
0000
1003
0020
0130
,  // measure 23
0002
1003
0020
0100
0000
1030
0002
0100
,  // measure 24
0003
1000
0100
0010
0100
0010
0100
0001
,  // measure 25
0100
0001
1000
0010
0200
0000
0002
0000
,  // measure 26
0000
0000
0303
0000
2000
0000
0000
0000
0002
0000
0003
0000
0020
0000
0000
0030
,  // measure 27
0200
0000
0000
0300
0000
0000
3001
0000
0000
0010
0000
0100
0000
0000
1000
0000
0000
0000
0200
0000
0000
0000
0000
0000
,  // measure 28
0300
0000
1000
0001
0010
0001
0100
0001
,  // measure 29
1000
0100
0010
0010
0001
0001
1000
0100
,  // measure 30
0001
0010
1000
0010
0002
0003
0020
0030
,  // measure 31
0200
0300
1000
0010
0100
0010
2000
0000
,  // measure 32
3001
0000
0000
1000
0100
0010
0002
0000
,  // measure 33
0103
0000
0000
0000
0000
0000
0010
0000
0100
0020
0000
0000
0000
0000
0000
0030
0000
0000
1001
0000
0000
0000
0000
0000
,  // measure 34
0000
0000
0110
0001
0010
0001
1100
0001
,  // measure 35
0100
0001
1010
0001
0010
0001
0110
1000
,  // measure 36
0010
1000
0110
0001
0010
0001
1100
0010
,  // measure 37
0100
0010
1001
0010
0001
0010
1100
0001
,  // measure 38
0100
0001
0020
0100
0000
0130
0000
0001
,  // measure 39
0010
1000
0001
0010
0000
0010
0000
0001
,  // measure 40
0010
0100
1000
0010
0000
0110
0001
1000
,  // measure 41
0000
1000
0001
0010
0100
1000
0020
0030
,  // measure 42
0200
0300
2002
0000
0000
0000
0000
0000
,  // measure 43
3003
0000
0000
0000
;

//---------------dance-single - ----------------
#NOTES:
     dance-single:
     :
     Medium:
     7:
     0.180265,0.216373,0.061931,0.379330,0.000000,163.000000,155.000000,8.000000,49.000000,0.000000,0.000000,0.180265,0.216373,0.061931,0.379330,0.000000,163.000000,155.000000,8.000000,49.000000,0.000000,0.000000:
// measure 0
0000
0000
0000
0000
,  // measure 1
0000
0000
0000
0000
,  // measure 2
0000
0000
0000
0000
,  // measure 3
0000
0000
0000
0100
0000
0100
0000
0010
,  // measure 4
0000
0010
0000
1000
0000
1000
0000
0001
,  // measure 5
0000
0001
2000
0000
3000
0000
0200
0000
,  // measure 6
0300
0002
0003
0020
,  // measure 7
0030
0000
0000
0100
0000
0100
0000
0010
,  // measure 8
0000
0010
0100
0000
0020
0000
0200
0000
,  // measure 9
0330
2000
3000
0020
,  // measure 10
0030
1000
0100
0002
,  // measure 11
0003
0010
0002
0203
,  // measure 12
0302
0023
1030
0100
,  // measure 13
0010
1001
0002
0023
,  // measure 14
0230
1300
0010
0002
,  // measure 15
0003
0000
0000
0010
0100
1000
0002
0000
,  // measure 16
0003
0000
0000
0100
0000
0010
1001
0000
,  // measure 17
0000
0001
0010
0100
,  // measure 18
1000
0000
0000
0000
0000
0100
0000
0010
,  // measure 19
0000
0100
0000
0001
0000
0010
0000
0100
,  // measure 20
0000
0010
1000
0001
0000
0001
1000
0100
,  // measure 21
0000
0100
1000
0000
0001
0100
0001
0001
,  // measure 22
0000
0002
0003
0200
,  // measure 23
0300
2000
3000
0020
,  // measure 24
0030
0000
0000
0001
1000
0001
0000
1000
,  // measure 25
0001
1000
0000
0010
0100
0010
0200
0000
,  // measure 26
0301
0000
2200
0000
3300
0000
0001
0010
,  // measure 27
0100
1000
0002
0000
0003
0000
1000
0100
,  // measure 28
0010
0001
2000
0000
3020
0000
0230
0000
,  // measure 29
0302
0000
0203
0000
1000
0000
0301
0010
,  // measure 30
0100
1000
0002
0003
2000
3000
0020
0000
,  // measure 31
0130
0000
2000
3000
0002
0003
0020
0000
,  // measure 32
0130
0000
1100
0000
0001
1000
0100
0000
,  // measure 33
0001
0020
0130
1001
,  // measure 34
0000
0000
0000
0001
1000
0001
0000
0001
,  // measure 35
1000
0001
1000
0000
0110
0000
0000
1000
,  // measure 36
0001
1000
0001
0000
0100
0000
0010
0000
,  // measure 37
1000
0200
0001
1300
,  // measure 38
0010
0000
0202
0000
0000
0000
0303
0010
,  // measure 39
1000
0100
0002
0003
2000
3000
0000
0010
,  // measure 40
0100
1000
0002
0003
2000
3000
0020
0000
,  // measure 41
0030
0000
0002
0000
0003
0000
0000
1000
,  // measure 42
0100
0010
2002
0000
0000
0000
0000
0000
,  // measure 43
3003
0000
0000
0000
;

//---------------dance-double - ----------------
#NOTES:
     dance-double:
     :
     Medium:
     7:
     0.171418,0.199729,0.038707,0.301916,0.000000,155.000000,150.000000,5.000000,39.000000,0.000000,0.000000,0.171418,0.199729,0.038707,0.301916,0.000000,155.000000,150.000000,5.000000,39.000000,0.000000,0.000000:
00000000
00000000
00000000
00000000
,
00000000
00000000
00000000
00000000
,
00000000
00000000
00000000
00000000
,
00000000
00000000
00000000
01000000
00000000
01000000
00000000
00100000
,
00000000
00100000
00000000
00001000
00000000
00001000
00000000
00000100
,
00000000
00000100
00002000
00000000
00003000
00000000
00000020
00000000
,
00000030
00000002
00000003
00000200
,
00000300
00000000
00000000
00010000
00000000
00010000
00000000
10000000
,
00000000
10000000
01000000
00000000
00002000
00000000
00020000
00000000
,
00033000
00002000
00003000
00000200
,
00000300
00000010
00000100
00002000
,
00003000
00100000
00020000
02030000
,
03020000
00230000
10300000
01000000
,
00100000
00010000
00001000
00000200
,
00000320
00000031
00000010
00000200
,
00000300
00000000
00000000
00000100
00001000
00010000
00200000
00000000
,
00300000
00000000
00000000
01000000
00000000
00100000
10010000
00000000
,
00000000
00010000
00100000
01000000
,
10000000
00000000
00000000
00000000
00000000
01000000
00000000
00100000
,
00000000
00010000
00000000
00001000
00000000
00000100
00000000
00000010
,
00000000
00000100
00000000
00001000
00000000
00010000
00100000
01000000
,
00000000
00100000
00010000
00000000
00001000
00010000
00001000
00001000
,
00000000
00020000
00030000
00002000
,
00003000
00000200
00000300
00000002
,
00000003
00000000
00000000
00000010
00001000
00000010
00000000
00000100
,
00010000
00000100
00000000
00000000
00020000
00000000
02000000
00000000
,
03030000
00000000
02200000
00000000
03300000
00000000
00010000
00100000
,
01000000
10000000
00020000
00000000
00030000
00000000
00100000
00000000
,
00001000
00020000
00032000
00003200
,
00000320
00000000
00000032
00000000
00000000
00000000
00001003
00000100
,
00010000
00000000
00020000
00030000
20000000
30000000
00200000
00000000
,
01300000
00000000
20000000
30000000
00020000
00030000
00200000
00000000
,
01300000
11000000
00010000
00010000
,
00001000
00000100
00000010
00001001
,
00000000
00000000
00000000
00000001
00000000
00000100
00000000
00000010
,
00000010
00000010
00000000
00001000
00000000
00000100
00000000
00010000
,
00010000
00010000
00000000
00001000
00000000
01000000
00000000
00100000
,
00100000
00100000
00000000
10000000
00000000
01000000
00000000
00100000
,
00100000
00100000
00000000
00001000
00000000
00010000
00000000
00000100
,
00000100
00000100
00000000
00000010
00000000
00000001
00000000
00000100
,
00000100
00000100
00000000
00000010
00000000
00001000
00000000
00010000
,
00010000
00010000
00000000
00100000
00000000
00001000
00000000
00000010
,
00000100
00022000
00000000
00000000
,
00033000
00000000
00000000
00000000
;

//---------------dance-double - ----------------
#NOTES:
     dance-double:
     :
     Hard:
     9:
     0.277586,0.299594,0.092897,0.294175,0.050319,251.000000,239.000000,12.000000,38.000000,0.000000,0.000000,0.277586,0.299594,0.092897,0.294175,0.050319,251.000000,239.000000,12.000000,38.000000,0.000000,0.000000:
00000000
00000000
00000000
00000000
,
00000000
00000000
00000000
00000000
,
00000000
00000000
00000000
00000000
,
00000000
00000000
01000000
00010000
01000000
00010000
00001000
00000010
,
00000100
00000010
00000100
00000010
00000001
00000010
00001000
00010000
,
00100000
00010000
00020000
01000000
00000000
10030000
00200000
01000000
,
00320000
00000000
10000000
00030000
00200000
00000000
01000000
00000000
00000000
00000000
00301000
00000000
00020000
00000000
00000100
00000000
,
00000000
00031000
00000100
00000010
00000100
00000010
00000100
00000001
,
00000100
00000001
00001000
00000010
00000200
00000000
00002000
00000000
,
00003300
00000000
00010000
00100000
01000000
10000000
00100000
10000000
,
01000000
00000000
00000000
00010000
00000000
00000000
10000000
00000000
01000000
00000000
00000000
00100000
00000000
00000000
01000000
00000000
00000000
00020000
00000000
00000000
00000000
00030000
00000000
00000000
,
00000000
00000000
00001000
00000010
00000002
00001003
00000200
00000310
,
00000002
00001003
00000020
00000100
00000000
00000130
00001000
00010000
,
00000000
00010000
10000000
00100000
00020000
01030000
00200000
00301000
,
00020000
00000000
00000000
00030100
00000000
00000000
00001000
00000000
00000100
00000000
00000000
00000010
00000000
00000000
00000100
00000000
00000000
00000002
00000000
00000000
00000000
00000003
00000000
00000000
,
00000000
00000000
00001000
00000001
00000010
00000100
00000002
00000000
,
00000000
00000003
00000100
00010000
00001000
01000000
00010000
00000000
,
00000000
00000000
00100000
00000000
01010000
00000000
00000000
10100000
00000000
00000000
00000000
00000000
00110000
00000000
00000000
00011000
,
00000000
00000000
00000100
00000001
00000000
00000001
00000100
00001000
,
00000000
00001000
00010000
00100000
00000000
00100000
10000000
01000000
,
00100000
00010000
00001000
00000100
00000000
00000100
00000001
00000000
,
00000010
00000100
00001000
00000000
00010000
01000000
10000000
20000000
,
00000000
30000000
00020000
10000000
00000000
10030000
01000000
00100000
,
00010000
00001000
00000200
00000010
00000000
00000310
00000001
00000010
,
00000100
00001000
00010000
00001000
00100000
00000000
00100000
00010000
,
01000000
00000000
10000000
00100000
02000000
00000000
00020000
00000000
,
00000000
00000000
03030000
00000000
20000000
00000000
00000000
00000000
00020000
00000000
00030000
00000000
00200000
00000000
00000000
00300000
,
02000000
00000000
00000000
03000000
00000000
00000000
30010000
00000000
00000000
00100000
00000000
01000000
00000000
00000000
10000000
00000000
00000000
00000000
02000000
00000000
00000000
00000000
00000000
00000000
,
03000000
00000000
10000000
00010000
00100000
00010000
01000000
00010000
,
10000000
01000000
00100000
00100000
00010000
00010000
00001000
00000100
,
00000010
00000010
00000100
00000010
00000002
00000003
00000020
00000030
,
00000200
00000300
00001000
00000010
00000100
00000010
00002000
00000000
,
00003001
00000000
00000000
00000100
00001000
00010000
00200000
00000000
,
01300000
00000000
00000000
00000000
00000000
00000000
00100000
00000000
01000000
00200000
00000000
00000000
00000000
00000000
00000000
00300000
00000000
00000000
10010000
00000000
00000000
00000000
00000000
00000000
,
00000000
00000000
01100000
00010000
00000000
00010000
00001100
00000001
,
00000000
00000001
00001010
00000001
00000000
00000001
00000110
00001000
,
00000000
00010000
01100000
10000000
00000000
00010000
11000000
00100000
,
00000000
00100000
00010000
00001000
00000000
00000100
00000010
00000001
,
00000100
00001000
00020000
01000000
00000000
01030000
00000000
00010000
,
00100000
10000000
00010000
00100000
00000000
00100000
00000000
00010000
,
00000100
00000010
00001000
00100000
00000000
01000000
00010000
00001000
,
00000000
00000100
00000010
00000001
00000100
00001000
00020000
00030000
,
00002000
00003000
00022000
00000000
00000000
00000000
00000000
00000000
,
00033000
00000000
00000000
00000000
;

//---------------dance-single - ----------------
#NOTES:
     dance-single:
     :
     Beginner:
     1:
     0.075203,0.114476,0.007741,0.092897,0.000000,68.000000,67.000000,1.000000,12.000000,0.000000,0.000000,0.075203,0.114476,0.007741,0.092897,0.000000,68.000000,67.000000,1.000000,12.000000,0.000000,0.000000:
// measure 0
0000
0000
0000
0000
,  // measure 1
0000
0000
0000
0000
,  // measure 2
0000
0000
0000
0000
,  // measure 3
0000
0000
0000
0000
,  // measure 4
0000
0000
0000
0000
,  // measure 5
0000
0010
0000
0010
,  // measure 6
0000
0100
0000
0100
,  // measure 7
0000
0001
0000
0001
,  // measure 8
0000
1000
0000
1000
,  // measure 9
0000
0020
0000
0030
,  // measure 10
0000
0200
0000
0300
,  // measure 11
0000
0002
0000
0003
,  // measure 12
0000
2000
0000
3000
,  // measure 13
0000
0010
0000
0010
,  // measure 14
0000
0100
0000
0100
,  // measure 15
0000
0001
0000
0001
,  // measure 16
0000
1000
0000
1000
,  // measure 17
0000
0100
0000
0100
,  // measure 18
0000
0010
0000
0000
,  // measure 19
0000
0001
0000
0000
,  // measure 20
0000
0100
0000
0000
,  // measure 21
0000
1000
0000
0000
,  // measure 22
0000
0002
0000
0003
,  // measure 23
0000
2000
0000
3000
,  // measure 24
0000
0010
0010
0010
,  // measure 25
0000
0100
0100
0100
,  // measure 26
0000
0002
0003
0001
,  // measure 27
0000
2000
3000
1000
,  // measure 28
0000
0002
0003
0001
,  // measure 29
0000
2000
3000
1000
,  // measure 30
0000
0020
0030
0010
,  // measure 31
0000
0200
0300
0100
,  // measure 32
0000
0010
0000
0010
,  // measure 33
0000
0010
0000
0010
,  // measure 34
0000
0000
1000
0000
,  // measure 35
1000
0000
0001
0000
,  // measure 36
0001
0000
1000
0000
,  // measure 37
1000
0000
0001
0000
,  // measure 38
0001
0000
0100
0000
,  // measure 39
0100
0000
0010
0000
,  // measure 40
0010
0000
0100
0000
,  // measure 41
0100
0000
0100
0100
,  // measure 42
0000
1001
0000
0000
;

//---------------dance-double - ----------------
#NOTES:
     dance-double:
     :
     Easy:
     3:
     0.123863,0.149797,0.007741,0.201277,0.000000,112.000000,111.000000,1.000000,26.000000,0.000000,0.000000,0.123863,0.149797,0.007741,0.201277,0.000000,112.000000,111.000000,1.000000,26.000000,0.000000,0.000000:
00000000
00000000
00000000
00000000
,
00000000
00000000
00000000
00000000
,
00000000
00000000
00000000
00000000
,
00000000
00100000
00010000
00100000
,
00010000
00001000
00000100
00001000
,
00000100
00000020
00000030
00000200
,
00000300
00000020
00000030
00000200
,
00000300
00001000
00001000
00010000
,
00010000
00100000
00100000
02000000
,
03000000
20000000
30000000
00020000
,
00030000
00200000
00300000
02000000
,
03000000
00000000
00001000
00000100
,
00001000
00000100
00000000
00000000
,
00000000
00000001
00001000
00000001
,
00001000
00000100
00001000
00000100
,
00001000
00000100
00010000
00001000
,
00000000
00010000
00100000
01000000
,
00000000
10000000
00000000
00010000
,
00000000
10000000
01000000
00000000
,
01000000
00010000
01000000
00000000
,
01000000
00001000
00000000
00010000
,
00000000
00000010
00000100
00002000
,
00003000
00000002
00000003
00002000
,
00003000
00000020
00000030
00000200
,
00000300
00010000
10000000
00010000
,
10000000
00010000
00001000
00000001
,
00000010
00000200
00000300
00010000
,
01000000
00020000
00030000
10000000
,
01000000
20000000
30000000
00020000
,
00030000
00002000
00003000
00000002
,
00000003
00000020
00000030
00001000
,
00000100
00020000
00030000
01000000
,
10000000
02000000
03000000
00020000
,
00030000
00001000
00000100
00000010
,
00000000
00000000
00000001
00001000
,
00000001
00001000
00000100
00000000
,
00001000
00000100
00010000
00000000
,
00001000
00000000
00100000
00000000
,
01000000
00000000
10000000
00010000
,
10000000
00010000
01000000
01000000
,
00100000
00100000
00010000
00000000
,
00001000
00000000
00010000
00001000
,
00000000
00022000
00000000
00000000
,
00033000
00000000
00000000
00000000
;

//---------------dance-single - ----------------
#NOTES:
     dance-single:
     :
     Easy:
     2:
     0.120545,0.149797,0.015483,0.077414,0.000000,109.000000,107.000000,2.000000,10.000000,0.000000,0.000000,0.120545,0.149797,0.015483,0.077414,0.000000,109.000000,107.000000,2.000000,10.000000,0.000000,0.000000:
// measure 0
0000
0000
0000
0000
,  // measure 1
0000
0000
0000
0000
,  // measure 2
0000
0000
0000
0000
,  // measure 3
0000
0010
0000
0010
,  // measure 4
0000
0100
0000
0100
,  // measure 5
0000
0001
0000
0001
,  // measure 6
0000
1000
0000
1000
,  // measure 7
0000
0010
0010
0100
,  // measure 8
0100
0001
1000
0001
,  // measure 9
0000
1000
0000
0001
,  // measure 10
0001
0001
0000
1000
,  // measure 11
1000
1000
0000
0010
,  // measure 12
0000
0100
0000
0010
,  // measure 13
0000
1000
0000
0001
,  // measure 14
0001
0001
0000
1000
,  // measure 15
1000
1000
0000
0010
,  // measure 16
0000
0100
0010
0001
,  // measure 17
0000
1000
0000
0001
,  // measure 18
0000
1000
0100
0000
,  // measure 19
0100
0001
0100
0000
,  // measure 20
0100
0010
0000
1000
,  // measure 21
0000
0100
0100
0100
,  // measure 22
0000
0010
0000
1000
,  // measure 23
0000
0100
0000
0001
,  // measure 24
0000
1000
0001
1000
,  // measure 25
0001
0100
0010
0220
,  // measure 26
0330
2000
3000
0001
,  // measure 27
0010
0200
0300
1000
,  // measure 28
0100
0020
0030
0001
,  // measure 29
0000
1000
0000
0001
,  // measure 30
0000
0100
0010
2000
,  // measure 31
3000
0010
0100
0002
,  // measure 32
0003
1000
0000
0002
,  // measure 33
0003
1000
0100
0001
,  // measure 34
0000
0010
0000
0010
,  // measure 35
1000
0100
0000
0100
,  // measure 36
0001
0010
0000
0010
,  // measure 37
0001
0100
0000
0100
,  // measure 38
1000
0010
0000
1000
,  // measure 39
0100
1000
0000
0001
,  // measure 40
0100
0001
0000
1000
,  // measure 41
0010
1000
0100
0001
,  // measure 42
0010
2002
0000
0000
,  // measure 43
3003
0000
0000
0000
;
