#TITLE:BREAK OVER;
#SUBTITLE:;
#ARTIST:MASAYOSHI IIMORI;
#TITLETRANSLIT:;
#SUBTITLETRANSLIT:;
#ARTISTTRANSLIT:;
#GENRE:;
#CREDIT:;
#MENUCOLOR:;
#METERTYPE:DDR;
#BANNER:BREAK OVER.png;
#BACKGROUND:BREAK OVER-jacket.png;
#LYRICSPATH:;
#CDTITLE:;
#MUSIC:BREAK OVER.ogg;
#OFFSET:-0.043;
#SAMPLESTART:11.240;
#SAMPLELENGTH:12.430;
#SELECTABLE:YES;
#LISTSORT:;
#DISPLAYBPM:53.000:150.000;
#BPMS:0.000=150.000,96.000=75.000,112.000=150.000,143.000=53.000,156.000=71.740,158.000=70.300,160.000=106.000;
#STOPS:142.750=0.400
;
#BGCHANGES:-0.333=BREAK OVER.avi=1.000=1=1=0,
99999=-nosongbg-=1.000=0=0=0 // don't automatically add -songbackground-
;
#ATTACKS:;

//---------------dance-single - ----------------
#NOTES:
     dance-single:
     :
     Hard:
     14:
     0.698,0.869,0.241,0.551,0.567: // measure 1
0000
0000
0000
0000
,  // measure 2
0000
0000
0000
0000
,  // measure 3
0000
0000
0000
0000
,  // measure 4
0000
0000
0000
0000
,  // measure 5
1001
0010
0001
0010
0001
0010
0001
0010
,  // measure 6
1001
0100
1000
0100
1000
0100
1000
0100
,  // measure 7
1001
0010
0100
0010
1001
0100
0010
0100
,  // measure 8
0001
0000
0100
0000
0010
1000
0010
1000
0020
0000
0000
0000
0230
0000
0000
0000
,  // measure 9
0302
0000
0000
0000
1003
0100
1000
0000
0020
0000
0000
0000
0130
0001
0100
0000
,  // measure 10
0010
0000
1000
0100
1000
0000
0010
0100
0010
0000
0100
0001
0100
0000
0010
0000
,  // measure 11
0100
0010
0100
0010
0100
0000
0000
0000
0002
0000
0000
0000
1003
0000
0010
0100
,  // measure 12
0010
0000
1000
0100
1000
0000
0001
0100
0001
0000
0010
0100
0010
0000
0000
0000
,  // measure 13
1000
0000
0000
0001
1000
0000
0001
0000
1000
0100
1000
0000
0001
0000
0100
0010
,  // measure 14
0100
0000
0000
0001
0100
0000
0001
0000
1000
0100
1000
0000
0100
0000
1000
0010
,  // measure 15
1000
0000
0000
0001
0100
0000
0010
0000
0100
0010
0100
0000
0010
0000
1000
0100
,  // measure 16
2000
3000
0002
0003
2000
3000
0002
0003
,  // measure 17
2002
0000
3003
0000
0100
0000
0010
0000
2000
0000
3000
0000
1001
0000
0010
0100
,  // measure 18
0010
0000
0100
0001
0100
0000
0010
1000
0010
0000
0100
0010
0100
0000
0001
0000
,  // measure 19
0100
0010
0100
0010
0100
0000
0010
0000
1000
0100
1000
0100
1000
0000
0010
0000
,  // measure 20
1000
0100
1000
0000
0010
0000
0100
0001
0100
0000
0010
1000
0010
0000
0100
0000
,  // measure 21
2002
0000
3003
0000
0010
0100
0020
0000
0030
0000
0001
1000
0002
0000
0003
0000
,  // measure 22
2002
0000
3003
0000
0100
0010
0200
0000
0300
0000
1000
0100
2000
0000
3000
0000
,  // measure 23
0110
0000
0110
0000
1000
0001
1000
0000
1001
0000
0010
0100
0010
0000
0110
0000
,  // measure 24
1000
0000
0000
0000
1100
0000
0000
0000
0110
0000
0000
0000
0010
0001
1000
0001
,  // measure 25
2000
0000
0000
0000
3010
0000
0100
0000
0010
0000
1000
0001
1000
0000
0001
0000
0100
0000
0010
0000
0100
0000
0001
0000
0100
0000
1000
0001
1000
0000
0100
0000
,  // measure 26
0010
1000
0010
1000
0010
0000
0100
0000
0001
0000
0001
1000
0001
0000
1000
0000
0001
0000
0100
0000
0010
0000
0010
0000
1000
0000
1000
0000
0100
0000
0000
0000
,  // measure 27
0001
0000
0001
0000
0001
0000
0000
0000
1000
0000
0001
1000
0001
0000
1000
0000
0001
0000
0010
0000
0100
0000
1000
0001
1000
0000
0100
0000
0010
0000
0001
0000
,  // measure 28
1000
0000
0000
0000
0100
0000
0010
0000
0100
0000
0001
1000
0001
0000
0100
0000
0010
0000
1000
0100
1000
0000
0010
0000
0100
0000
0001
0000
0020
0000
0000
0000
,  // measure 29
0130
0000
0000
0000
2002
0000
0000
0000
3003
0000
0100
0000
0010
0000
1000
0010
,  // measure 30
1000
0000
0010
0000
0100
0000
0001
0000
0100
0000
0001
0100
0001
0000
0100
0000
,  // measure 31
0001
0000
2000
0000
3010
0100
0010
0100
0010
0000
1000
0000
1000
0000
0100
0000
,  // measure 32
0001
0000
1000
0001
1000
0000
0100
0000
0010
0000
0100
0000
0100
0010
0100
0010
,  // measure 33
0200
0000
0000
0000
0320
0000
0000
0000
1030
0000
0001
1000
0001
0000
0010
0000
,  // measure 34
0100
1000
0001
0100
0010
1000
0020
0000
,  // measure 35
0031
0000
0001
0000
1000
0000
1000
0000
0010
0000
0100
0010
0100
0000
0010
0000
,  // measure 36
1000
0000
0100
0000
0010
0000
0001
0000
1000
0001
1000
0001
2000
0000
0000
0000
,  // measure 37
0000
3020
0000
0032
,  // measure 38
0000
0023
0000
2030
,  // measure 39
0000
3200
0000
0302
,  // measure 40
0000
0000
0000
0000
,  // measure 41
1003
0000
0001
1000
0001
0000
1000
0000
0001
0000
1000
0001
1000
0000
0001
0010
,  // measure 42
0001
0000
1000
0100
1000
0000
0100
0000
0010
0000
0001
0010
0001
0000
0010
0100
,  // measure 43
0010
0110
1000
1001
0100
0110
0001
1001
,  // measure 44
1000
0000
1000
0000
1000
0000
1000
0000
1000
0000
0010
0000
0100
0010
0100
0010
,  // measure 45
0100
0000
0000
0000
0002
0000
2003
0000
3010
0100
2000
0000
3001
0010
0200
0000
,  // measure 46
1300
0010
0200
0000
0301
0010
0200
0000
0301
1000
0020
0000
0230
0000
0320
0000
,  // measure 47
1030
0000
0000
0000
0002
0000
2003
0000
3010
0001
0200
0000
0310
1000
0200
0000
,  // measure 48
0310
1000
0020
0000
0130
0001
0200
0000
0320
0000
0230
0000
0320
0000
0230
0000
,  // measure 49
0301
0000
1000
0001
1000
0000
0010
0000
0100
0010
0100
0000
0010
0100
0010
0000
,  // measure 50
1000
0000
0001
1000
0001
0000
0100
0000
0010
1000
0010
0000
0100
0000
1001
0000
,  // measure 51
1000
0000
0001
0010
0001
0000
0100
0000
0010
1000
0010
0000
0100
0010
0100
0000
,  // measure 52
1000
0001
1000
0010
1000
0010
1000
0010
1000
0100
0010
0000
1001
0000
0110
0000
,  // measure 53
1001
0000
0000
0000
0020
0000
2030
0000
3010
0100
0020
0000
0130
1000
0200
0000
,  // measure 54
0310
0001
0020
0000
0130
1000
0200
0000
0310
0001
0020
0000
1030
0000
1001
0000
,  // measure 55
0200
0000
0000
0000
0320
0000
2030
0000
3001
0100
0002
0000
0103
0010
0200
0000
,  // measure 56
0310
1000
0020
0000
0130
0001
0200
0000
0301
0000
1000
0002
0000
0000
1003
0000
,  // measure 57
0110
0000
1000
0100
0000
0010
0100
0000
0001
0010
0000
1000
0100
0000
0101
0000
,  // measure 58
1010
0000
0100
0010
0000
1000
0100
0000
0001
0010
0000
1000
0100
0000
0101
0000
,  // measure 59
1000
0000
1000
0010
0000
0001
0100
0000
0010
0100
0000
0100
0010
0000
1001
0000
,  // measure 60
1100
0000
0001
0010
0000
1000
0100
0000
0001
0010
0100
1000
0010
0100
0010
0000
,  // measure 61
1000
0001
0100
0000
2002
0000
0000
0000
3003
0000
0000
0000
0000
0000
0000
0000
;

//---------------dance-double - Copied from----------------
#NOTES:
     dance-double:
     Copied from:
     Hard:
     14:
     0.670,0.891,0.124,0.536,0.559:
00000000
00000000
00000000
00000000
,
00000000
00000000
00000000
00000000
,
00000000
00000000
00000000
00000000
,
00000000
00000000
00000000
00000000
,
00011000
00001000
00010000
00001000
00010000
00100000
01000000
10000000
,
10010000
01000000
10000000
01000000
10000000
01000000
00100000
00010000
,
00110000
00100000
00001000
00100000
00001000
00010000
00000100
00010000
,
00000100
00000000
00010000
00000000
00001000
00010000
00001000
00010000
00002000
00000000
00000000
00000000
00023000
00000000
00000000
00000000
,
00030020
00000000
00000000
00000000
00001030
00000100
00001000
00000000
00000020
00000000
00000000
00000000
00000130
00000001
00000100
00000000
,
00000010
00000000
00001000
00000100
00001000
00000000
00000010
00000100
00000010
00000000
00000100
00000001
00000100
00000000
00000010
00000000
,
00000100
00000010
00000100
00000010
00000100
00000000
00000010
00000000
00020000
00000000
00000000
00000000
00031000
00000000
01000000
00000000
,
00010000
00000000
01000000
00010000
01000000
00000000
00010000
01000000
00010000
00000000
00100000
01000000
00100000
00000000
00000000
00000000
,
10000000
00000000
00000000
00010000
10000000
00000000
00010000
00000000
10000000
01000000
10000000
00000000
00010000
00000000
01000000
00000000
,
00001000
00000000
00000000
00010000
00000100
00000000
00001000
00000000
00000001
00000010
00000001
00000000
00000010
00000000
00000001
00000100
,
00000001
00000000
00000000
00001000
00000010
00000000
00000100
00000000
00000010
00000100
00000010
00000000
00000100
00000000
00010000
00000100
,
00020000
00030000
00002000
00003000
00020000
00030000
00002000
00003000
,
00220000
00000000
00330000
00000000
00100000
00000000
00010000
00000000
20000000
00000000
30000000
00000000
10010000
00000000
00100000
01000000
,
00100000
00000000
01000000
00010000
01000000
00000000
00001000
00100000
00001000
00000000
00010000
00001000
00010000
00000000
00001000
00000000
,
00100000
00001000
00100000
00001000
00100000
00000000
00010000
00000000
00000100
00000000
00001000
00000000
00000010
00000000
00000100
00000000
,
00000001
00000000
00000001
00000000
00000010
00001000
00000010
00000000
00000100
00000000
00001000
00000100
00001000
00000000
00000100
00000000
,
00002200
00000000
00003300
00000000
00001000
00000100
00020000
00000000
00030000
00000000
00010000
00001000
02000000
00000000
03000000
00000000
,
20020000
00000000
30030000
00000000
01000000
00100000
02000000
00000000
03000000
00000000
10000000
01000000
20000000
00000000
30000000
00000000
,
00200000
00000000
00300000
00000000
01000000
00010000
02000000
00000000
03000000
00000000
00001000
00100000
00001000
00000000
00100000
00000000
,
00001000
00000000
00000000
00000000
00010000
00000000
00000000
00000000
00100000
00000000
00000000
00000000
01000000
00100000
01000000
00100000
,
02000000
00000000
00000000
00000000
03100000
00000000
01000000
00000000
00100000
00000000
10000000
00010000
10000000
00000000
00010000
00000000
01000000
00000000
00100000
00000000
00001000
00000000
00010000
00000000
00000100
00000000
00001000
00000001
00001000
00000000
00000100
00000000
,
00000010
00001000
00000010
00001000
00000010
00000000
00000100
00000000
00000001
00000000
00000001
00001000
00000001
00000000
00001000
00000000
00000100
00000000
00010000
00000000
00001000
00000000
00100000
00000000
00010000
00000000
10000000
00000000
01000000
00000000
00100000
00000000
,
00010000
00000000
00010000
00000000
00010000
00000000
00000000
00000000
10000000
00000000
00010000
10000000
00010000
00000000
10000000
00000000
00010000
00000000
00100000
00000000
00001000
00000000
00010000
00001000
00010000
00000000
00001000
00000000
00010000
00000000
00000010
00000000
,
00000100
00000000
00000000
00000000
00000100
00000000
00000010
00000000
00000100
00000000
00000001
00001000
00000001
00000000
00000100
00000000
00000010
00000000
00001000
00000100
00001000
00000000
00010000
00000100
00010000
00000000
00001000
00000000
00100000
00000000
00010000
00000000
,
01000000
00000000
00000000
00000000
20020000
00000000
00000000
00000000
30030000
00000000
01000000
00000000
00100000
00000000
10000000
00100000
,
10000000
00000000
00100000
00000000
01000000
00000000
00010000
00000000
01000000
00000000
00010000
01000000
00010000
00000000
00100000
00000000
,
00020000
00000000
00000000
00000000
00230000
00000000
00000000
00000000
00301000
00000000
00010000
00001000
00010000
00000000
00001000
00000000
,
00010000
00000100
00010000
00000000
00000100
00000000
00001000
00000000
00000010
00000000
00000100
00000000
00000100
00000010
00000100
00000010
,
00000200
00000000
00000000
00000000
00000320
00000000
00000000
00000000
00001030
00000000
00000001
00001000
00000001
00000000
00000010
00000000
,
00000100
00001000
00010000
01000000
00100000
10000000
00200000
00000000
,
00310000
00000000
00010000
00000000
10000000
00000000
10000000
00000000
00100000
00000000
01000000
00100000
01000000
00000000
00100000
00000000
,
10000000
00000000
01000000
00000000
00100000
00000000
00001000
00000000
00010000
00001000
00010000
00001000
00020000
00000000
00000000
00000000
,
00000000
00032000
00000000
00023000
,
00000000
00032000
00000000
00023000
,
00000000
00000000
00000000
00000000
,
00000000
00000000
00000000
00000000
,
00031000
00000000
00010000
00001000
00010000
00000000
00000100
00000000
00001000
00000000
00000010
00001000
00000010
00000000
00000100
00000000
,
00010000
00000000
00001000
00010000
00001000
00000000
01000000
00000000
00010000
00000000
01000000
00010000
01000000
00000000
00100000
00000000
,
10000000
01100000
00100000
00110000
00010000
00010100
00000100
00000110
,
00000001
00000000
00000001
00000000
00000001
00000000
00000001
00000000
00000001
00000000
00000100
00000000
00000010
00000100
00000010
00000100
,
00000010
00000000
00000000
00000000
00002000
00000000
00003200
00000000
00001300
00000100
00002000
00000000
00003100
00010000
00002000
00000000
,
00013000
00001000
02000000
00000000
03010000
00100000
00020000
00000000
00130000
10000000
00200000
00000000
02300000
00000000
03200000
00000000
,
10300000
00000000
00000000
00000000
00020000
00000000
20030000
00000000
30100000
00010000
02000000
00000000
03100000
00010000
00200000
00000000
,
00301000
00010000
00002000
00000000
00013000
00000100
00020000
00000000
00030020
00000000
00000230
00000000
00000320
00000000
00000230
00000000
,
00000301
00000000
00000010
00000010
00000100
00000000
00000010
00000000
00001000
00001000
00000100
00000000
00010000
00000000
00001000
00000000
,
01000000
00000000
00010000
10000000
00010000
00000000
01000000
00000000
00100000
10000000
00100000
00000000
01000000
00000000
00010000
00000000
,
00100000
00000000
00001000
00100000
00001000
00000000
00010000
00000000
00000100
00001000
00000100
00000000
00000010
00000100
00000010
00000000
,
00000001
00000010
00000001
00000100
00000010
00001000
00000100
00001000
00000100
00010000
00001000
00000000
00011000
00000000
00020000
00000000
,
00031000
00000000
00000000
00000000
00200000
00000000
20300000
00000000
30100000
01000000
00200000
00000000
01300000
10000000
02000000
00000000
,
03100000
00010000
00200000
00000000
01300000
10000000
02000000
00000000
03100000
00010000
00100000
00001000
00010000
00000000
00011000
00000000
,
00002000
00000000
00000000
00000000
00013000
00000000
00000100
00000000
00001000
00000100
00002000
00000000
00003100
00000010
00000200
00000000
,
00000310
00000001
00000020
00000000
00000130
00001000
00000200
00000000
00001300
00000000
00000001
00002000
00000000
00000000
00003100
00000000
,
00001100
00000000
00000100
00001000
00000000
00001000
00000100
00000000
00000100
00010000
00000000
00010000
00001000
00000000
00001000
01000000
,
00001000
00000000
01000000
00010000
00000000
00010000
00100000
00000000
00100000
10000000
00000000
10000000
00010000
00000000
00100000
00001000
,
00100000
00000000
00010000
00000100
00000000
00001000
00000100
00000000
00000010
00000100
00000000
00000001
00000010
00000000
00000001
00000100
,
00000010
00000000
00001000
00000100
00000000
00010000
00001000
00000000
00100000
00010000
00000000
01000000
00100000
00000000
10000000
00010000
,
00100000
00001000
00010000
00000000
00022000
00000000
00033000
00000000
00000000
00000000
00000000
00000000
00000000
00000000
00000000
00000000
;

//---------------dance-double - ----------------
#NOTES:
     dance-double:
     :
     Medium:
     10:
     0.356,0.422,0.078,0.116,0.105:
00000000
00000000
00000000
00000000
,
00000000
00000000
00000000
00000000
,
00000000
00000000
00000000
00000000
,
00000000
00000000
00000000
00000000
,
00010000
00010000
00010000
00010000
,
00000100
00000100
00000100
00000100
,
00001000
00000010
00001000
00000010
00001000
00000010
00001000
00000000
,
00000100
00010000
00000100
00000000
00020000
00000000
00031000
00000000
,
00100000
00000000
00010000
00000000
01000000
00000000
10000000
01000000
,
00000000
01000000
00000000
01000000
10000000
00000000
00100000
00000000
,
01000000
00000000
00010000
00000000
00100000
00000000
00001000
00010000
,
00000000
00010000
00000000
00010000
00001000
00000000
00010000
00000000
,
00000100
00000000
00001000
00000100
00000000
00000010
00000001
00000000
,
00000010
00000000
00000001
00000010
00000000
00000100
00001000
00000000
,
00000100
00000000
00010000
00001000
00000000
00010000
00001000
00000000
,
00020000
00030000
00002000
00003000
00020000
00030000
00002000
00003000
,
00100000
00000000
00010000
01000000
00010000
00000000
10000000
01000000
,
00000000
00100000
00000000
01000000
00100000
00000000
10000000
00000000
,
00010000
00000000
00100000
00000000
00001000
00010000
00001000
00000000
,
00010000
00000000
00010000
00000100
00000000
00000100
00010000
00000000
,
00101000
00000000
00000000
00110000
00000000
00000000
01010000
00000000
,
01100000
00000000
00000000
10010000
00000000
00000000
01010000
00000000
,
00110000
00000000
00000000
00011000
00000000
00000000
00001100
00000000
,
00000010
00000100
00001000
00001001
,
00000010
00000000
00000100
00000001
00001000
00000010
00010000
00000100
,
00010000
00000000
00100000
00010000
01000000
00100000
10000000
01000000
,
00010000
01000000
00010000
00000000
01000000
00000000
00100000
00000000
10000000
00000000
01000000
00000000
00100000
00000000
00010000
00000000
,
01000000
00000000
00001000
00010000
00001000
00010000
00001000
00000000
,
00000000
00000000
00000000
00000000
00001000
00000000
00010000
00000100
,
00000000
00001000
00000010
00000000
00000100
00000010
00000100
00000000
,
00000020
00000000
00000000
00000000
00001030
00000000
00000100
00010000
,
00000000
00001000
00010000
00000000
00001000
00010000
00001000
00010000
,
00002000
00000000
00023000
00000000
00031000
00000000
00100000
00010000
,
00000000
01000000
00100000
00000000
10000000
01000000
10000000
00000000
,
00100000
00000000
01000000
00010000
01000000
00000000
00100000
00001000
,
00000000
00000000
00010000
00000000
00001000
00000000
00010000
00000000
00002000
00000000
00000000
00003000
00020000
00000000
00000000
00000000
,
00000000
00000000
00000000
00032000
,
00000000
00000000
00000000
00023000
,
00000000
00000000
00000000
00000000
,
00000000
00000000
00000000
00000000
,
00031000
00000000
00000000
00001000
00000000
00000000
00001000
00000000
00010000
00000000
00000000
00010000
00000000
00000000
00010000
00000000
,
00001000
00000000
00000000
00001000
00000000
00000000
00001000
00000000
00010000
00000000
00000000
00010000
00000000
00000000
00010000
00000000
,
00001000
00100000
00010000
01000000
00100000
10000000
01000000
00100000
,
00010000
00000000
00010000
00000000
00010000
00000000
00010000
00000000
00010000
00000000
01000000
00000000
00100000
01000000
00100000
00000000
,
10000000
00000000
00000000
00000000
10000000
00000000
01000000
00000000
00000000
01000000
00100000
00000000
00000000
00100000
00010000
00000000
,
00000000
00100000
00010000
00000000
00000000
00100000
00010000
00000000
00000000
00000000
00100000
00000000
00001000
00000000
00010000
00000000
,
00001000
00000000
00000000
00000000
00010000
00000000
00000100
00000000
00000000
00001000
00000100
00000000
00000000
00001000
00000100
00000000
,
00000000
00000100
00000010
00000000
00000000
00000100
00000010
00000000
00001000
00000000
00000100
00000000
00001000
00000000
00000100
00000000
,
00000000
00001000
00001000
00000000
00000100
00000100
00010000
00010000
,
00000000
00001000
00001000
00000000
00100000
00100000
00010000
00010000
,
00000000
01000000
01000000
00000000
00100000
00100000
10000000
10000000
,
00010000
00010000
00010000
00010000
00100000
00001000
00010000
00000200
,
00001300
00000000
00000000
00000000
00000000
00000000
00000010
00000000
00000000
00000100
00000000
00000000
00000000
00000000
00000000
00000001
00000000
00000000
00001000
00000000
00000001
00000000
00001000
00000000
,
00000000
00000010
00000000
00000100
00000010
00001000
00000100
00010000
,
00001000
00000000
00000000
00000000
00000000
00000000
01000000
00000000
00000000
00100000
00000000
00000000
00000000
00000000
00000000
10000000
00000000
00000000
00010000
00000000
10000000
00000000
00010000
00000000
,
10000000
00000000
00100000
00000000
00000000
00000000
01000000
00000000
00100000
00000000
01000000
00100000
00000000
00000000
00000000
00000000
,
10000000
00000000
00000000
10000000
00000000
00000000
00100000
00000000
00000000
00100000
00000000
00000000
01000000
00000000
00100000
00000000
,
00001000
00000000
00000000
00001000
00000000
00000000
00010000
00000000
00000000
00010000
00000000
00000000
00000100
00000000
00001000
00000000
,
00000010
00000000
00000000
00000010
00000000
00000000
00000100
00000000
00000000
00000100
00000000
00000000
00000001
00000000
00000010
00000000
,
00001000
00000000
00000000
00000010
00000000
00000000
00010000
00000000
00000000
00000100
00000000
00000000
00010000
00000000
00001000
00000000
,
00020000
00000000
00002000
00033000
00000000
00000000
00000000
00000000
;

//---------------dance-single - ----------------
#NOTES:
     dance-single:
     :
     Medium:
     10:
     0.351,0.399,0.078,0.132,0.105:
0000
0000
0000
0000
,
0000
0000
0000
0000
,
0000
0000
0000
0000
,
0000
0000
0000
0000
,
0010
0010
0010
0010
,
0100
0100
0100
0100
,
1000
0001
1000
0001
1000
0001
1000
0000
,
0100
0010
0100
0000
0002
0000
1003
0000
,
0010
0000
0001
0000
0100
0000
1000
0001
,
0000
0001
0000
0001
1000
0000
0010
0000
,
0100
0000
1000
0000
0010
0000
0001
1000
,
0000
1000
0000
1000
0001
0000
0001
0000
,
0100
0000
1000
0100
0000
0010
0001
0000
,
0010
0000
0001
0010
0000
0100
1000
0000
,
0100
0000
0001
1000
0000
0001
1000
0000
,
0020
0030
0200
0300
0020
0030
0200
0300
,
0010
0000
0001
0100
0001
0000
1000
0100
,
0000
0100
0000
0100
0010
0000
1000
0000
,
0010
0000
0001
0100
0002
0000
0203
0000
,
0301
0000
0001
0100
0000
0100
0010
0000
,
1001
0000
0000
0110
0000
0000
1100
0000
,
1100
0000
0000
0110
0000
0000
0011
0000
,
0011
0000
0000
0110
0000
0000
1100
0000
,
1000
0100
0010
0002
,
0003
0000
1000
0001
1000
0100
0010
0001
,
0001
0000
0001
1000
0001
0010
0100
1000
,
1000
0001
1000
0000
0001
0000
0010
0000
0010
0000
0100
0000
0100
0000
1000
0000
,
1000
0000
1000
0001
1000
0001
1000
0000
,
0000
0000
0000
0000
1000
0000
1000
0100
,
0000
0100
0010
0000
0100
0010
0100
0000
,
0020
0000
0000
0000
0031
0000
0001
0100
,
0000
0100
0010
0000
0010
0100
0010
0100
,
0020
0000
2030
0000
3100
0000
0010
0001
,
0000
0100
0010
0000
1000
0100
1000
0000
,
0010
0000
0100
0001
0100
0000
0010
1000
,
0000
0000
0010
0000
1000
0000
0000
0000
0200
0000
0000
0300
0002
0000
0000
0000
,
0000
0000
0000
2003
,
0000
0000
0000
3002
,
0000
0000
0000
0000
,
0000
0000
0000
0000
,
1003
0000
0000
1000
0000
0000
1000
0000
0001
0000
0000
0001
0000
0000
0001
0000
,
1000
0000
0000
1000
0000
0000
1000
0000
0001
0000
0000
0001
0000
0000
0001
0000
,
1000
0100
0010
0001
0001
0010
0100
1000
,
0010
0000
0010
0000
0010
0000
0010
0000
0010
0000
0000
0000
0010
0100
0010
0000
,
1000
0000
0000
0000
1000
0000
0100
0000
0000
0100
0010
0000
0000
0010
0001
0000
,
0000
0010
0001
0000
0000
0010
0001
0000
0000
0000
0010
0000
1000
0000
0001
0000
,
1000
0000
0000
0000
0100
0000
0010
0000
0000
0001
0010
0000
0000
0001
0010
0000
,
0000
0010
0100
0000
0000
0010
0100
0000
1000
0000
0100
0000
1000
0000
0100
0000
,
0000
1000
1000
0000
0100
0100
0001
0001
,
0000
1000
1000
0000
0010
0010
0001
0001
,
0000
0001
0001
0000
0010
0010
1000
1000
,
0001
0001
0001
0001
0010
0100
1000
0000
,
1001
0000
0000
0000
0000
0000
0010
0000
0000
0100
0000
0000
0000
0000
0000
0001
0000
0000
1000
0000
0001
0000
1000
0000
,
0000
0010
0000
0100
0010
1000
0100
0010
,
0001
0000
0000
0000
0000
0000
0100
0000
0000
0010
0000
0000
0000
0000
0000
1000
0000
0000
0001
0000
1000
0000
0001
0000
,
1000
0000
0010
0000
0000
0000
0100
0000
0010
0000
0100
0010
0000
0000
0000
0000
,
1000
0000
0000
1000
0000
0000
0010
0000
0000
0010
0000
0000
0100
0000
0000
0000
,
1000
0000
0000
1000
0000
0000
0001
0000
0000
0001
0000
0000
0100
0000
0000
0000
,
0010
0000
0000
0010
0000
0000
0100
0000
0000
0100
0000
0000
0001
0000
0000
0000
,
0001
0000
0000
0010
0000
0000
0100
0000
0000
1000
0000
0000
0001
0000
1000
0000
,
0002
0000
2000
3003
0000
0000
0000
0000
;

//---------------dance-single - ----------------
#NOTES:
     dance-single:
     :
     Beginner:
     2:
     0.142,0.163,0.000,0.031,0.000:
0000
0000
0000
0000
,
0000
0000
0000
0000
,
0000
0000
0000
0000
,
0000
0000
0000
0000
,
0010
0000
0010
0000
,
0010
0000
0010
0000
,
0010
0010
0010
0010
,
0010
0000
0000
0000
,
0100
0000
0100
0000
,
0100
0100
0100
0000
,
0001
0000
0001
0000
,
0001
0001
0001
0000
,
1000
0000
0000
1000
0000
0000
0000
0000
,
0001
0000
0000
0001
0000
0000
0000
0000
,
1000
0000
0000
1000
0000
0000
0000
0000
,
0010
0010
0010
0000
,
0010
0000
0100
0000
,
0100
0100
0100
0000
,
0001
0000
0001
0000
,
1000
0000
0000
1000
0000
0000
1000
0000
,
1000
0000
0000
1000
0000
0000
0000
0000
,
0001
0000
0000
0001
0000
0000
0000
0000
,
0010
0000
0000
0010
0000
0000
0000
0000
,
0100
0100
0100
0000
,
0000
0010
0000
0010
,
0000
0100
0000
0100
,
0000
0010
0000
0010
,
0000
0100
0000
0100
,
0000
0000
0001
0001
,
0000
0001
0001
0001
,
0000
0000
1000
1000
,
0000
1000
1000
1000
,
0000
0000
0000
0000
0010
0000
0000
0010
,
0000
0010
0010
0010
,
0000
0000
0100
0000
0100
0000
0000
0100
,
0000
0100
0100
0200
,
0000
0000
0000
0000
,
0300
0000
0000
0000
,
0000
0000
0000
0000
,
0000
0000
0000
0000
,
1000
0000
1000
0000
,
0001
0000
0001
0000
,
1000
1000
1000
1000
,
2000
0000
3000
0000
,
0000
0010
0000
0010
,
0000
0100
0000
0100
,
0000
0001
0000
0001
,
0000
1000
2000
3000
,
0000
0001
0001
0001
,
0000
0100
0100
0100
,
0000
0010
0010
0010
,
0020
0000
0030
0000
,
0000
0100
0000
0100
,
0000
0001
0000
0001
,
0000
1000
0000
1000
,
0000
0010
0000
0010
,
0000
0100
0100
0100
,
0000
0010
0010
0010
,
0000
1000
1000
1000
,
0000
0001
0001
0001
,
0001
0000
0000
0000
;

//---------------dance-double - ----------------
#NOTES:
     dance-double:
     :
     Easy:
     5:
     0.219,0.305,0.000,0.078,0.000:
00000000
00000000
00000000
00000000
,
00000000
00000000
00000000
00000000
,
00000000
00000000
00000000
00000000
,
00000000
00000000
00000000
00000000
,
00100000
00100000
00100000
00100000
,
01000000
01000000
01000000
01000000
,
00100000
00100000
01000000
01000000
,
00100000
00100000
00200000
00300000
,
00001000
00001000
00002000
00003000
,
00010000
00010000
00010000
00010000
,
00000100
00000100
00000200
00000300
,
00010000
00001000
00010000
00001000
,
00000100
00000000
00000100
00000100
00000000
00000000
00001000
00000000
,
00000010
00000000
00000010
00000010
00000000
00000000
00000010
00000000
,
00001000
00000000
00000001
00000001
00000000
00000000
00000001
00000000
,
00000020
00000030
00000200
00000300
00000020
00000030
00000200
00000300
,
00000001
00000010
00000100
00001000
,
00000001
00001000
00000001
00000000
,
00000100
00010000
00001000
00100000
,
00010000
00100000
00010000
00000000
,
01000000
00000000
00000000
01000000
00000000
00000000
01000000
00000000
,
00100000
00000000
00000000
00100000
00000000
00000000
00100000
00000000
,
10000000
00000000
00000000
00010000
00000000
00000000
10000000
00000000
,
10000000
01000000
00100000
00010000
,
00000000
00000000
01000000
00000000
00100000
01000000
00100000
00000000
,
00000000
00000000
10000000
00000000
00010000
10000000
00010000
00000000
,
00000000
00000000
00100000
00000000
00010000
00001000
00010000
00000000
,
00000000
00000000
00000100
00000000
00000010
00000100
00000010
00000000
,
00000100
00000000
00001000
00000010
,
00001000
00000010
00001000
00000100
,
00010000
00000000
00001000
00100000
,
00010000
01000000
00010000
01000000
,
00100000
00000000
10000000
01000000
,
10000000
01000000
00100000
00010000
,
00000000
00100000
00001000
00010000
,
00000100
00000100
00000100
00000200
,
00000000
00000000
00000000
00000000
,
00000000
00000000
00000000
00000300
,
00000000
00000000
00000000
00000000
,
00000000
00000000
00000000
00000000
,
00000010
00000010
00000010
00001000
,
00000100
00000100
00000100
00010000
,
00001000
00001000
00100000
00100000
,
00010000
00010000
00010000
00000000
,
00000000
01000000
00100000
01000000
,
00010000
10000000
00010000
10000000
,
00000000
00100000
00001000
00010000
,
00001000
00010000
00000000
00000000
,
00000100
00001000
00000010
00000001
,
00000000
00000100
00010000
00001000
,
00000000
00100000
00010000
01000000
,
10000000
10000000
10000000
00000000
,
00000000
00100000
01000000
00100000
,
10000000
01000000
00100000
00010000
,
00000000
00000100
00001000
00000100
,
00000010
00000001
00000010
00000000
,
00000100
00000100
00000100
00000100
,
00010000
00010000
00010000
00010000
,
00001000
00001000
00001000
00001000
,
00100000
00010000
00000100
00001000
,
00020000
00000000
00002000
00033000
00000000
00000000
00000000
00000000
;

//---------------dance-single - ----------------
#NOTES:
     dance-single:
     :
     Easy:
     5:
     0.223,0.305,0.023,0.085,0.000:
0000
0000
0000
0000
,
0000
0000
0000
0000
,
0000
0000
0000
0000
,
0000
0000
0000
0000
,
0010
0010
0010
0010
,
0100
0100
0100
0100
,
0010
0010
0100
0100
,
0001
0001
2002
3003
,
0010
0010
0020
0030
,
1000
0001
1000
0001
,
0100
0100
0200
0300
,
0001
1000
0001
1000
,
0100
0000
0100
0100
0000
0000
1001
0000
,
0010
0000
0010
0010
0000
0000
1001
0000
,
0100
0000
0100
0100
0000
0000
0100
0000
,
0020
0030
0200
0300
0020
0030
0200
0300
,
0001
0010
0100
1000
,
0001
1000
0001
0000
,
1000
0100
0010
0001
,
0001
1000
0001
0000
,
0100
0000
0000
0100
0000
0000
0100
0000
,
0010
0000
0000
0010
0000
0000
0010
0000
,
1000
0000
0000
0001
0000
0000
1000
0000
,
0001
0010
0100
1000
,
0000
0000
0100
0000
0010
0100
0010
0000
,
0000
0000
1000
0000
0001
1000
0001
0000
,
0000
0000
0010
0000
0001
1000
0001
0000
,
0000
0000
0100
0000
0010
0100
0010
0000
,
0100
0000
1000
0001
,
1000
0001
1000
0100
,
0010
0000
0100
0010
,
0001
0100
0001
0100
,
0010
0000
1000
0100
,
1000
0100
0010
0001
,
0000
0010
1000
0001
,
0100
0100
0100
0200
,
0000
0000
0000
0000
,
0000
0000
0000
0300
,
0000
0000
0000
0000
,
0000
0000
0000
0000
,
0010
0010
0010
0001
,
0100
0100
0100
1000
,
0010
0001
0100
1000
,
0010
0010
0010
0000
,
0000
0100
0100
0100
,
0001
1000
0001
1000
,
0000
0010
0010
0010
,
1000
0001
0000
0000
,
0100
1000
0010
0001
,
0000
0010
0001
0100
,
0000
0010
0001
0100
,
1000
1000
1000
0000
,
0000
0010
0100
0010
,
1000
0100
0010
0001
,
0000
0010
0100
0001
,
0010
0100
1000
0000
,
0100
0100
0100
0100
,
0001
0001
0001
0001
,
1000
1000
1000
1000
,
0010
0001
0100
1000
,
0002
0000
2000
3003
0000
0000
0000
0000
;
