#TITLE:BLACKCAT;
#SUBTITLE:;
#ARTIST:BEXTER ft. JC;
#TITLETRANSLIT:;
#SUBTITLETRANSLIT:;
#ARTISTTRANSLIT:;
#GENRE:;
#CREDIT:;
#BANNER:BLACKCAT.png;
#BACKGROUND:BLACKCAT-bg.png;
#LYRICSPATH:;
#CDTITLE:;
#MUSIC:BLACKCAT.ogg;
#OFFSET:-0.220000;
#SAMPLESTART:26.066153;
#SAMPLELENGTH:14.769232;
#SELECTABLE:YES;
#DISPLAYBPM:130.000000;
#BPMS:0.000000=130.000000
;
#STOPS:
;
#BGCHANGES:0.000=BLACKCAT.avi=1.000=0=0=1=====,
99999=-nosongbg-=1.000=0=0=0 // don't automatically add -songbackground-
;
#KEYSOUNDS:;
#ATTACKS:;

//---------------dance-single - ----------------
#NOTES:
     dance-single:
     :
     Hard:
     12:
     0.395485,0.474547,0.242430,0.117305,0.148586,354.000000,323.000000,31.000000,15.000000,0.000000,0.000000,0.395485,0.474547,0.242430,0.117305,0.148586,354.000000,323.000000,31.000000,15.000000,0.000000,0.000000:
0000
0000
0000
0000
,
0000
0000
0000
0000
,
0000
0000
0000
0000
,
0000
0000
0000
0000
,
0000
0000
0000
0000
,
0000
0000
0000
0000
,
0220
0000
0000
0000
,
0330
0000
0000
0000
0000
0000
0000
0000
0000
0000
0001
1000
0001
0000
0000
0000
,
0220
0000
0000
0000
,
0330
0000
0001
1000
0001
0000
0000
0000
0000
0000
0001
1000
0001
0000
0000
0000
,
0220
0000
0000
0000
0000
0000
0000
0330
,
0010
0100
0010
0100
0000
0000
0000
0000
0000
0000
0001
1000
0001
0000
0000
0000
,
1000
0100
1000
0100
0000
0000
0000
0000
0010
0001
0010
0001
0000
0000
0000
0000
,
1000
0100
1000
0100
0000
0000
0000
0000
0000
0000
0010
0100
0010
0000
0000
0000
,
1000
0001
0000
0010
0000
0100
0010
0100
,
1000
0100
0000
0001
0000
0100
0010
0100
,
1000
0001
0000
0010
0000
0100
0010
0100
,
1000
0010
0000
0001
0000
0100
0010
0100
,
0000
0001
0000
1010
0000
0100
0100
0100
,
0000
1010
0000
0101
0000
0010
0010
0010
,
0000
0101
0000
1010
0000
0100
0100
0100
,
0000
1010
0000
0101
0000
1001
1001
0000
,
0010
0010
0000
0000
1001
0000
0000
0000
,
0100
0000
0000
0100
0000
0000
0100
0000
1001
0000
0000
0000
0000
0000
0000
0000
,
0010
0010
0000
0000
1001
0000
0000
0000
,
0001
0100
0000
0001
0100
0000
0010
1000
0000
0010
1000
0000
0001
0000
0000
0000
,
0100
0100
0000
0000
1001
0000
0000
0000
,
0010
0000
0000
0010
0000
0000
0010
0000
1001
0000
0000
0000
0000
0000
0000
0000
,
0100
0100
0000
0000
1001
0000
0000
0000
,
0001
0100
0000
0001
0100
0000
0010
1000
0000
0010
1000
0000
0001
0000
0000
0000
,
0010
1000
0100
0000
0010
0001
0100
0000
,
0010
1000
0100
1000
0010
0001
0100
0001
,
0010
1000
0010
1000
0001
0100
0001
0100
,
0010
0100
0010
0100
0001
1000
0001
0000
,
0001
0100
0001
0100
0010
1000
0010
1000
,
0100
1000
0100
1000
0001
0010
0100
0000
,
1000
0100
1000
0100
0010
0001
0010
0001
,
1000
0100
0010
0001
0100
0010
0100
0000
,
0001
0000
1001
0000
0000
0000
0100
0010
0200
0000
0000
0000
0301
0000
0000
0000
,
0100
0000
0100
0000
0000
0000
0010
1000
0020
0000
0000
0000
0130
0000
0000
0000
,
0001
0000
0001
0000
0000
0000
1000
0100
2000
0000
0000
0000
3010
0000
0000
0000
,
1000
0000
1000
0000
0000
0000
0001
0100
0002
0000
0000
0000
0103
0000
0000
0000
,
0010
0000
0010
0000
0000
0000
0100
0001
0100
0000
0000
0000
1010
0000
0000
0000
,
0100
0000
0100
0000
0000
0000
1000
0010
1000
0000
0000
0000
0101
0000
0000
0000
,
0001
0000
0001
0000
0000
0000
1000
0100
1000
0000
0000
0000
0010
0000
0000
0000
,
0002
0003
2000
3000
,
0020
0000
0000
0000
,
0030
0000
0000
0000
,
0100
0010
0000
0010
0000
1000
0001
1000
,
0010
0000
0010
0100
0000
0010
1000
0001
,
1000
0010
1000
0010
0001
0010
0001
0010
,
1000
0010
0001
0010
1000
0000
0100
0000
,
0100
1000
0010
0001
0010
1000
0100
0000
,
0001
0010
0100
1000
0200
0000
0300
0000
,
0001
0000
0001
0001
1000
0000
1000
1000
,
0001
0000
0001
0001
0200
0000
0300
0000
,
0010
1000
0000
0101
0000
1000
0100
0010
,
0001
1100
0000
0101
0000
0001
0010
0100
,
1000
0000
0110
0000
0000
0000
1001
0000
0000
0000
0010
0000
0100
0010
0100
0000
,
1000
0000
0101
0000
0000
0000
1010
0000
0000
0000
0010
0000
0100
0010
0100
0000
,
0001
0000
1000
0000
0000
0000
0100
0000
0000
0000
0001
1000
0001
1000
0001
0000
,
1000
0000
0001
0000
0000
0000
0100
0000
0000
0000
0001
1000
0001
1000
0001
0000
,
0010
0000
0100
0000
0000
0000
1000
0000
0000
0000
0001
0010
0001
0010
0001
0000
,
1000
0100
0000
0010
0000
1001
1001
1001
;

//---------------dance-solo - ending----------------
#NOTES:
     dance-solo:
     :
     Challenge:
     32:
     0.000000,0.000000,0.000000,0.000000,0.000000,0.000000,0.000000,0.000000,0.000000,0.000000,0.000000,0.000000,0.000000,0.000000,0.000000,0.000000,0.000000,0.000000,0.000000,0.000000,0.000000,0.000000:
;

//---------------dance-double - ----------------
#NOTES:
     dance-double:
     :
     Hard:
     13:
     0.415594,0.549475,0.203328,0.125125,0.160317,372.000000,346.000000,26.000000,16.000000,0.000000,0.000000,0.415594,0.549475,0.203328,0.125125,0.160317,372.000000,346.000000,26.000000,16.000000,0.000000,0.000000:
00000000
00000000
00000000
00000000
,
00000000
00000000
00000000
00000000
,
00000000
00000000
00000000
00000000
,
00000000
00000000
00000000
00000000
,
00000000
00000000
00000000
00000000
,
00000000
00000000
00000000
00000000
,
00022000
00000000
00000000
00000000
,
00033000
00000000
00000000
00000000
00000000
00000000
00000000
00000000
00000000
00000000
00010000
00001000
00010000
00000000
00000000
00000000
,
00022000
00000000
00000000
00033000
,
00000000
00000000
00001000
00010000
00001000
00000000
00000000
00000000
00000000
00000000
00010000
00001000
00010000
00000000
00000000
00000000
,
00022000
00000000
00000000
00033000
,
00001000
00010000
00001000
00010000
00000000
00000000
00000000
00000000
00000000
00000000
00010000
00001000
00010000
00000000
00000000
00000000
,
00010000
00100000
00010000
00100000
00000000
00000000
00000000
00000000
00001000
00010000
00001000
00010000
00000000
00000000
00000000
00000000
,
00001000
00000100
00001000
00000100
00000000
00000000
00000000
00000000
00010000
00001000
00010000
00001000
00000000
00000000
00000000
00000000
,
00010000
00100000
00000000
10000000
00000000
10000000
01000000
00010000
,
00001000
00000100
00000000
00000001
00000000
00000010
00000100
00001000
,
00010000
00100000
00000000
10000000
00000000
01000000
00100000
00010000
,
00001000
00000100
00000000
00000001
00000000
00000010
00000100
00000000
,
00010000
00000000
00100000
00000000
00000000
00000000
10000000
00000000
00000000
00000000
01000000
00010000
01000000
00000000
00100000
00000000
,
00010000
00000000
00001000
00000000
00000000
00000000
00000100
00000000
00000000
00000000
00000001
00000100
00000001
00000000
00000000
00000000
,
00000010
00000000
00001000
00000000
00000000
00000000
00010000
00000000
00000000
00000000
00100000
10000000
00100000
00000000
01000000
00000000
,
10000000
00000000
00100000
00000000
00000000
00000000
00010000
00000000
00000000
00000000
00001000
00000100
00001000
00000000
00000000
00000000
,
00000001
00000001
00000000
00001000
00000100
00000000
00001000
00000000
,
00010000
00010000
00000000
00100000
10000000
00000000
01010000
00000000
,
00010000
00010000
00000000
00001000
00000100
00000000
00001001
00000000
,
00000001
00000100
00000000
00001000
00001000
00000000
00011000
00000000
,
00110000
00000000
01000000
10000000
00100000
00010000
00010000
00000000
,
00001000
00000100
00001000
00000010
00000001
00000001
00000100
00000000
,
00000010
00001000
00000100
00001000
00001000
00010000
00010000
00000000
,
00100000
10000000
01000000
00010000
00010000
00000000
00001000
00000000
,
00000100
00000001
00000100
00000001
00000100
00001000
00000100
00001000
,
00010000
00100000
00010000
00100000
10000000
00100000
10000000
00100000
,
00010000
00100000
00010000
00000000
00001000
00000100
00001000
00000000
,
00000010
00001000
00000100
00000000
00000010
00000001
00000100
00000000
,
00000100
00001000
00000100
00001000
00000100
00000000
00000000
00000000
00010000
00001000
00010000
00001000
00010000
00000000
00000000
00000000
,
00100000
00010000
00100000
00010000
00100000
00000000
00000000
00000000
10000000
01000000
10000000
01000000
10000000
00000000
00000000
00000000
,
00100000
00010000
00001000
00000100
00000010
00000001
00000010
00000000
,
00000100
00001000
00010000
00100000
01000000
10000000
01000000
00000000
,
10010000
01000000
00000000
00100000
00010000
00000000
00001000
00000100
,
00000010
00000000
00000001
00000000
00000000
00000000
00001000
00000100
00001000
00000000
00000000
00000000
00010000
00000000
00000000
00000000
,
00100000
01000000
00000000
10000000
01000000
00000000
00100000
00010000
,
00001000
00000000
00000100
00000000
00000000
00000000
00000010
00000001
00000010
00000000
00000000
00000000
00001100
00000000
00000000
00000000
,
00010000
00100000
00000000
01000000
01000000
00000000
10010000
00000000
,
00100000
00010000
00000000
00001000
00001000
00000000
00000110
00000000
,
00000001
00000001
00000000
00000100
00000100
00000000
00001001
00000000
,
00002000
00023000
02030000
03200000
,
02300000
00000000
00000000
00000000
,
03000000
00000000
00000000
00000000
,
02100000
00010000
03001000
00011000
,
00001000
00000100
00000010
00000001
00000200
00000000
00000300
00000000
,
00001000
00000100
00001000
00000100
00000001
00000100
00000001
00000100
,
00001000
00000100
00001000
00000100
00002000
00000000
00003000
00000000
,
00010000
00100000
01000000
00000000
10000000
01000000
00100000
00000000
,
00010000
00001000
00000100
00000000
00000010
00000001
00000100
00000000
,
00000010
00000000
00001000
00000100
00010000
00000000
00001000
00100000
,
00010000
00000000
00000000
00000000
01000000
00000000
00100000
00000000
20020000
00000000
00000000
00000000
00000000
30030000
00000000
00000000
,
01000000
00000000
01100000
00000000
00000000
00000000
01100000
00000000
00000000
00000000
10000000
01000000
10000000
01000000
10000000
00000000
,
00100000
00000000
00110000
00000000
00000000
00000000
00110000
00000000
00000000
00000000
00001000
00010000
00001000
00010000
00001000
00000000
,
00001000
00000000
00001100
00000000
00000000
00000000
00001000
00000000
00000000
00000000
00000010
00000100
00000010
00000100
00000010
00000000
,
00000001
00000000
00000101
00000000
00000000
00000000
00000101
00000000
00000000
00000000
00000010
00001000
00000010
00000000
00000000
00000000
,
00000100
00000000
00010000
00000000
00001000
00000000
00100000
00000000
00010000
00000000
01000000
00010000
01000000
00010000
01000000
00000000
,
10000000
00000000
01000000
00000000
00100000
00000000
00010000
00000000
00001000
00000000
00000100
00001000
00000100
00001000
00000100
00000000
,
00001000
00000000
00000010
00000000
00000001
00000000
00000100
00000000
00001000
00000000
00010000
00001000
00010000
00001000
00010000
00000000
,
00100000
00010000
00000000
00011000
00000000
00011000
00011000
00011000
;

//---------------dance-double - ----------------
#NOTES:
     dance-double:
     :
     Medium:
     11:
     0.271477,0.399618,0.140766,0.164227,0.000000,243.000000,225.000000,18.000000,21.000000,0.000000,0.000000,0.271477,0.399618,0.140766,0.164227,0.000000,243.000000,225.000000,18.000000,21.000000,0.000000,0.000000:
00000000
00000000
00000000
00000000
,
00000000
00000000
00000000
00000000
,
00000000
00000000
00000000
00000000
,
00000000
00000000
00000000
00000000
,
00000000
00000000
00000000
00000000
,
00000000
00000000
00000000
00000000
,
00022000
00000000
00000000
00000000
,
00033000
00000000
00000000
00000000
00000000
00010000
00001000
00000000
,
00022000
00000000
00000000
00000000
,
00033000
00000000
00000000
00000000
00000000
00001000
00010000
00000000
,
00022000
00000000
00000000
00000000
,
00033000
00000000
00000000
00000000
00000000
00001000
00010000
00000000
,
00022000
00000000
00000000
00000000
,
00033000
00000000
00000000
00000000
00000000
00010000
00001000
00000000
,
00010000
00100000
00000000
01000000
00000000
00000000
10010000
00000000
,
10000000
01000000
00000000
00100000
00000000
00000000
10010000
00000000
,
00001000
00000100
00000000
00000010
00000000
00000000
00001001
00000000
,
00000001
00000010
00000000
00000100
00000000
00001000
00010000
00000000
,
00010000
00010000
00001000
00001000
00000000
00000000
00110000
00000000
,
01000000
01000000
00100000
00100000
00000000
00000000
01000000
00000000
,
00010000
00010000
00001000
00001000
00000000
00000000
00011000
00000000
,
00000100
00000100
00000010
00000010
00000000
00000000
00000100
00000000
,
00000001
00000100
00001000
00010000
,
00100000
00000000
01000000
00000000
10000000
01000000
00100000
00000000
,
10000000
01000000
00100000
00010000
,
00001000
00000000
00000100
00000000
00000010
00000001
00000100
00000000
,
00000000
00000010
00001000
00000000
00000100
00001000
00000100
00000000
,
00000000
00010000
00001000
00000000
00100000
00010000
00100000
00000000
,
00000000
10000000
01000000
00000000
00100000
00010000
00100000
00000000
,
00001000
00010000
00000200
00000300
,
00010000
00001000
00010000
00001000
00010000
00000000
00001000
00000000
,
00100000
00010000
00100000
00000000
01000000
10000000
01000000
00000000
,
10000000
00100000
10000000
00000000
00010000
01000000
00010000
00000000
,
00010000
00001000
00000100
00000000
00000010
00000000
00001001
00000000
,
00000001
00000100
00000001
00000000
00001000
00000100
00001000
00000000
,
00010000
00001000
00010000
00000000
00100000
00010000
00100000
00000000
,
10000000
01000000
00100000
00000000
00010000
00001000
00000100
00000000
,
00000010
00000001
00000100
00000000
00001000
00010000
00100000
00000000
,
00020000
00000000
00000000
00030000
,
20000000
30000000
00200000
00300000
,
02000000
00000000
00000000
03010000
,
00100000
01000000
10000000
01000000
,
00200000
00000000
00300000
00001000
,
00020000
00030000
00000200
00000300
,
00000020
00000030
00000001
00000100
,
00001000
00000000
00010000
00000000
,
00022000
00000000
00000000
00000000
,
00033000
00000000
00000000
00000000
,
00020000
00000000
00000000
00000000
,
00032000
00000000
00000000
00000000
,
00003010
00000100
00000001
00001000
,
00000010
00000100
00001000
00000000
,
00010000
00100000
01000000
10000000
,
00100000
00010000
01000000
00100000
,
00010000
00000000
00001000
00001000
00001000
00000000
00000100
00000100
,
00000100
00000000
00000010
00000010
00000010
00000000
00000000
00000000
,
00000001
00000100
00000000
00001010
00000000
00000100
00001000
00000000
,
00001000
00010000
00000000
00011000
00000000
00010000
00100000
00000000
,
01000000
10000000
00000000
01010000
00000000
10000000
01000000
00000000
,
00100000
00010000
00000000
00011000
00000000
00010000
00001000
00000000
,
00001000
00000010
00000100
00000010
00001000
00000001
00000001
00000000
,
00001000
00000100
00001000
00000100
00010000
00010000
00001000
00000000
,
00100000
00010000
00100000
00010000
01000000
01000000
00100000
00000000
,
00100000
00001000
00000000
00010000
00000000
00011000
00011000
00011000
;

//---------------dance-single - ----------------
#NOTES:
     dance-single:
     :
     Medium:
     9:
     0.301641,0.374642,0.328453,0.234610,0.000000,270.000000,228.000000,42.000000,30.000000,0.000000,0.000000,0.301641,0.374642,0.328453,0.234610,0.000000,270.000000,228.000000,42.000000,30.000000,0.000000,0.000000:
0000
0000
0000
0000
,
0000
0000
0000
0000
,
0000
0000
0000
0000
,
0000
0000
0000
0000
,
0000
0000
0000
0000
,
0000
0000
0000
0000
,
0220
0000
0000
0000
,
0330
0000
0000
0000
0000
1000
1000
0000
,
0220
0000
0000
0000
,
0330
0001
0001
0000
0000
1000
1000
0000
,
0220
0000
0000
0330
,
0001
0001
0000
0000
0000
0100
0100
0000
,
1000
1000
0000
0000
0000
0100
0100
0000
,
0001
0001
0000
0010
0010
0010
0010
0000
,
1000
0100
0000
1001
0000
0001
0100
0000
,
0001
0100
0000
1001
0000
1000
0100
0000
,
0010
0100
0000
1001
0000
0100
0010
0000
,
0100
0010
0000
1001
0000
0010
0100
0000
,
1000
0100
0000
1100
0000
0100
1000
0000
,
0001
0010
0000
0011
0000
0010
0001
0000
,
1000
0100
0010
0001
0000
0100
0100
0000
,
0001
0010
0100
1000
0000
0010
0010
0000
,
1000
0100
0010
0001
,
1000
0001
1000
0000
0010
0000
0100
0000
,
0001
0010
0100
1000
,
0001
1000
0001
0000
0100
0000
0010
0000
,
0010
1000
0100
0000
0001
0000
0100
0000
,
0010
0001
0100
0000
1000
0000
0100
0000
,
1000
0001
0010
0000
1000
0000
0010
0000
,
1000
0001
0100
0000
2002
0000
3003
0000
,
1000
1000
1000
0000
0001
0100
0001
0000
,
0001
0001
0001
0000
1000
0100
1000
0000
,
0010
0010
0010
0000
0110
0000
1001
0000
,
0100
0100
0100
0000
0110
0000
1001
0000
,
0001
0010
0001
0000
1000
0100
1000
0000
,
0010
0100
0010
0000
1000
0001
1000
0000
,
0001
0001
1000
1000
0010
0010
0100
0000
,
1000
1000
0001
0001
0010
0010
0100
0000
,
0002
0000
0000
0003
,
2000
0000
3020
0000
,
0230
0000
0300
0001
,
0010
0100
1000
0100
,
2002
0000
3003
0010
,
2200
3300
0202
0303
,
2002
0000
3003
0010
,
2200
3300
0022
0033
,
2002
0000
0000
0000
0000
0000
0000
3003
,
0000
0000
0000
0000
,
0020
0000
0000
0030
,
2000
0000
0000
0000
3002
0000
0000
0003
,
1000
0100
0010
0001
,
1000
0100
1000
0100
1000
0000
0000
0000
,
0001
0000
0010
0000
0100
0100
0100
0000
,
1000
0000
0100
0000
0010
0010
0010
0000
,
0001
0100
1000
0100
,
0001
0000
0100
0100
0200
0000
0300
0000
,
1000
0000
0000
0101
0000
1100
0100
0100
,
0000
0000
0000
1001
1001
0000
0110
0000
,
0000
0000
0000
0011
0000
1010
0010
0010
,
0000
0000
0000
0110
0110
0000
1001
0000
,
0000
0000
0000
1001
0000
0011
0010
0010
,
0000
0000
0000
1001
1001
0000
0110
0000
,
0000
0000
0000
1001
0000
1010
0010
0010
,
0000
0000
0000
0000
1001
1001
1001
1001
;

//---------------dance-double - ----------------
#NOTES:
     dance-double:
     :
     Easy:
     5:
     0.192156,0.274200,0.250250,0.179867,0.000000,172.000000,140.000000,32.000000,23.000000,0.000000,0.000000,0.192156,0.274200,0.250250,0.179867,0.000000,172.000000,140.000000,32.000000,23.000000,0.000000,0.000000:
00000000
00000000
00000000
00000000
,
00000000
00000000
00000000
00000000
,
00000000
00000000
00000000
00000000
,
00000000
00000000
00000000
00000000
,
00000000
00000000
00000000
00000000
,
00000000
00000000
00000000
00000000
,
00022000
00000000
00000000
00000000
,
00033000
00000000
00000000
00000000
,
20020000
00000000
00000000
00000000
,
30030000
00010000
00000000
00001000
,
00002002
00000000
00000000
00000000
,
00003003
00001000
00000000
00010000
,
20020000
00000000
00000000
30030000
,
00010000
00000000
00001000
00000000
,
00000010
00000000
00000100
00001001
,
00000000
00000000
00000100
00001001
,
00000000
00000000
00010000
00011000
,
00000000
00000000
00001000
00011000
,
00000000
00000000
01100000
10010000
,
00000000
00000000
01100000
10010000
,
00000000
00000000
00010000
00011000
,
00000000
00000000
00001000
00011000
,
00000000
00010000
00001000
00010000
,
00000000
00001000
00000010
00001000
,
00000000
00000001
00000010
00000001
,
00000000
00001000
00000010
00001000
,
00000000
00001000
00010000
00001000
,
00000000
00010000
01000000
00010000
,
00000000
10000000
01000000
10000000
,
00010000
01000000
00010000
01000000
,
00000000
00100000
00010000
10000000
,
01000000
00100000
00010000
00001000
,
00000000
00000010
00001000
00000001
,
00000010
00000100
00001000
00010000
,
00000000
00100000
01000000
10010000
,
00000000
01000000
00100000
10010000
,
00000000
00010000
00001000
00000100
,
00000010
00000100
00001000
00010000
,
00002000
00000000
00000000
00003000
,
00200000
00300000
00020000
00030000
,
02000000
00000000
03000000
00100000
,
10000000
01000000
00100000
00010000
,
00002000
00000000
00003000
00000010
,
00000200
00000300
00000002
00000003
,
00002000
00000000
00003000
00000100
,
00020000
00030000
00002000
00003000
,
00022000
00000000
00000000
00000000
,
00033000
00000000
00000000
00000000
,
00002000
00000000
00000000
00003000
,
00020000
00030000
00002000
00003000
,
00010000
00100000
01000000
10000000
,
01000000
00100000
00010000
00000000
,
00010000
00001000
00010000
00011000
,
00001000
00010000
00001000
00011000
,
00000100
00000010
00000001
00001000
,
00010000
00100000
01000000
00010000
,
10000000
00000000
01100000
10010000
,
00000000
00000000
01100000
10010000
,
00000000
00000000
00010000
00011000
,
00000000
00000000
00001000
00011000
,
00000000
00000000
00000110
00001001
,
00000000
00000000
00000110
00001001
,
00000000
00000000
00001000
00011000
,
00000000
00000000
00011000
00011000
;

//---------------dance-single - ----------------
#NOTES:
     dance-single:
     :
     Easy:
     5:
     0.195508,0.299127,0.250250,0.187688,0.000000,175.000000,143.000000,32.000000,24.000000,0.000000,0.000000,0.195508,0.299127,0.250250,0.187688,0.000000,175.000000,143.000000,32.000000,24.000000,0.000000,0.000000:
0000
0000
0000
0000
,
0000
0000
0000
0000
,
0000
0000
0000
0000
,
0000
0000
0000
0000
,
0000
0000
0000
0000
,
0000
0000
0000
0000
,
0020
0000
0000
0000
,
0030
0000
0000
0000
,
0020
0000
0000
0000
,
0030
0000
0000
0000
,
0200
0000
0000
0000
,
0301
0000
0000
1000
,
0200
0000
0000
0000
,
0301
0000
0000
1000
,
0010
0000
0001
1001
,
0000
0000
1000
1001
,
0000
0000
0001
1001
,
0000
0000
0110
1001
,
0000
0000
1000
1001
,
0000
0000
0001
1001
,
0000
0000
1000
1001
,
0000
0000
0110
1001
,
0000
0010
1000
0100
,
0001
1000
0001
1000
,
0000
0010
0001
0100
,
1000
0001
1000
0001
,
0000
0010
0100
1000
,
0001
0010
0001
0010
,
0000
0100
0010
0001
,
1000
0100
1000
0100
,
0010
0001
0100
0100
,
0010
1000
0100
0100
,
1000
0010
0001
0001
,
0010
1000
0100
0100
,
0001
0010
0100
1000
,
1000
0100
0010
0001
,
1000
0010
0010
1001
,
0001
0010
0010
1001
,
0200
0000
0000
0000
,
0302
0000
2003
0000
,
3020
0000
0000
1030
,
0100
0010
0001
0100
,
0020
0000
0000
1030
,
0002
0000
0203
0000
,
0320
0000
1030
0001
,
0220
0330
2002
3003
,
0220
0000
0000
0000
,
0330
0000
0000
0000
,
0002
0000
0000
0003
,
2000
3000
0002
0003
,
1000
0100
0010
0001
,
0010
0100
1000
0000
,
0001
0001
0100
0100
,
1000
1000
0100
0100
,
0002
0003
2000
3000
,
0020
0030
0100
0000
,
0000
0000
0110
0110
,
0000
0000
1001
1001
,
0000
0000
0110
0110
,
0000
0000
1001
1001
,
0000
0000
1100
1100
,
0000
0000
0011
0011
,
0000
0000
1100
1100
,
0000
1001
1001
1001
;

//---------------dance-single - ----------------
#NOTES:
     dance-single:
     :
     Beginner:
     3:
     0.107250,0.174491,0.023461,0.031281,0.000000,96.000000,93.000000,3.000000,4.000000,0.000000,0.000000,0.107250,0.174491,0.023461,0.031281,0.000000,96.000000,93.000000,3.000000,4.000000,0.000000,0.000000:
// measure 0
0000
0000
0000
0000
,  // measure 1
0000
0000
0000
0000
,  // measure 2
0000
0000
0000
0000
,  // measure 3
0000
0000
0000
0000
,  // measure 4
0000
0000
0000
0000
,  // measure 5
0000
0000
0000
0000
,  // measure 6
0002
0000
0000
0003
,  // measure 7
0000
0000
0000
0000
,  // measure 8
0002
0000
0000
0003
,  // measure 9
0000
0000
0000
0000
,  // measure 10
0002
0000
0000
0003
,  // measure 11
0000
0000
0000
0000
,  // measure 12
0002
0000
0000
0003
,  // measure 13
0000
0000
0000
0000
,  // measure 14
0000
0000
1000
1000
,  // measure 15
0000
0000
0100
0100
,  // measure 16
0000
0000
0010
0010
,  // measure 17
0000
0000
0001
0001
,  // measure 18
0000
0000
0001
0001
,  // measure 19
0000
0000
0010
0010
,  // measure 20
0000
0000
0100
0100
,  // measure 21
0000
0000
1000
1000
,  // measure 22
0000
0001
0000
0001
,  // measure 23
0000
1000
0000
1000
,  // measure 24
0000
0001
0000
0001
,  // measure 25
0000
0100
0000
0100
,  // measure 26
0000
1000
0000
1000
,  // measure 27
0000
0001
0000
0001
,  // measure 28
0000
1000
0000
0100
,  // measure 29
0100
0100
0100
0000
,  // measure 30
0010
0000
0010
0000
,  // measure 31
1000
0000
1000
0000
,  // measure 32
0100
0000
0100
0000
,  // measure 33
0001
0000
0001
0000
,  // measure 34
0100
0000
0100
0000
,  // measure 35
1000
0000
1000
0000
,  // measure 36
0010
0000
0010
0000
,  // measure 37
0001
0000
0001
0000
,  // measure 38
0100
0000
0000
0000
,  // measure 39
0001
0000
0000
0000
,  // measure 40
1000
0000
0000
0000
,  // measure 41
0001
0000
0001
0000
,  // measure 42
0001
0000
0000
0000
,  // measure 43
1000
0000
0000
0000
,  // measure 44
0010
0000
0000
0000
,  // measure 45
0100
0000
0000
0000
,  // measure 46
1001
0000
0000
0000
,  // measure 47
0000
0000
0000
0000
,  // measure 48
0010
0000
0000
0000
,  // measure 49
0100
0000
0000
0000
,  // measure 50
0001
0000
0001
0000
,  // measure 51
1000
0000
1000
0000
,  // measure 52
0010
0000
0010
0000
,  // measure 53
0100
0000
0100
0000
,  // measure 54
0001
0000
0001
0000
,  // measure 55
1000
0000
1000
0000
,  // measure 56
0000
0000
0010
0010
,  // measure 57
0000
0000
0100
0100
,  // measure 58
0000
0000
1000
1000
,  // measure 59
0000
0000
0001
0001
,  // measure 60
0000
0000
1000
1000
,  // measure 61
0000
0000
0010
0010
,  // measure 62
0000
0000
0100
0100
,  // measure 63
0000
0000
1001
1001
;
