#TITLE:Another World;
#SUBTITLE:;
#ARTIST:A応P;
#TITLETRANSLIT:;
#SUBTITLETRANSLIT:;
#ARTISTTRANSLIT:AOP;
#GENRE:;
#CREDIT:;
#BANNER:Another World.png;
#BACKGROUND:;
#LYRICSPATH:;
#CDTITLE:;
#MUSIC:Another World.ogg;
#OFFSET:1.650999;
#SAMPLESTART:58.348995;
#SAMPLELENGTH:13.241383;
#LASTBEATHINT:1.573248;
#SELECTABLE:YES;
#BPMS:0.000000=145.000000
;
#STOPS:
;
#BGCHANGES:0.000=Another World.avi=1.000=0=0=0=StretchNoLoop====,
99999=-nosongbg-=1.000=0=0=0 // don't automatically add -songbackground-
;
#KEYSOUNDS:;
#ATTACKS:;

//---------------dance-single - ----------------
#NOTES:
     dance-single:
     :
     Hard:
     10:
     0.445199,0.487783,0.383903,0.316156,0.225825,276.000000,242.000000,34.000000,28.000000,0.000000,0.000000,0.445199,0.487783,0.383903,0.316156,0.225825,276.000000,242.000000,34.000000,28.000000,0.000000,0.000000:
0000
0000
0000
0000
,
0000
0000
0000
0000
,
0000
0000
0000
0000
,
0000
0000
0000
0000
,
0000
0000
0000
0000
0000
0000
0010
0000
0100
0000
0000
0100
0000
0000
0000
0000
,
1001
0000
0000
0000
0000
0000
1000
0000
0100
0000
0000
0100
0000
0000
0100
0000
,
1000
0000
0000
0000
0000
0000
0001
0000
0010
0000
0000
0010
0000
0000
0001
0000
,
1000
0000
0000
1000
0000
0000
1000
0000
0001
0000
0000
0001
0000
0000
0001
0000
,
1000
0000
0001
1000
0000
0000
0001
0000
0100
0000
0000
0100
0000
0000
0100
0000
,
0000
0000
0100
0000
0010
0000
0100
0000
0010
0000
0000
0010
0000
0000
1000
0000
,
0001
0000
0000
0001
0100
0000
0000
0100
0010
0000
0000
0010
1000
0000
0000
0000
,
0100
0000
0000
0100
0000
0000
0010
0000
0000
0010
0000
0000
1000
0000
0001
0000
,
1001
0000
0000
0010
0110
0000
0110
0000
,
2001
0001
0001
3001
,
0120
0130
2001
3001
,
0001
0000
0000
0001
0000
0000
0001
0000
1000
0000
0000
1000
0000
0000
1000
0000
,
0010
0000
0000
0010
0000
0000
0010
0000
2002
0000
0000
0000
3003
0000
0000
0000
,
0000
0100
0010
0100
0010
1000
0001
1000
,
0001
0010
0100
0000
1000
0100
0010
0000
,
1002
0000
0203
0000
,
0320
1000
0200
0330
,
2001
0000
3200
0000
,
0320
0001
2000
3030
,
0202
0003
2000
3300
,
0021
0100
2000
3030
,
0110
0000
0000
1000
1001
0000
0000
0010
,
0110
1100
0101
1001
,
0000
0100
0010
0100
0010
1000
0001
1000
,
0001
0110
2002
3003
,
0000
0001
1000
0001
1000
0100
0010
0100
,
0010
1100
2002
3003
,
0010
0001
0010
0000
2001
0000
3100
0000
,
1000
0100
1000
0000
1002
0000
0013
0000
,
0000
0010
0100
0010
0000
1000
0001
1000
,
2001
0100
0001
3100
,
1002
0100
1000
0103
,
1001
0000
0000
0000
0000
0000
0100
0000
0010
0000
0000
0010
0000
0000
0000
0000
,
1001
0000
0000
0000
0000
0000
0001
0000
0100
0000
0000
0100
0000
0000
0100
0000
,
0001
0000
0000
0000
0000
0000
1000
0000
0010
0000
0000
0010
0000
0000
1000
0000
,
0001
0000
0000
0001
0000
0000
0001
0000
1000
0000
0000
1000
0000
0000
1000
0000
,
0001
0000
0000
0001
0000
0000
0001
0000
0100
0000
0000
0100
0000
0000
0100
0000
,
0010
0000
0000
0000
1000
0000
0001
0000
1000
0000
0000
1000
0000
0000
1000
0000
,
0001
0000
0000
0000
0010
0000
0100
0000
0010
0000
0000
0010
0000
0000
0010
0000
,
1000
0000
0000
1000
0000
0000
0001
0000
0100
0000
0000
0100
0000
0000
0010
0000
,
0100
0000
0000
0000
0000
0000
0010
0000
0001
0000
0000
1001
0000
0000
0000
0000
,
1001
0000
0000
0000
0000
0000
1000
0000
0010
0000
0000
0010
0000
0000
0010
0000
,
1000
0000
0000
0000
0000
0000
0001
0000
0100
0000
0000
0100
0000
0000
0001
0000
,
1000
0000
0000
1000
0000
0000
1000
0000
0001
0000
0000
0001
0000
0000
0001
0000
,
1000
0000
0001
1000
0000
0000
0001
0000
0100
0000
0000
0100
0000
0000
0100
0000
,
0000
0000
1000
0000
0010
0000
1000
0000
0010
0000
0000
0010
0000
0000
0100
0000
,
0001
0000
0000
0001
1000
0000
0000
1000
0010
0000
0000
0010
0100
0000
0000
0000
,
0001
0000
0000
1000
0000
0000
0001
0000
0000
1000
0000
0000
0001
0000
1000
0000
,
1001
0000
0000
0010
1010
0000
0101
0000
,
2002
0000
0000
0000
,
3003
0000
0000
0000
;

//---------------dance-single - ----------------
#NOTES:
     dance-single:
     :
     Medium:
     6:
     0.333899,0.487783,0.530690,0.462942,0.000000,207.000000,160.000000,47.000000,41.000000,0.000000,0.000000,0.333899,0.487783,0.530690,0.462942,0.000000,207.000000,160.000000,47.000000,41.000000,0.000000,0.000000:
0000
0000
0000
0000
,
0000
0000
0000
0000
,
0000
0000
0000
0000
,
0000
0000
0000
0000
,
0000
0000
0010
0110
,
1001
0000
0100
0110
,
1001
0000
0010
0010
,
2002
3003
0220
0330
,
1000
0100
0010
0001
,
0000
1000
1000
0001
,
0110
1001
0110
1001
,
0001
0100
0001
0000
1000
0100
1000
0000
,
2002
3003
0110
1100
,
2002
0000
0000
3003
,
0020
0030
0200
0300
,
0001
0001
1000
1000
,
0010
0010
0100
0000
,
0000
0001
0010
0001
0000
1000
0100
1000
,
0200
0300
0020
0030
,
2002
0000
0000
3003
,
0200
0300
0020
0030
,
2002
0000
0000
3003
,
0020
0030
0200
0300
,
2200
3000
0020
0030
,
0002
0003
0020
0330
,
0022
0003
0200
0300
,
2000
3000
0200
0330
,
1000
0000
0100
0000
1000
0100
1000
0000
,
0001
0000
0100
0000
0001
0100
0001
0000
,
1000
0000
0010
0000
1000
0010
1000
0000
,
0001
0000
0010
0000
0001
0010
0001
0000
,
0100
0010
0100
0000
2002
0000
3003
0000
,
0010
0100
0010
0000
2002
0000
3003
0000
,
1000
0100
1000
0000
0001
0100
0001
0000
,
0020
0100
0100
0130
,
0020
0031
0200
1300
,
2002
3003
0110
0100
,
1001
0000
0110
0010
,
1001
0000
1000
0100
,
1001
0010
0100
1000
,
1001
0000
1001
0010
,
0110
0000
1001
0100
,
0110
0000
0001
0010
,
1001
0100
0010
0001
,
1001
0000
0110
0110
,
1001
0000
0110
0110
,
1001
0000
0010
1000
,
1001
0010
0100
1000
,
0100
0010
0001
1001
,
0000
0010
1000
0100
,
1001
0000
0110
0000
,
0010
0010
0100
0100
,
1001
0000
0110
0110
,
2002
0000
0000
0000
,
3003
0000
0000
0000
;

//---------------dance-single - ----------------
#NOTES:
     dance-single:
     :
     Challenge:
     8:
     0.314543,0.426810,0.519398,0.259699,0.000000,195.000000,149.000000,46.000000,23.000000,252.000000,0.000000,0.314543,0.426810,0.519398,0.259699,0.000000,195.000000,149.000000,46.000000,23.000000,252.000000,0.000000:
0000
0000
0000
0000
,
0000
0000
0000
0000
,
0000
0000
0000
0000
,
0000
0000
0000
0000
,
0000
0000
0010
MMMM
,
1001
0000
0100
MMMM
,
1001
0000
0010
0010
,
1001
MMMM
0110
MMMM
,
1000
0100
0010
0001
,
0000
1000
1000
0001
,
0110
MMMM
0110
MMMM
,
0001
0100
0001
0000
1000
0100
1000
0000
,
2002
3003
0110
MMMM
,
2002
0000
0000
3003
,
0010
MMMM
0100
MMMM
,
0001
MMMM
0001
0000
1000
MMMM
1000
0000
,
0010
MMMM
0010
0000
0100
0000
MMMM
0000
,
0000
0001
0010
0001
0000
1000
0100
1000
,
0200
0300
0020
0030
,
2002
0000
0000
0000
0000
0000
3003
MMMM
,
0200
0000
0300
MMMM
0020
0000
0030
0000
,
2002
0000
0000
0000
0000
0000
3003
MMMM
,
0020
0000
0030
MMMM
0200
0000
0300
0000
,
1001
0000
MMMM
0010
0100
0000
MMMM
0001
,
1000
0000
MMMM
0100
0010
0000
MMMM
0000
,
1001
0000
MMMM
0001
1000
0000
MMMM
1000
,
0001
0000
2002
0000
0000
0000
3003
MMMM
,
1000
0000
0100
0000
1000
0100
1000
0000
,
0001
0100
0001
MMMM
,
1000
0000
0010
0000
1000
0010
1000
0000
,
0001
0010
0001
MMMM
,
0100
0010
0100
0000
1001
0000
MMMM
0000
,
0010
0100
0010
0000
1001
0000
MMMM
0000
,
1000
0100
1000
0000
0001
0100
0001
0000
,
0020
0100
0100
0130
,
0020
0031
0200
1300
,
2002
3003
0110
MMMM
,
1001
MMMM
0110
MMMM
,
1001
MMMM
1000
0100
,
1001
MMMM
0110
MMMM
,
1001
MMMM
1001
MMMM
,
0110
MMMM
1001
MMMM
,
0110
MMMM
0001
0010
,
1001
MMMM
0110
MMMM
,
1001
0000
0000
0000
0110
MMMM
0110
MMMM
,
1001
0000
MMMM
0000
0110
MMMM
0110
MMMM
,
1001
0000
MMMM
0000
1010
MMMM
1010
MMMM
,
1001
MMMM
0110
MMMM
,
0100
0010
0001
1001
,
0100
MMMM
0100
MMMM
1000
MMMM
1000
MMMM
,
0010
MMMM
0010
MMMM
0001
MMMM
0001
MMMM
,
0010
MMMM
0010
0000
0100
MMMM
0100
0000
,
1001
0000
0000
0000
0110
MMMM
0110
0000
,
2002
0000
0000
3003
,
MMMM
0000
0000
0000
;

//---------------dance-single - ----------------
#NOTES:
     dance-single:
     :
     Easy:
     4:
     0.272603,0.365837,0.191952,0.225825,0.000000,169.000000,152.000000,17.000000,20.000000,0.000000,0.000000,0.272603,0.365837,0.191952,0.225825,0.000000,169.000000,152.000000,17.000000,20.000000,0.000000,0.000000:
0000
0000
0000
0000
,
0000
0000
0000
0000
,
0000
0000
0000
0000
,
0000
0000
0000
0000
,
0000
0000
1000
0001
,
1000
0000
0001
1000
,
0001
0000
1000
0001
,
2000
3000
0002
0003
,
0200
0300
0001
1000
,
0001
1000
0001
1000
,
0010
0010
0100
0100
,
1000
0001
1000
0001
,
0100
0100
0010
0010
,
2002
0000
0000
3003
,
0020
0030
0200
0300
,
0001
0001
0100
0100
,
1000
1000
0100
0100
,
0001
0100
0001
0100
,
1000
0100
1000
0100
,
2002
0000
0000
3003
,
0020
0030
0200
0300
,
2000
0000
0000
3000
,
0002
0003
2000
3000
,
0020
0030
2000
3000
,
0200
0300
0002
0003
,
1000
0000
0001
0000
,
0010
0000
0100
0000
,
0000
0010
0010
0010
,
1000
0001
1000
0001
,
0000
0100
0100
0100
,
0001
1000
0001
1000
,
0010
1000
0100
0001
,
0010
0010
0001
1001
,
0001
0100
1000
0000
,
0001
0010
0100
1000
,
1000
0100
0010
0001
,
1001
0000
1000
1001
,
0001
0000
0001
1001
,
1000
0000
0001
0100
,
1000
0010
0001
1000
,
1001
0000
0010
0110
,
1001
0000
0100
0110
,
1001
0000
0001
0010
,
0100
0001
1000
0110
,
1001
0000
1000
0001
,
1001
0000
0001
1000
,
1001
0000
1000
0100
,
0001
0010
1000
0001
,
1001
0000
0010
0000
,
1000
1000
0001
0001
,
0100
0010
0100
0010
,
0001
0001
1000
1000
,
0010
0000
1000
0100
,
2002
0000
0000
0000
,
3003
0000
0000
0000
;

//---------------dance-single - ----------------
#NOTES:
     dance-single:
     :
     Beginner:
     2:
     0.150013,0.242762,0.033874,0.011291,0.000000,93.000000,90.000000,3.000000,1.000000,0.000000,0.000000,0.150013,0.242762,0.033874,0.011291,0.000000,93.000000,90.000000,3.000000,1.000000,0.000000,0.000000:
0000
0000
0000
0000
,
0000
0000
0000
0000
,
0000
0000
0000
0000
,
0000
0000
0000
0000
,
0000
0000
0010
0010
,
0010
0000
1000
1000
,
1000
0000
0001
0001
,
0001
0000
0010
0000
,
1000
0000
0000
0000
,
0001
0000
0000
0000
,
1000
0000
0000
0000
,
0010
0000
0000
0000
,
0100
0000
0000
0000
,
1001
0000
0000
0000
,
0010
0000
0000
0000
,
0100
0000
0100
0000
,
0100
0000
0100
0000
,
0010
0000
0010
0000
,
0010
0000
0010
0000
,
1001
0000
0000
0000
,
0001
0000
0000
0000
,
1000
0000
0000
0000
,
0100
0000
0000
0000
,
0010
0000
0000
0000
,
0001
0000
0000
0000
,
1000
0000
1000
0000
,
0001
0000
0001
0000
,
0000
0100
0000
0100
,
0000
0100
0100
0000
,
0000
0010
0000
0010
,
0000
0010
0010
0000
,
0000
1000
0000
1000
,
0000
0001
0000
0001
,
0000
1000
0000
1000
,
1000
0000
0000
0000
,
0001
0000
0000
0000
,
1001
0000
0010
0010
,
0010
0000
0100
0100
,
0100
0000
0001
0000
,
1000
0000
0001
0000
,
1000
0000
0010
0010
,
0010
0000
0100
0100
,
0100
0000
1000
0000
,
0001
0000
1000
0000
,
0001
0000
1000
1000
,
1000
0000
0001
0001
,
0001
0000
0100
0000
,
0010
0000
0100
0000
,
0010
0000
0000
0000
,
1000
0000
0000
0000
,
0001
0000
0000
0000
,
0100
0000
0100
0000
,
0010
0000
0010
0010
,
0020
0000
0000
0030
;

//---------------dance-double - ----------------
#NOTES:
     dance-double:
     :
     Hard:
     10:
     0.382290,0.457296,0.270990,0.180660,0.050811,237.000000,213.000000,24.000000,16.000000,0.000000,0.000000,0.382290,0.457296,0.270990,0.180660,0.050811,237.000000,213.000000,24.000000,16.000000,0.000000,0.000000:
00000000
00000000
00000000
00000000
,
00000000
00000000
00000000
00000000
,
00000000
00000000
00000000
00000000
,
00000000
00000000
00000000
00000000
,
00000000
00000000
00000000
00000000
00100000
01000000
00100000
00000000
,
10010000
00000000
01000000
00000000
00100000
00010000
00100000
00000000
,
00011000
00000000
00001000
00000000
00000100
00001000
00000100
00000000
,
00001010
00000010
00000101
00000100
,
00002002
00000000
00003003
00000000
00000010
00000100
00001000
00000000
,
00000100
00010000
00001000
01000000
,
00100000
10000000
01000000
00000000
00100000
00010000
01000000
00000000
,
10000000
00100000
01000000
00001000
,
00010000
00000000
00000100
00000000
00001000
00000010
00001000
00000000
,
00002002
00000000
00000000
00003003
,
00000200
00000300
00020000
00030000
,
00000100
00000000
00000000
00000100
00000000
00000000
00000100
00000000
00010000
00000000
00000000
00010000
00000000
00000000
00010000
00000000
,
00001000
01000000
00010000
10000000
00100000
01000000
00010000
00000000
,
00200000
00300000
00002000
00003000
,
00020000
00030000
00000020
00000030
,
00002002
00000000
00003003
00000000
,
00000100
00000000
00010000
00000000
,
20020000
00000000
30030000
00000000
,
01000000
00000000
00010000
00000000
,
00001000
00000100
00000010
00000001
,
00001000
00000100
00010000
00100000
,
10000000
01000000
00100000
00010000
,
00001000
00000010
00000001
00001001
,
00000000
00000010
00001000
00000100
00001000
00000000
00000001
00000000
,
00000100
00001000
00010000
00100000
,
00000000
00100000
00010000
01000000
00010000
00000000
00100000
00000000
,
01000000
00100000
00010000
00001000
,
01000000
10000000
00100000
00010000
,
00000100
00001000
00000010
00000001
,
00001100
00010000
10100000
01000000
,
00110000
00001000
00000110
00000001
,
00001100
00010000
01100000
10010000
,
01100000
00000000
00000000
10000000
01000000
00000000
00100000
00001000
,
01000000
00000000
00100000
00001000
00010000
00000000
00010000
00000100
,
00001000
00000000
00001000
00000010
00000100
00000000
00000001
00001000
,
00000100
00000000
00000000
00000100
00000000
00000000
00000100
00000000
00000010
00000000
00000000
00000010
00000000
00000000
00000010
00000000
,
00001001
00000000
00000100
00001000
00000010
00000000
00001000
00000100
,
00010000
00000000
00010000
00001000
00100000
00000000
00100000
00010000
,
01000000
00000000
00000000
00000000
10000000
00000000
00100000
00000000
00010000
00000000
00000000
00010000
00000000
00000000
00010000
00000000
,
01000000
00000000
00000000
01000000
00000000
00000000
01000000
00000000
00100000
00000000
00000000
00000000
10000000
00000000
01000000
00000000
,
00010000
00000000
00010000
00001000
00000100
00000000
00000001
00000010
,
00000100
00000000
00001000
00010000
00100000
00000000
10000000
01000000
,
00100000
00000000
00010000
00001000
00000100
00000000
00000010
00000000
,
00000101
00000000
00000000
00000001
00000000
00000000
00000000
00000000
00001100
00000000
00000000
00001000
00000000
00000000
00000000
00000000
,
00011000
00000000
00000000
00010000
00000000
00000000
00000000
00000000
00110000
00000000
00000000
00000000
11000000
00000000
00000000
00000000
,
10000000
00100000
00010000
00001000
,
00000100
00000001
00000100
00001000
,
00010000
00100000
10000000
01000000
,
00100000
00010000
00001000
00010000
00000100
00001000
00010000
00100000
,
00022000
00000000
00000000
00000000
,
00033000
00000000
00000000
00000000
;

//---------------dance-double - ----------------
#NOTES:
     dance-double:
     :
     Medium:
     6:
     0.341964,0.518269,0.462942,0.293573,0.000000,212.000000,171.000000,41.000000,26.000000,0.000000,0.000000,0.341964,0.518269,0.462942,0.293573,0.000000,212.000000,171.000000,41.000000,26.000000,0.000000,0.000000:
00000000
00000000
00000000
00000000
,
00000000
00000000
00000000
00000000
,
00000000
00000000
00000000
00000000
,
00000000
00000000
00000000
00000000
,
00000000
00000000
10010000
01100000
,
10010000
00100000
00011000
00110000
,
00011000
00000100
00000110
00001001
,
00000101
00000101
00001100
00001100
,
00001001
00000000
00001001
00000000
00000010
00000100
00000010
00000000
,
00000100
00001000
00000100
00001000
,
00100000
00010000
00100000
00010000
,
10000000
01000000
10000000
01000000
,
00100000
00000000
00010000
00001000
,
00022000
00000000
00000000
00033000
,
00000200
00000300
00000020
00000030
,
00000002
00000003
00002000
00003000
,
00000100
00000100
00000100
00000000
,
00001000
00010000
00001000
00010000
,
00001000
00010000
00001000
00010000
00001000
00010000
00001000
00000000
,
00020000
00000000
00030000
00000000
,
02000000
00000000
03000000
00000000
,
20000000
00000000
30000000
00000000
,
00200000
00000000
00300000
00000000
,
00000200
00000300
00002000
00003000
,
00000020
00000030
00000002
00000003
,
00000100
00001000
00010000
00100000
,
10000000
01000000
00100000
00000000
,
00000000
00100000
01000000
00100000
01000000
00000000
10010000
00000000
,
01000000
00100000
00010000
00001000
,
00000000
00000010
00000100
00000010
00000100
00000000
00001001
00000000
,
00000010
00000100
00001000
00010000
,
00100000
01000000
20020000
30030000
,
00100000
00001000
00022000
00033000
,
00000100
00000010
00002002
00003003
,
00002200
00003300
00001000
00010000
,
00220000
00330000
00010000
00001000
,
00011000
00000000
00001000
01000000
,
10010000
00000000
01000000
00001000
,
00011000
00000000
00010000
00000100
,
00001001
00000010
00000100
00001000
,
00001001
00000000
00000000
00000000
00000100
00001000
00000100
00000000
,
00001100
00000000
00000000
00000000
00001000
00010000
00001000
00000000
,
00011000
00000000
00000000
00000000
00010000
00100000
00010000
00000000
,
00110000
01100000
11000000
01100000
,
00110000
00000000
00000000
00010000
01000000
00001000
01000000
00001000
,
00010000
00000000
00000000
00001000
00010000
00000100
00010000
00000100
,
00001000
00000000
00000000
00000010
00001000
00000010
00001000
00000000
,
00000001
00000010
00000100
00001000
,
00010000
00100000
01000000
10000000
,
10010000
01000000
00100000
00010000
,
00011000
00001000
00000100
00000010
,
00001001
00000010
00000100
00001000
,
00011000
00000000
00110000
00001100
,
00022000
00000000
00000000
00000000
,
00033000
00000000
00000000
00000000
;

//---------------dance-double - ----------------
#NOTES:
     dance-double:
     :
     Challenge:
     9:
     0.388742,0.548756,0.440360,0.101621,0.000000,241.000000,202.000000,39.000000,9.000000,404.000000,0.000000,0.388742,0.548756,0.440360,0.101621,0.000000,241.000000,202.000000,39.000000,9.000000,404.000000,0.000000:
00000000
00000000
00000000
00000000
,
00000000
00000000
00000000
00000000
,
00000000
00000000
00000000
00000000
,
00000000
00000000
00000000
00000000
,
00000000
00000000
00001000
00010000
,
00011000
MMMMMMMM
00010000
00100000
,
10010000
MMMMMMMM
00100000
00001000
,
00010000
00000100
00001000
00000010
,
00001000
00000001
00001000
00000000
MMMMMMMM
00000000
MMMMMMMM
00000000
,
MMMM0110
MMMM1100
0011MMMM
0011MMMM
,
MMMM1100
MMMM1100
0101MMMM
0101MMMM
,
00001000
MMMMMMMM
00010000
00000000
00001000
MMMMMMMM
00010000
00000000
,
00011000
00000000
MMMMMMMM
00000000
0011MMMM
MMMMMMMM
MMMM1100
00000000
,
00022000
00000000
00033000
MMMMMMMM
,
00100000
10000000
01000000
00010000
,
00000100
00001000
00000010
00000001
,
00000100
00001000
00010000
00100000
,
10000000
01000000
00100000
00010000
,
00001000
00000100
00000010
00000001
,
00001001
MMMMMMMM
00000010
00000100
,
0002MMMM
00000100
0100MMMM
00000100
,
01030000
MMMMMMMM
10000000
00100000
,
MMMM2000
00100000
MMMM0010
00100000
,
00003010
00000000
00000001
00000100
,
MMMM2000
00010000
MMMM0100
00010000
,
MMMM3100
00001000
0010MMMM
0001MMMM
,
MMMM1000
0001MMMM
00022000
00033000
,
00011000
00000000
00001000
00000000
00000100
00000010
00000100
00000000
,
00010000
00001000
00010000
00000000
00011000
00000000
MMMMMMMM
00000000
,
00010000
00000000
00100000
00000000
01000000
00100000
01000000
00000000
,
00001000
00010000
00001000
00000000
00011000
00000000
MMMMMMMM
00000000
,
01000000
00010000
01000000
00000000
00001000
00010000
00001000
00000000
,
00000100
00010000
00000100
00000000
00001000
00000100
00001000
00000000
,
00000001
00001000
00000001
00000000
00001000
00000100
00001000
00000000
,
00010000
00001000
00010000
00000000
01000000
00010000
01000000
00000000
,
00001000
00010000
00001000
00010000
00001000
00010000
00001000
00010000
,
00011000
00000000
MMMMMMMM
00000000
00010000
00000000
00001000
00010000
,
00001000
00000000
MMMMMMMM
00000000
00001000
00000000
00010000
00001000
,
00010000
00000000
MMMMMMMM
00000000
00010000
00000000
00001000
00100000
,
01000000
00000000
MMMMMMMM
01000000
00100000
00000000
MMMMMMMM
00010000
,
00001000
00000000
00010000
00000100
00001000
00000000
00000010
00000100
,
00000010
00000000
MMMMMMMM
00000000
00000010
00000000
00000100
00000010
,
00000100
00000000
MMMMMMMM
00000000
00000010
00000000
00000100
00000010
,
00000100
00000000
MMMMMMMM
00001000
00010000
00000000
MMMMMMMM
00100000
,
01000000
00000000
00000000
10000000
01000000
00100000
00010000
00000000
,
10010000
00000000
00000000
00100000
00001000
0001MMMM
00001000
00000000
,
00011000
00000000
00000000
00000100
00010000
MMMM1000
00010000
00000000
,
00011000
00000000
MMMMMMMM
00100000
01000000
00000000
MMMMMMMM
00010000
,
00001000
00000000
MMMMMMMM
00000000
00000100
00001000
00000100
00000000
,
00001100
MMMMMMMM
00001100
MMMMMMMM
00000101
MMMMMMMM
00000101
MMMMMMMM
,
00001100
MMMMMMMM
00001100
MMMMMMMM
00011000
MMMMMMMM
00011000
MMMMMMMM
,
00110000
MMMMMMMM
00110000
MMMMMMMM
10100000
MMMMMMMM
00110000
MMMMMMMM
,
00011000
MMMMMMMM
00011000
00011000
,
00022000
00000000
00000000
00033000
,
MMMMMMMM
00000000
00000000
00000000
;

//---------------dance-double - ----------------
#NOTES:
     dance-double:
     :
     Easy:
     5:
     0.235504,0.304864,0.112913,0.214534,0.000000,146.000000,136.000000,10.000000,19.000000,0.000000,0.000000,0.235504,0.304864,0.112913,0.214534,0.000000,146.000000,136.000000,10.000000,19.000000,0.000000,0.000000:
// measure 0
00000000
00000000
00000000
00000000
,  // measure 1
00000000
00000000
00000000
00000000
,  // measure 2
00000000
00000000
00000000
00000000
,  // measure 3
00000000
00000000
00000000
00000000
,  // measure 4
00000000
00000000
00100000
00100000
,  // measure 5
00100000
00000000
00010000
00001000
,  // measure 6
00010000
00000000
00000100
00000100
,  // measure 7
00000100
00000000
00001000
00010000
,  // measure 8
00001000
00000000
00010000
00000000
,  // measure 9
00100000
00000000
10000000
00000000
,  // measure 10
01000000
00000000
00010000
00000000
,  // measure 11
00000100
00000000
00001000
00000000
,  // measure 12
00000010
00000000
00000001
00001000
,  // measure 13
00002002
00000000
00000000
00003003
,  // measure 14
00002000
00000000
00023000
00000000
,  // measure 15
00031000
00001000
00010000
00010000
,  // measure 16
00001000
00001000
00010000
00010000
,  // measure 17
00001000
00000000
00010000
00000000
,  // measure 18
00100000
00000000
01000000
00000000
,  // measure 19
20000000
00000000
00000000
30000000
,  // measure 20
02000000
03000000
00200000
00300000
,  // measure 21
00002000
00000000
00000000
00003000
,  // measure 22
00000200
00000300
00000020
00000030
,  // measure 23
00000002
00000000
00000000
00000003
,  // measure 24
00000200
00000300
00002000
00003000
,  // measure 25
00020000
00030000
00200000
00300000
,  // measure 26
01000000
01000000
00100000
00100000
,  // measure 27
00000000
10000000
00010000
10000000
,  // measure 28
01000000
01000000
00100000
00100000
,  // measure 29
00000000
00001000
00010000
00001000
,  // measure 30
00000100
00000100
00000010
00000010
,  // measure 31
00000000
00000001
00001000
00000100
,  // measure 32
00000000
00001000
00000001
00000100
,  // measure 33
00000000
00000010
00001000
00000100
,  // measure 34
00020000
00000000
00000000
00030000
,  // measure 35
00002000
00000000
00000000
00003000
,  // measure 36
00011000
00000000
10000000
10010000
,  // measure 37
00010000
00000000
00010000
10010000
,  // measure 38
10000000
00000000
00100000
00100000
,  // measure 39
10000000
01000000
00100000
00010000
,  // measure 40
00001000
00000000
00010000
00011000
,  // measure 41
00001000
00000000
00001000
00011000
,  // measure 42
00010000
00000000
00010000
00001000
,  // measure 43
00000010
00000001
00000100
00001000
,  // measure 44
00001001
00000000
00000001
00001001
,  // measure 45
00001000
00000000
00001000
00001001
,  // measure 46
00000001
00000000
00000001
00000100
,  // measure 47
00001000
00010000
00100000
00010000
,  // measure 48
00001000
00010000
00100000
01000000
,  // measure 49
10000000
10000000
00010000
00010000
,  // measure 50
00001000
00001000
00000001
00000001
,  // measure 51
00000010
00000010
00000100
00000100
,  // measure 52
00010000
00000000
00001000
00001000
,  // measure 53
00022000
00000000
00000000
00000000
,  // measure 54
00033000
00000000
00000000
00000000
;
