#TITLE:紫陽花 -AZISAI-;
#SUBTITLE:;
#ARTIST:Camellia vs. Expander;
#TITLETRANSLIT:AZISAI;
#SUBTITLETRANSLIT:;
#ARTISTTRANSLIT:;
#GENRE:;
#CREDIT:;
#BANNER:AZISAI.png;
#BACKGROUND:AZISAI-Jacket.png;
#LYRICSPATH:;
#CDTITLE:;
#MUSIC:AZISAI.ogg;
#OFFSET:0.254000;
#SAMPLESTART:67.919998;
#SAMPLELENGTH:12.430000;
#SELECTABLE:YES;
#DISPLAYBPM:78.000000:155.000000;
#BPMS:0.000000=155.000000
,104.000000=77.500000
,116.000000=155.000000
;
#STOPS:156.000000=1.548000,
239.750000=0.387000
;
#BGCHANGES:5.000=AZISAI.avi=1.000=1=0=0=StretchNoLoop==CrossFade==,
299.500=black.png=1.000=0=0=1=====,
99999=-nosongbg-=1.000=0=0=0 // don't automatically add -songbackground-
;
#KEYSOUNDS:;
#ATTACKS:;

//---------------dance-single - ----------------
#NOTES:
     dance-single:
     :
     Challenge:
     13:
     0.547001,0.859197,0.201935,0.434938,0.524256,493.000000,467.000000,26.000000,56.000000,0.000000,0.000000,0.547001,0.859197,0.201935,0.434938,0.524256,493.000000,467.000000,26.000000,56.000000,0.000000,0.000000:
// measure 0
0000
0000
0000
0000
,  // measure 1
0000
0000
0000
0000
,  // measure 2
0000
0000
0000
0000
,  // measure 3
0000
0000
0000
0000
,  // measure 4
0000
0000
0000
0000
,  // measure 5
0000
0000
0000
0000
,  // measure 6
1000
0001
1000
0001
,  // measure 7
0100
0010
0100
0010
,  // measure 8
1000
0100
0001
0100
1000
0100
0001
0100
,  // measure 9
1000
0001
1000
0000
0001
1000
0001
0000
2000
0000
0000
0000
3001
0000
0000
0000
,  // measure 10
0010
0001
0000
0100
0000
0000
0010
0001
0000
0010
0000
1000
0000
0010
0000
0100
,  // measure 11
1000
0100
0000
0010
0000
0000
1000
0100
0000
0001
0000
0100
0000
1000
0000
0100
,  // measure 12
0010
0100
0000
0001
0000
0000
1000
0010
0000
0001
0000
0010
0000
1000
0000
0010
,  // measure 13
0100
0010
0000
0001
0000
0000
0100
0001
0000
0100
0000
1000
0002
0000
0000
0000
,  // measure 14
1003
0010
0000
0010
1000
0000
0010
1000
0000
1000
0000
0010
0200
0000
0000
0000
,  // measure 15
0301
0010
0000
0010
0001
0000
0100
0010
0000
0010
0000
1000
0020
0000
0000
0000
,  // measure 16
1030
0010
1000
0010
2000
0000
0000
0000
3001
0100
0001
0100
0002
0000
0000
0000
,  // measure 17
2003
0000
0000
0010
0000
0000
0010
0000
0000
0010
0000
0000
3010
0000
0100
0010
,  // measure 18
0001
0000
0000
0000
0000
0000
0000
0000
0000
0001
0000
0000
1000
0000
0000
0000
0000
0000
0000
0000
0000
1000
0000
0000
0010
0000
0000
0000
0000
0000
0000
0000
0000
0000
0000
0000
0000
0000
0000
0000
0000
0000
0100
0000
0010
0000
0100
0000
,  // measure 19
0010
0000
0000
0000
0000
0000
0000
0000
0000
0010
0000
0000
1000
0000
0000
0000
0000
0000
0000
0000
0000
1000
0000
0000
0001
0000
0000
0000
0000
0000
0010
0000
0000
0000
0000
0000
0001
0000
1000
0000
0001
0000
1000
0000
0000
0000
0000
0000
,  // measure 20
0100
0000
0001
0000
0100
0000
0010
0100
0010
0000
1000
0000
0001
0000
0100
0010
,  // measure 21
0100
0000
0001
0000
1000
0000
0001
0100
0001
0000
1000
0000
0010
0100
0010
0100
,  // measure 22
0010
0000
0000
0000
0000
0000
0000
0000
0000
0001
0000
0000
0010
0000
0000
0000
0000
0000
0000
0000
0000
1000
0000
0000
0010
0000
0000
0000
0000
0000
0000
0000
0000
0000
0000
0000
0000
0000
0000
0000
0000
0000
0001
0000
0010
0000
0001
0000
,  // measure 23
0010
0000
0000
0000
0000
0000
0000
0000
0000
0010
0000
0000
1000
0000
0000
0000
0000
0000
0000
0000
0000
1000
0000
0000
0001
0000
0000
0000
0000
0000
0001
0000
0000
0000
0000
0000
0100
0000
0010
0000
0100
0000
0010
0000
0000
0000
0000
0000
,  // measure 24
1000
0000
0100
0000
0010
0000
0001
0010
0002
0000
0000
0000
0000
0000
1003
0000
,  // measure 25
0100
0010
1000
0001
0110
0000
1001
0000
,  // measure 26
0020
0000
0000
0000
0000
0000
0031
0100
0001
0000
0000
0000
0010
0000
0100
0000
0001
1000
0001
0000
0010
0000
0100
0000
2000
0000
0000
0000
3002
0000
0000
0000
,  // measure 27
0203
0000
0000
0000
0000
0000
0310
0100
0010
0000
1000
0000
0010
0000
0000
0000
0100
0000
0001
0000
0100
0000
0010
0100
0010
0000
0000
0100
0000
0000
0010
0000
,  // measure 28
2002
0000
0000
0000
0000
0000
0000
0000
0000
0000
0000
0000
0000
0000
0000
0000
0000
0000
0000
0000
0000
0000
0000
0000
0000
0000
0000
0000
0000
0000
0000
0000
3003
0000
0000
0000
0010
0000
0000
0000
0000
0000
1000
0000
0000
0000
0000
0000
0020
0000
0000
0000
0000
0000
0000
0000
0000
0000
0000
0000
0000
0000
0000
0000
0000
0000
0000
0000
0000
0000
0000
0000
0130
0000
0000
0000
0000
0000
0000
0000
0000
0000
0000
0000
0000
0000
0000
0000
0000
0000
0000
0000
0000
0000
0000
0000
1000
0000
0000
0000
0000
0000
0001
0000
0000
0000
0000
0000
1000
0000
0000
0000
0000
0000
0000
0000
0000
0000
0000
0000
0010
0000
0000
0000
0000
0000
0000
0000
0000
0000
0000
0000
0100
0000
0000
0000
0000
0000
0000
0000
0000
0000
0000
0000
0001
0000
0000
0000
0000
0000
0000
0000
0000
0000
0000
0000
1000
0000
0000
0000
0000
0000
0000
0000
0000
0000
0000
0000
1001
0000
0000
0000
0000
0000
0000
0000
0000
0000
0000
0000
0000
0000
0000
0000
0000
0000
0000
0000
0000
0000
0000
0000
,  // measure 29
0100
0000
0000
0100
0001
0000
0000
0001
1000
0000
0000
1000
0010
0000
0000
0010
,  // measure 30
0100
0000
0001
0000
0100
0000
0001
0000
1000
0001
1000
0001
1000
0001
1000
0000
,  // measure 31
0020
0000
0000
0000
0000
0000
1030
0100
,  // measure 32
2000
0000
0000
0000
0000
0000
3001
0010
,  // measure 33
0002
0203
0320
2030
,  // measure 34
3200
0000
0000
0000
,  // measure 35
0320
0000
0000
0000
0000
0000
1030
0100
,  // measure 36
2000
0000
0000
0000
0000
0000
3010
0001
,  // measure 37
0020
0230
0302
2003
,  // measure 38
3200
0000
0000
0300
,  // measure 39
0020
0000
0000
0000
0000
0000
0000
0000
0030
0000
1000
0000
0001
0100
0001
0000
,  // measure 40
0000
0000
0010
0000
1000
0010
1000
0000
0001
0000
0100
0001
0100
0000
0010
0000
,  // measure 41
1000
0000
0000
1000
0100
0000
0000
0100
0010
0000
0000
0010
0001
0000
0100
0000
,  // measure 42
0000
0000
0100
0000
0001
0100
0001
0000
1000
0000
0010
1000
0010
0000
0100
0000
,  // measure 43
0001
0000
0000
0001
0100
0000
0000
0100
0010
0000
1000
0000
0001
1000
0001
0000
,  // measure 44
0200
0000
0000
0000
0000
0000
0310
0100
0020
0000
0000
0000
0000
0000
1030
0010
,  // measure 45
1000
0100
1000
0200
0000
0310
0001
0010
,  // measure 46
0000
0101
0000
1100
0000
0101
0000
1100
,  // measure 47
0010
0000
0011
0000
0010
0000
1010
0000
1000
0000
1100
0000
0001
0100
0001
0000
,  // measure 48
2002
0000
0000
3003
,  // measure 49
1000
0000
0000
1001
0000
0000
1001
0000
0000
0000
1001
0000
1001
0000
1001
0000
,  // measure 50
0000
0000
0010
0000
1000
0010
1000
0000
0100
0000
0001
0100
0001
0000
0010
1000
,  // measure 51
0010
0000
0000
0010
0100
0000
0000
0100
0001
0000
1000
0000
0001
1000
0001
0000
,  // measure 52
0200
0000
0000
0000
0310
0000
0001
1000
0002
0000
0000
0000
1003
0000
0010
0100
,  // measure 53
0010
1000
0001
2000
0000
3010
0100
0010
,  // measure 54
0000
1010
0000
1010
0000
0101
0000
0101
,  // measure 55
1000
0001
1000
0000
0010
0100
0010
0000
1000
0000
0001
0000
0010
0000
0100
0000
,  // measure 56
2000
0000
0000
0000
3002
0000
0000
0000
0103
0000
0000
0010
0000
0000
0100
0000
,  // measure 57
0001
0010
0100
1000
0020
0000
0230
0000
,  // measure 58
0301
0000
1000
0000
0001
0000
1000
0000
0100
0000
0000
0001
0000
0000
2000
0000
,  // measure 59
0010
0000
0000
0000
3010
0100
0010
0100
0010
0000
0000
0000
1000
0000
0000
0000
,  // measure 60
1100
0000
0000
0000
0110
0000
0000
0100
0010
0000
0000
0010
0002
0000
0000
0000
,  // measure 61
0103
0000
0010
0100
0001
1000
0010
0010
,  // measure 62
0001
0001
0100
0100
1000
0010
2000
0000
,  // measure 63
0000
0000
0000
0000
3020
0000
0000
0000
0032
0000
0000
0000
0103
0000
0000
0010
,  // measure 64
0000
0000
0100
0000
0001
0000
0100
0000
1000
0000
0100
0000
0010
0000
0000
0100
,  // measure 65
0000
0000
0010
0000
1000
0000
0100
0000
0001
0000
0100
0000
1000
0000
0000
1000
,  // measure 66
0000
0000
1000
0000
0010
0000
0100
0000
0010
0000
0100
0000
0001
0000
0000
0001
,  // measure 67
0000
0000
0001
0000
0100
0000
0010
0000
0200
0000
0000
0000
0301
0000
0000
0001
,  // measure 68
0000
0000
0001
0000
1000
0000
0100
0000
0020
0000
0000
0000
0130
0000
0000
0001
,  // measure 69
0000
0000
0100
0000
0010
0000
0100
0000
0020
0000
0000
0000
1030
0010
1000
0000
,  // measure 70
2002
0000
3003
0000
0100
0001
0100
0000
2002
0000
3003
0000
0010
0000
0000
0001
,  // measure 71
0000
0000
0100
0000
0000
1000
0000
0000
0010
0000
0100
0000
2002
0000
0000
0000
,  // measure 72
0000
0000
0000
0000
,  // measure 73
0000
0000
0000
3003
;

//---------------dance-double - ----------------
#NOTES:
     dance-double:
     :
     Challenge:
     13:
     0.418295,0.603476,0.271836,0.403871,0.217469,377.000000,342.000000,35.000000,52.000000,0.000000,0.000000,0.418295,0.603476,0.271836,0.403871,0.217469,377.000000,342.000000,35.000000,52.000000,0.000000,0.000000:
00000000
00000000
00000000
00000000
,
00000000
00000000
00000000
00000000
,
00000000
00000000
00000000
00000000
,
00000000
00000000
00000000
00000000
,
00000000
00000000
00000000
00000000
,
00000000
00000000
00000000
00000000
,
00000000
00000000
00000000
00000000
,
00000000
00000000
00000000
00000000
,
00000000
00000000
00000000
00000000
,
00000000
00000000
00000000
00000000
,
00010000
00100000
00010000
00000000
00100000
00001000
00100000
00000000
,
00010000
00000100
00010000
00000000
00000100
00001000
00000010
00000000
,
00000010
00000001
00000100
00000000
00000010
00001000
00000100
00000000
,
00000100
00010000
00001000
00000000
00001000
00100000
00110000
00000000
,
01000000
00100000
01000000
10000000
01000000
00000000
10010000
00000000
,
00100000
00010000
00001000
00010000
00100000
00000000
00101000
00000000
,
00020000
00031000
00002000
00013000
,
00010000
00000000
00000000
00001000
00000000
00000000
00020000
00000000
00002000
00000000
00000000
00000000
00033000
00000000
00000000
00000000
,
00001100
00000000
00000000
00000100
00000010
00000000
00000000
00000010
00000001
00000000
00000000
00000000
00000000
00000000
00000001
00001000
,
00000001
00000000
00000000
00000001
00001000
00000000
00000000
00001000
00000010
00000000
00000100
00000000
00001000
00000000
00000100
00000000
,
00010000
00000000
00000000
00010000
00001000
00000000
00000000
00001000
01000000
00000000
00000000
01000000
00010000
00000000
00000000
00010000
,
10000000
00000000
00000000
10000000
00100000
00000000
00000000
00100000
01000000
00000000
00000000
01000000
00010000
00000000
00100000
00000000
,
00010000
00000000
00000000
00010000
00001000
00000000
00000000
00001000
01000000
00000000
00000000
00000000
00000000
00000000
01000000
00100000
,
01000000
00000000
00000000
01000000
00001000
00000000
00000000
00001000
00010000
00000000
00000100
00000000
00010000
00000000
00001000
00000000
,
00200000
00000000
00000000
00000000
00300000
00000000
01000000
00200000
02000000
00000000
00000000
00000000
03300000
00000000
00000000
00000000
,
10000000
01000000
00100000
00010000
00020200
00000000
00030300
00000000
,
00001000
00000000
00000100
00001000
00000020
00000000
00000030
00000000
00002000
00000000
00003010
00000100
00000002
00000000
00000103
00000000
,
00002000
00000000
00000000
00000000
00003010
00000000
00000100
00000000
00000020
00000000
00000000
00000000
00000030
00000000
00000000
00000000
00000100
00000000
00010000
00000000
00000100
00000000
00010000
00000000
00000100
00000000
00000000
00001000
00000000
00000000
00010000
00000000
,
00002000
00000000
00000000
00000000
00203000
00000000
00000000
00000000
00310000
00000000
01000000
10000000
02000000
00000000
03020000
00000000
,
00130000
10010000
00100000
10010000
,
00220000
00000000
00000000
00330000
,
00002000
00000000
00000000
00000000
,
00203000
00000000
00000000
00000000
,
00310000
01000000
10000000
01000000
,
00020000
00000000
00000000
00000000
,
00032000
00000000
00000000
00000000
,
00003002
00000000
00000000
00000103
,
00001000
00000010
00000100
00020000
,
00002000
00000000
00000000
00033000
,
00022000
00000000
00033000
00000000
00000000
00000100
00001000
00010000
,
00000000
00010000
00001000
00000100
00010000
00001000
00000100
00001000
,
00000010
00000000
00000000
00000010
00001000
00000000
00000000
00001000
00000100
00000000
00000000
00000100
00001000
00000000
00000010
00000000
,
00000000
00000001
00000100
00001000
00000001
00000100
00001000
00000100
,
00001000
00000000
00000000
00001000
00010000
00000000
00000000
00010000
00001000
00000000
00100000
00000000
00010000
00000000
00100000
00000000
,
00002000
00000000
00023000
00000000
,
00030100
00000000
00001000
00000000
00000010
00000000
00000001
00000000
00000000
00000000
00000001
00000000
00001000
00000001
00001000
00000000
,
00000000
00001001
00000000
00010010
00000000
00011000
00000000
01001000
,
00000000
10010000
00000000
00101000
00000000
00011000
00000000
00010100
,
00002000
00000000
00000000
00000000
,
00010000
00010000
00010000
00013000
00000000
00101000
00101000
00101000
,
00000000
00010000
01000000
10000000
00010000
01000000
10000000
00100000
,
00010000
00000000
00000000
00010000
00000100
00000000
00000000
00000100
00000010
00000000
00000100
00000000
00001000
00000000
00000100
00000000
,
00020000
00000000
00032000
00000000
,
00103000
00010000
00100000
00010000
00000000
00100000
10000000
00100000
,
00000000
10010000
00000000
01001000
00000000
00011000
00000000
00020000
,
00002000
00000000
00000000
00033000
00001000
00100000
00001000
00100000
,
00010000
00000000
02000000
00000000
,
03100000
10000000
00100000
01000000
00020000
00000000
10000000
00000000
,
10030000
00000000
00100000
00000000
01000000
00000000
00010000
00000000
00100000
00000000
00000000
00010000
00000000
00000000
00001000
00000000
,
00000000
00000010
00001000
00000100
00000010
00000000
00010000
00000000
,
00011000
00001010
00001001
00001020
,
00000100
00000000
00000000
00000000
00000001
00000000
00000000
00000000
00000130
00000000
00000000
00000000
00001000
00000000
00000100
00010000
,
00000100
00000000
00001000
01000000
00001000
00000000
10000000
00010000
10000000
00000000
01000000
00001000
02000000
00000000
00000000
00000000
,
03000000
00000000
00000000
00000000
00010000
00000000
00100000
00000000
01000000
00000000
10000000
00000000
01000000
00000000
00000000
01000000
,
00001000
00000000
00000000
00001000
01000000
00000000
00000000
01000000
00100000
00000000
00000000
00100000
01000000
00000000
00000000
01000000
,
00010000
00000000
00000000
00010000
00100000
00000000
00000000
00100000
00001000
00010000
00001000
00000000
00010000
00000000
00000000
00010000
,
00000100
00000000
00000000
00000100
00001000
00000000
00000000
00001000
00000010
00000000
00000000
00000010
00000100
00000000
00000000
00000100
,
00000001
00000000
00000000
00000001
00000010
00000100
00001000
00000000
00002002
00000000
00003003
00000000
00000010
00000000
00000100
00000000
,
00001000
00000100
00010000
00001000
00022000
00033000
00001000
00100000
,
00010000
01000000
00100000
00020000
00002000
00033000
00000100
00010000
,
00020200
00000000
00030300
00000000
00001000
00000000
00100000
00000000
00202000
00000000
00303000
00000000
00011000
00000000
00000000
00101000
,
00000000
00101000
00000000
00010000
00001000
00000000
00022000
00000000
,
00000000
00000000
00000000
00000000
,
00000000
00000000
00000000
00000000
,
00033000
00000000
00000000
00000000
;

//---------------dance-double - ----------------
#NOTES:
     dance-double:
     :
     Hard:
     10:
     0.388337,0.515518,0.155335,0.403871,0.097084,350.000000,330.000000,20.000000,52.000000,0.000000,0.000000,0.388337,0.515518,0.155335,0.403871,0.097084,350.000000,330.000000,20.000000,52.000000,0.000000,0.000000:
00000000
00000000
00000000
00000000
,
00000000
00000000
00000000
00000000
,
00000000
00000000
00000000
00000000
,
00000000
00000000
00000000
00000000
,
00000000
00000000
00000000
00000000
,
00000000
00000000
00000000
00000000
,
00100000
00100000
00100000
00100000
,
00010000
00010000
00010000
00010000
,
00001000
00010000
00001000
00010000
00001000
00010000
00001000
00020000
,
00002000
00000000
00000000
00033000
,
00100000
00010000
01000000
00010000
01000000
00010000
00100000
00000000
,
00100000
00001000
00010000
00001000
00100000
00001000
00010000
00000000
,
00010000
00001000
00000100
00001000
00010000
00001000
00000100
00000000
,
00001000
00000100
00000010
00000100
00001000
00000000
00001001
00000000
,
00000010
00000100
00000010
00000100
00000010
00000000
00001001
00000000
,
00000100
00010000
00000100
00010000
00000100
00000000
00011000
00000000
,
00100000
00010000
01010000
00000000
00100000
10000000
11000000
00000000
,
00100000
00000000
00000000
00100000
00000000
00000000
00200000
00000000
00000000
00000000
00300000
00000000
00011000
00000000
00000000
00000000
,
00100000
00000000
00000000
00100000
00001000
00000000
00000000
00001000
00010000
00000000
00000000
00000000
00000000
00000000
00010000
00001000
,
00010000
00000000
00000000
00010000
00001000
00000000
00000000
00001000
00010000
00000000
00001000
00000000
00010000
00000000
00000100
00000000
,
00001000
00000000
00000100
00000000
00010000
00000000
00001000
00100000
,
00010000
00000000
00100000
00000000
00010000
01000000
10000000
01000000
,
00010000
00000000
00000000
00010000
10000000
00000000
00000000
10000000
00010000
00000000
00000000
00000000
00000000
00000000
00100000
00010000
,
00100000
00000000
00000000
00100000
00001000
00000000
00000000
00001000
00100000
00000000
00010000
00000000
00001000
00000000
00010000
00000000
,
00100000
00000000
00000000
00010000
00001000
00000000
00000000
00000000
,
00001000
00000000
00000100
00000000
00000010
00000000
00000001
00000000
00001000
00000010
00001000
00000010
00020000
00000000
00000000
00000000
,
00030200
00000000
00000000
00000000
00000000
00000000
00000000
00000000
00010300
00000000
00000000
00000000
00000000
00000000
00000000
00000000
00100000
00000000
00000000
00001000
00000000
00000000
00010000
00000000
00001000
00000000
00000000
00000000
00000000
00000000
00000000
00000000
,
00020000
00000000
00000000
00000000
00000000
00000000
00000000
00000000
00030100
00000000
00000000
00000000
00000000
00000000
00000000
00000000
00001000
00000000
00000010
00000000
00001000
00000000
00000010
00000000
00000100
00000000
00000000
00000100
00000000
00000000
00000100
00000000
,
00000020
00000000
00000000
00000000
00001000
00000000
00000000
00000000
00000031
00000000
00000000
00000000
00000000
00000000
00000000
00000000
00000100
00000000
00000000
00010000
00000000
00000000
00000100
00000000
00020000
00000000
00000000
00000000
00031000
00000000
00000000
00000000
,
00020000
00031000
00002000
00003100
,
00000200
00000010
00000010
00000010
00000010
00000000
00000310
00000000
,
00000002
00000000
00000000
00000103
,
00002000
00000000
00000000
00000000
00000000
00000000
00003010
00000100
,
00000010
00000100
00010000
00001000
,
00020000
00000000
00000000
00030000
,
02000000
00000000
00000000
00000000
00000000
00000000
03100000
10000000
,
00200000
00000000
00000000
00310000
,
00001000
00000010
00000100
00000002
,
00002000
00000000
00000000
00003003
,
00022000
00000000
00000000
00033000
,
00000000
00001000
00010000
00001000
00100000
00010000
00100000
00000000
,
10100000
00000000
01100000
00000000
01010000
00000000
00100000
00001000
,
00000000
00010000
00001000
00010000
00000100
00001000
00000100
00001000
,
00000010
00000000
00000100
00000000
00000001
00001000
00000001
00001000
,
00000020
00000000
00000000
00001030
00002000
00000000
00000000
00000000
,
00003100
00010000
00000100
00020000
00000000
00031000
00010000
00001000
,
00000000
00011000
00000000
00011000
00000000
00101000
00000000
00101000
,
00000000
00011000
00000000
00011000
00000000
00010000
00000100
00010000
,
00002000
00000000
00000000
00000000
,
00000100
00000000
00000000
00010000
00000000
00000000
00000100
00000000
00000000
00010000
00000000
00000000
00013000
00000000
00010000
00000000
,
00000000
00000100
00001000
00000100
00010000
00001000
00010000
00002000
,
00100000
00000000
00010000
00000000
00103000
00010000
01000000
00010000
,
00200000
00000000
00000000
00301000
00002000
00000000
00000000
00013000
,
00010000
00000100
00010000
00000200
00000000
00001300
00000100
00002000
,
00000000
00000010
00000000
00000010
00000000
00000001
00000000
00003002
,
00002000
00000000
00000000
00003003
00000010
00000100
00001001
00000000
,
00020000
00000000
00032000
00000000
,
00103000
00000000
00010000
00000000
02000000
00000000
00000000
03000000
,
00100000
00000000
10000000
00000000
00100000
00000000
10000000
00000000
00100000
00000000
00000000
01000000
00000000
00000000
00200000
00000000
,
00000000
01300000
00010000
01000000
00020000
00000000
00002000
00033000
,
00000200
00000300
00000020
00000030
00000002
00000003
00002000
00000000
,
00000020
00000000
00000000
00000000
00003030
00000000
00000010
00010000
,
00000010
00010000
00000100
00010000
00000100
00010000
00002000
00000000
,
00100000
00100000
00013000
00022000
,
00000000
00000000
00000000
00000000
00033000
00000000
00010000
00001000
,
00100000
00000000
00010000
00001000
00100000
00000000
00010000
01000000
,
10000000
00000000
00010000
01000000
10000000
00000000
01000000
00100000
,
00001000
00000000
01000000
00100000
00002000
00000000
00013000
00000100
,
00001000
00000000
00010000
00000100
00002000
00000000
00003010
00000001
,
00000100
00000000
00000010
00000001
00000200
00000000
00000310
00010000
,
00002000
00000000
00000000
00000000
00013000
00000000
00000100
00000000
00020000
00000000
00000000
00000000
00031000
00000000
00000000
00010000
,
00000000
00011000
00000000
00000000
00000000
00000000
00022000
00000000
,
00000000
00000000
00000000
00000000
,
00000000
00000000
00000000
00033000
;

//---------------dance-single - ----------------
#NOTES:
     dance-single:
     :
     Hard:
     11:
     0.391666,0.515518,0.178635,0.411638,0.093201,353.000000,330.000000,23.000000,53.000000,0.000000,0.000000,0.391666,0.515518,0.178635,0.411638,0.093201,353.000000,330.000000,23.000000,53.000000,0.000000,0.000000:
0000
0000
0000
0000
,
0000
0000
0000
0000
,
0000
0000
0000
0000
,
0000
0000
0000
0000
,
0000
0000
0000
0000
,
0000
0000
0000
0000
,
0001
0001
0001
0001
,
1000
1000
1000
1000
,
0001
1000
0001
1000
0001
1000
0001
2000
,
0002
0000
0000
3003
,
0100
0001
0010
0001
0010
0001
0100
0000
,
0100
0010
1000
0010
0100
0010
1000
0000
,
1000
0100
0010
0100
1000
0100
0010
0000
,
0001
0010
0100
0010
0001
0000
1001
0000
,
0100
0010
0100
0010
0100
0000
1001
0000
,
0010
1000
0010
1000
0010
0000
1001
0000
,
0100
1000
1001
0000
0100
0010
0110
0000
,
0100
0000
0000
0100
0000
0000
0200
0000
0000
0000
0300
0000
1001
0000
0000
0000
,
0100
0000
0000
0100
0001
0000
0000
0001
1000
0000
0000
0000
0000
0000
1000
0001
,
1000
0000
0000
1000
0001
0000
0000
0001
1000
0000
0001
0000
1000
0000
0010
0000
,
0001
0000
0010
0000
1000
0000
0001
0100
,
1000
0000
0100
0000
1000
0010
0001
0010
,
1000
0000
0000
1000
0010
0000
0000
0010
1000
0000
0000
0000
0000
0000
0001
1000
,
0001
0000
0000
0100
0001
0000
0000
0001
0100
0000
0010
0000
0100
0000
1000
0000
,
0100
0000
0000
1000
0010
0000
0000
0000
,
0010
0000
0001
0000
0100
0000
1000
0000
0010
0100
0010
0100
0020
0000
0000
0000
,
0230
0000
0000
0000
0000
0000
0000
0000
1300
0000
0000
0000
0000
0000
0000
0000
0100
0000
0000
0010
0000
0000
1000
0000
0010
0000
0000
0000
0000
0000
0000
0000
,
2000
0000
0000
0000
0000
0000
0000
0000
3001
0000
0000
0000
0000
0000
0000
0000
0010
0000
0100
0000
0010
0000
0100
0000
0001
0000
0000
0001
0000
0000
0001
0000
,
0200
0000
0000
0000
0010
0000
0000
0000
1300
0000
0000
0000
0000
0000
0000
0000
0001
0000
0000
1000
0000
0000
0001
0000
2000
0000
0000
0000
3010
0000
0000
0000
,
2000
3010
0020
0031
,
0002
0100
0100
0100
0100
0000
0103
0000
,
2000
0000
0000
3001
,
0020
0000
0000
0000
0000
0000
0130
0001
,
0100
0001
1000
0010
,
2000
0000
0000
3000
,
0002
0000
0000
0000
0000
0000
0103
0010
,
0200
0000
0000
1300
,
0010
0100
0001
2000
,
0002
0000
0000
3003
,
2002
0000
0000
3003
,
0000
0010
0100
0010
0100
0010
0100
0000
,
0110
0000
1001
0000
0110
0000
0100
0010
,
0000
1000
0010
1000
0001
0010
0001
0010
,
0100
0000
0001
0000
1000
0010
1000
0010
,
0200
0000
0000
0310
0020
0000
0000
0000
,
0031
1000
0001
2000
0000
3010
1000
0010
,
0000
1001
0000
1001
0000
0110
0000
0110
,
0000
1001
0000
1001
0000
1000
0001
1000
,
2002
0000
0000
0000
0000
0000
0000
3003
,
0100
0000
0000
0010
0000
0000
0100
0000
0000
0000
1000
0000
1001
0000
1001
0000
,
0000
0001
0010
0001
1000
0010
1000
0020
,
0100
0000
1000
0000
0130
1000
0001
1000
,
0200
0000
0000
0310
0020
0000
0000
1030
,
1000
0001
1000
0002
0000
0013
0001
0020
,
0000
0100
0000
0100
0000
1000
0000
2030
,
0020
0000
0000
3030
0100
0010
1001
0000
,
2000
0000
3020
0000
,
0130
0000
1000
0000
0002
0000
0000
0003
,
0100
0000
0010
0000
0100
0000
0010
0000
0100
0000
0000
0001
0000
0000
0200
0000
,
0000
0301
1000
0001
2000
0000
0020
3030
,
0002
0003
0200
0300
2000
3000
0020
0000
,
0200
0000
0000
0000
0330
0000
0100
1000
,
0100
1000
0001
1000
0001
1000
0020
0000
,
0100
0100
1030
2002
,
0000
0000
0000
0000
3003
0000
1000
0010
,
0100
0000
1000
0010
0100
0000
1000
0010
,
0001
0000
1000
0010
0001
0000
0010
0100
,
0001
0000
0010
0100
0002
0000
1003
0010
,
0001
0000
1000
0010
0002
0000
0103
1000
,
0010
0000
0100
1000
0020
0000
0130
1000
,
0002
0000
0000
0000
1003
0000
0010
0000
2000
0000
0000
0000
3001
0000
0000
1000
,
0000
1001
0000
0000
0000
0000
2002
0000
,
0000
0000
0000
0000
,
0000
0000
0000
3003
;

//---------------dance-double - ----------------
#NOTES:
     dance-double:
     :
     Medium:
     8:
     0.319546,0.458238,0.201935,0.357270,0.007767,288.000000,262.000000,26.000000,46.000000,0.000000,0.000000,0.319546,0.458238,0.201935,0.357270,0.007767,288.000000,262.000000,26.000000,46.000000,0.000000,0.000000:
00000000
00000000
00000000
00000000
,
00000000
00000000
00000000
00000000
,
00000000
00000000
00000000
00000000
,
00000000
00000000
00000000
00000000
,
00000000
00000000
00000000
00000000
,
00000000
00000000
00000000
00000000
,
00100000
00100000
00100000
00100000
,
00001000
00001000
00001000
00001000
,
00010000
00010000
00010000
00010000
,
00022000
00000000
00000000
00033000
,
00010000
00010000
00000100
00000100
,
00001000
00000000
00001000
00000000
00000010
00000100
00000010
00000000
,
00000001
00000001
00000100
00000100
,
00010000
00000000
00010000
00000000
00001000
00010000
00001000
00000000
,
00100000
00000000
00100000
00000000
00010000
01000000
00010000
00000000
,
01000000
00000000
01000000
00000000
10000000
00100000
10000000
00000000
,
01000000
10010000
00100000
10010000
,
02200000
00000000
00000000
03300000
,
10000000
00010000
02000000
03000000
,
00010000
00000000
00001000
00000000
00010000
00001000
00010000
00001000
,
00020000
00000000
00030100
00001000
,
00010000
00100000
00010000
00001000
,
00000100
00000010
00000002
00000003
,
00000100
00000000
00001000
00000000
00000100
00000010
00000100
00000010
,
00000200
00000300
00020000
00000000
,
00031000
00000000
00010000
00000000
00001000
00010000
00001000
00000000
,
00020000
00000000
00031000
00000000
00100000
00010000
00200000
00000000
,
10300000
00000000
00020000
00000000
01030000
00100000
10000000
01000000
,
00020000
00000000
00031000
00000000
00100000
00010000
00000100
00001000
,
00010000
00011000
00001000
00011000
,
00010000
00010000
00001000
00001000
00020000
00000000
00000000
00000000
,
00032000
00000000
00000000
00000000
00003000
00000000
00000100
00000010
,
00000200
00000000
00000000
00000000
00000300
00000000
00010000
00001000
,
00010000
00001000
00010000
00100000
,
02000000
00000000
00000000
03000000
,
00200000
00000000
00000000
00000000
00300000
00000000
00001000
00010000
,
00002000
00000000
00000000
00000000
00003000
00000000
00000010
00000100
,
00000010
00000001
00000010
00002000
,
00020000
00000000
00000000
00033000
,
02200000
00000000
03300000
10010000
,
00000000
01000000
00100000
00000000
01000000
00100000
00000000
01000000
,
00100000
00001000
00010000
00000100
,
00000000
00000010
00000100
00000000
00000010
00000100
00000000
00000010
,
00001000
00000000
00000100
00000000
00010000
00001000
00010000
00000000
,
00002000
00000000
00203000
00000000
,
00310000
00000000
01000000
00010000
00000000
01000000
00000000
00100000
,
00000000
10100000
00000000
10100000
00000000
10100000
00000000
10100000
,
00000000
01010000
00000000
01010000
00000000
01000000
00010000
01000000
,
00000000
00100000
00001000
00000000
00100000
00001000
00000000
00100000
,
00100000
00000000
01000000
00000000
00010000
00000000
00001000
00010000
,
00000000
00001000
00001000
00000000
00000001
00000001
00000000
00000010
,
00000100
00000000
00000001
00000000
00001000
00000001
00001000
00000000
,
00000020
00000000
00002030
00000000
,
00003100
00000000
00010000
00000100
00000000
00010000
00000000
00000100
,
00000000
00011000
00000000
00011000
00000000
00011000
00000000
00020000
,
00002000
00000000
00033000
00011000
,
00200000
00000000
00302000
00000000
,
00013000
00000000
00000000
00010000
00000000
00000000
00020000
00000000
00002000
00000000
00000000
00000000
00033000
00000000
00000000
00000000
,
00002000
00023000
00032000
00023000
,
00031000
00000000
00000000
00100000
00000000
00000000
00002000
00000000
00000000
00000000
00000000
00000000
00013000
00000000
00000000
00000000
,
00100000
00001000
00000100
00020000
,
00000200
00000000
00030300
00000010
,
00001000
00000000
00000100
00000000
00010000
00000000
00001000
00100000
,
00001000
00100000
00002000
00000000
00013000
00000000
00202000
00000000
,
00000000
00000000
00000000
00000000
00303000
00000000
01000000
00010000
,
01000000
00000000
10000000
00100000
10000000
00000000
01000000
00010000
,
01000000
00000000
00100000
00001000
00100000
00000000
00010000
00001000
,
00010000
00000000
00011000
00000000
00010100
00000000
00001000
00000010
,
00001000
00000000
00001100
00000000
00000110
00000000
00000001
00000100
,
00000001
00000000
00000101
00000000
00001010
00000000
00000100
00001000
,
00000100
00000000
00010000
00001000
00010000
00000000
00200000
00000000
,
00000000
00000000
00301000
00022000
,
00000000
00000000
00000000
00000000
,
00000000
00000000
00000000
00033000
;

//---------------dance-single - ----------------
#NOTES:
     dance-single:
     :
     Medium:
     8:
     0.330642,0.486878,0.194169,0.302903,0.003883,298.000000,273.000000,25.000000,39.000000,0.000000,0.000000,0.330642,0.486878,0.194169,0.302903,0.003883,298.000000,273.000000,25.000000,39.000000,0.000000,0.000000:
0000
0000
0000
0000
,
0000
0000
0000
0000
,
0000
0000
0000
0000
,
0000
0000
0000
0000
,
0000
0000
0000
0000
,
0000
0000
0000
0000
,
1000
1000
1000
1000
,
0001
0001
0001
0001
,
0100
0010
0100
0000
0010
0100
0010
0000
,
0220
0000
0000
0330
,
1000
0010
0000
1000
0000
0010
0000
0100
,
0100
0001
0000
0100
0000
0001
0000
0010
,
0010
0100
0000
0010
0000
0100
0000
0001
,
0001
1000
0000
0001
0000
1000
0001
0000
,
0100
0010
0000
0100
0010
0100
0010
0000
,
1000
0100
0000
1000
0100
1000
0100
0000
,
0010
0001
0010
0000
0100
0010
0100
0000
,
2002
0000
0000
3003
,
0100
0010
0200
0300
,
0001
0000
1000
0000
0001
0100
0001
0000
,
1000
0001
1000
0000
0001
0100
0001
0000
,
0010
1000
0010
0000
1000
0100
1000
0100
,
1000
0010
0200
0300
,
0001
0000
1000
0000
0010
0100
0010
0000
,
1000
0100
1000
0000
0001
0010
0001
0000
,
0100
0000
0010
0000
1000
0010
1000
0000
,
0101
0000
1100
0000
0001
0100
1000
0000
,
1100
0000
0101
0000
1000
0100
0001
0000
,
0110
0000
1001
0000
0001
0100
1000
0000
,
0010
1001
0100
1001
,
0010
0100
0010
0200
0020
0000
0330
0000
,
2000
0000
0000
0000
0000
0000
3010
0100
,
0020
0000
0000
0000
0000
0000
0031
0100
,
0001
0100
1000
0100
,
0002
0000
0000
0003
,
2000
0000
0000
0000
0000
0000
3010
0100
,
0020
0000
0000
0000
0000
0000
0130
0001
,
0100
0010
1000
0100
,
2002
0000
0000
3003
,
0220
0000
0000
0000
0330
0000
0001
0100
,
0000
0010
0000
0100
0010
0000
0100
0010
,
1000
0000
0100
0000
0001
0100
0001
0100
,
0000
0010
1000
0000
0010
1000
0000
0100
,
0100
0001
0010
1000
,
0200
0000
0320
0000
,
1030
0000
0001
1000
0000
0001
1000
0001
,
0000
1001
0000
1001
0000
1001
0000
1001
,
0000
1001
0000
1000
0100
1000
0100
1000
,
2002
0000
0000
3003
,
0020
0230
0301
1001
,
0000
0100
0010
0000
0100
0010
0000
1000
,
0001
1000
0001
1000
0000
0010
0100
0000
,
0002
0003
2000
3000
,
0010
0100
0010
0100
0000
0100
0010
0100
,
0000
0110
0000
0110
0000
0110
0000
2000
,
0002
0000
0000
3003
,
0020
0000
0000
0030
,
0001
0100
2000
3000
,
0010
0100
0010
0000
1000
0001
1000
0000
,
0020
0130
0002
1003
,
0020
0130
0001
2000
,
0000
0000
0020
0000
3030
0000
0100
0001
,
0100
0000
1000
0010
1000
0000
0200
0000
,
0000
0301
0020
2000
,
0000
0000
0000
3030
,
0100
0001
0100
1000
,
0100
0000
0001
0100
0001
0000
0001
0000
,
0100
0000
1000
0100
1000
0000
0010
0000
,
0001
0000
0010
1000
0010
0000
0100
0000
,
0001
0000
0100
1000
0100
0000
0010
0100
,
0110
0000
0000
0000
1000
0000
0001
0000
1001
0000
0000
0000
0010
0000
0000
0010
,
0000
0010
0000
0000
0000
0000
2002
0000
,
0000
0000
0000
0000
,
0000
0000
0000
3003
;

//---------------dance-double - ----------------
#NOTES:
     dance-double:
     :
     Easy:
     5:
     0.224126,0.315039,0.093201,0.357270,0.000000,202.000000,190.000000,12.000000,46.000000,0.000000,0.000000,0.224126,0.315039,0.093201,0.357270,0.000000,202.000000,190.000000,12.000000,46.000000,0.000000,0.000000:
00000000
00000000
00000000
00000000
,
00000000
00000000
00000000
00000000
,
00000000
00000000
00000000
00000000
,
00000000
00000000
00000000
00000000
,
00000000
00000000
00000000
00000000
,
00000000
00000000
00000000
00000000
,
00100000
00000000
00100000
00000000
,
00001000
00000000
00001000
00000000
,
00010000
00001000
00010000
00001000
,
00020000
00000000
00000000
00030000
,
00000100
00000100
00000100
00000100
,
00000001
00001000
00000001
00001000
,
00000010
00000010
00000010
00000010
,
00001000
00000001
00002000
00003000
,
00100000
00100000
00010000
10010000
,
00100000
00100000
10000000
10010000
,
02000000
03000000
00200000
00300000
,
00022000
00000000
00000000
00033000
,
00000100
00000100
00001000
00000000
,
00100000
00100000
00010000
00001000
,
00010000
00001000
00010000
00001000
,
00010000
00001000
00010000
00000000
,
00100000
00100000
00001000
00000000
,
00000100
00000100
00010000
00001000
,
00010000
00000000
00011000
00000000
,
00010000
00001000
00010000
00011000
,
00200000
00310000
20000000
31000000
,
00200000
00301000
00020000
00030100
,
00000020
00001030
00000200
00000301
,
00002002
00003003
00000220
00000330
,
00000100
00001000
00010000
00100000
,
02000000
00000000
00000000
00000000
,
03020000
00000000
00000000
00000000
,
00031000
00000100
00001000
00000100
,
00002000
00000000
00000000
00003000
,
00000002
00000000
00000000
00000003
,
00000200
00000000
00000000
00000300
,
00100000
00001000
00100000
00010000
,
02000000
00000000
00000000
03000000
,
20020000
00000000
30030000
00000000
,
00000000
00001000
00010000
00001000
,
00010000
00000100
00000100
00000100
,
00000000
00010000
00001000
00010000
,
00001000
00100000
00100000
00100000
,
00020000
00030000
02000000
03000000
,
10000000
00100000
10000000
00100000
,
00000000
00010000
00000000
00001000
00000000
00010000
00000000
00001000
,
00000000
00010000
00000000
00001000
00000000
00000000
00020000
00000000
,
00000200
00000000
00000000
00030300
,
00002000
00003000
00000000
00011000
,
00000000
00000100
00000010
00000100
,
00000010
00000001
00000100
00001000
,
00000002
00000003
00002000
00003000
,
00000100
00010000
00100000
00010000
,
00000200
00000000
00000000
00000300
,
00020000
00000000
00032000
00000000
,
00103000
00010000
02000000
03000000
,
10000000
01000000
00200000
00300000
,
20000000
30000000
00020000
00030000
,
00100000
00001000
00020000
00030000
,
00001000
00000010
00001000
00000020
,
00000000
00000000
00000030
00000001
,
00000100
00000001
00000100
00000020
,
00000030
00001000
00000100
00020000
,
00000000
00000000
00030000
00001000
,
00001000
00001000
00001000
00100000
,
00100000
00100000
00100000
01000000
,
01000000
01000000
10010000
00100000
,
00100000
00100000
00010000
00000100
,
00000100
00000100
00001000
00100000
,
00010000
00000100
00001000
00022000
,
00000000
00033000
00000000
00022000
,
00000000
00000000
00000000
00000000
,
00000000
00000000
00000000
00033000
;

//---------------dance-single - ----------------
#NOTES:
     dance-single:
     :
     Beginner:
     3:
     0.115392,0.200479,0.038834,0.069901,0.000000,104.000000,99.000000,5.000000,9.000000,0.000000,0.000000,0.115392,0.200479,0.038834,0.069901,0.000000,104.000000,99.000000,5.000000,9.000000,0.000000,0.000000:
0000
0000
0000
0000
,
0000
0000
0000
0000
,
0000
0000
0000
0000
,
0000
0000
0000
0000
,
0000
0000
0000
0000
,
0000
0000
0000
0000
,
0100
0000
0000
0000
,
0100
0000
0000
0000
,
0100
0000
0100
0000
,
0200
0000
0300
0000
,
0010
0010
0010
0000
,
0100
0100
0100
0000
,
0010
0010
0010
0000
,
0100
0100
0100
0000
,
0010
0000
0000
0010
,
0010
0000
0000
0100
,
0100
0000
0100
0000
,
2002
0000
3003
0000
,
0010
0000
0000
0000
,
1000
0000
0000
0000
,
0001
0000
1000
0000
,
0001
0000
1000
0000
,
0100
0000
0000
0000
,
0001
0000
0000
0000
,
1000
0000
0001
0000
,
1000
0000
0001
0000
,
0100
0000
0000
0000
,
0010
0000
0000
0000
,
0100
0000
0000
0000
,
0010
0000
0000
0000
,
0000
0000
0000
0000
,
1000
0000
0000
0000
,
0001
0000
0000
0000
,
1000
0000
1000
0000
,
1000
0000
0000
0000
,
0001
0000
0000
0000
,
1000
0000
0000
0000
,
0001
0000
0001
0000
,
0001
0000
0000
0000
,
0002
0000
0000
0000
,
0000
0010
0000
0010
,
0000
0100
0000
0100
,
0000
0010
0000
0010
,
0000
0100
0000
0100
,
0000
0000
0001
0001
,
0000
0000
1000
1000
,
0000
0010
0000
0010
,
0000
0100
0000
0100
,
0200
0000
0000
0000
,
0000
0000
0300
0000
,
1001
0000
0000
0000
,
0010
0000
0010
0000
,
0010
0000
0000
0000
,
0100
0000
0100
0000
,
0100
0000
0000
0000
,
2002
0000
3003
0000
,
0010
0000
0000
0000
,
0100
0000
0000
0000
,
0001
0000
0001
0000
,
1000
0000
1000
0000
,
0000
0000
0000
0020
,
0000
0030
0000
0100
,
0000
0100
0000
0100
,
0000
0100
0000
1001
,
0000
0000
0000
0000
,
0000
0000
0000
0010
,
0000
0001
0000
0100
,
0000
1000
0000
0010
,
0000
1000
0000
0100
,
0000
0001
0000
0010
,
0000
0010
0000
0010
,
0000
0000
0000
2002
,
0000
0000
0000
0000
,
0000
0000
0000
3003
;

//---------------dance-single - Copied from----------------
#NOTES:
     dance-single:
     Copied from:
     Easy:
     5:
     0.226345,0.372345,0.139801,0.372804,0.000000,204.000000,186.000000,18.000000,48.000000,0.000000,0.000000,0.226345,0.372345,0.139801,0.372804,0.000000,204.000000,186.000000,18.000000,48.000000,0.000000,0.000000:
0000
0000
0000
0000
,
0000
0000
0000
0000
,
0000
0000
0000
0000
,
0000
0000
0000
0000
,
0000
0000
0000
0000
,
0000
0000
0000
0000
,
0010
0010
0010
0010
,
0100
0100
0100
0100
,
0001
0001
1000
1000
,
2002
0000
0000
3003
,
0100
0001
0100
0001
,
0100
1000
0100
1000
,
0100
0001
0100
0001
,
0100
1000
0200
0300
,
0010
0001
0020
0030
,
0100
1000
0200
0300
,
0022
0033
2200
3300
,
2002
0000
0000
3003
,
0010
0001
0200
0300
,
0010
1000
0200
0300
,
0001
0100
0001
0100
,
1000
0100
1000
0100
,
0010
1000
0200
0300
,
0010
0001
0200
0300
,
0020
0030
0200
0300
,
0000
0000
0001
1000
,
0200
0300
0001
1000
,
0020
0030
1000
0001
,
0200
0300
0001
0010
,
2000
3000
0002
0003
,
2002
0000
0000
3003
,
0020
0000
0000
0030
,
2000
0000
0000
3000
,
0001
0100
0001
0100
,
2000
0000
0000
3000
,
0020
0000
0000
0030
,
0002
0000
0000
0003
,
0100
1000
0100
1000
,
0200
0000
0000
0300
,
2002
0000
3003
0000
,
0100
0010
0100
0010
,
0001
0100
1000
0000
,
0010
0100
0010
0100
,
1000
0100
0001
0000
,
0220
0330
0001
1000
,
0220
0330
1000
0001
,
0100
0100
0001
0001
,
0010
0010
1000
1000
,
2002
0000
0000
0000
,
0000
3003
0000
0110
,
1000
0001
1000
0001
,
0100
0010
0001
0010
,
0100
0000
0010
0000
,
0100
1000
0100
0000
,
1000
0001
1000
0001
,
1000
0000
0010
0100
,
0110
0000
0000
0000
,
0001
1000
0200
0300
,
1000
1000
0002
0003
,
0100
0010
0200
0300
,
1000
0001
1000
0002
,
0000
0003
0000
0100
,
0100
0010
0010
2000
,
3000
0001
0100
0002
,
0000
0000
0003
1000
,
1000
0010
0010
0100
,
0100
0001
0001
1000
,
0010
0100
1001
0001
,
0010
0100
1001
0100
,
0010
1000
1001
0100
,
1001
0010
1001
0220
,
0000
0000
0330
2002
,
0000
0000
0000
0000
,
0000
0000
0000
0000
0000
0000
0000
0000
0000
0000
0000
0000
0000
0000
0000
0000
0000
0000
0000
0000
0000
0000
0000
0000
0000
0000
0000
0000
0000
0000
0000
0000
0000
0000
0000
0000
0000
0000
0000
0000
0000
0000
0000
0000
0000
0000
0000
0000
0000
0000
0000
0000
0000
0000
0000
0000
0000
0000
0000
0000
0000
0000
0000
0000
0000
0000
0000
0000
0000
0000
0000
0000
0000
0000
0000
0000
0000
0000
0000
0000
0000
0000
0000
0000
0000
0000
0000
0000
0000
0000
0000
0000
0000
0000
0000
0000
0000
0000
0000
0000
0000
0000
0000
0000
0000
0000
0000
0000
0000
0000
0000
0000
0000
0000
0000
0000
0000
0000
0000
0000
0000
0000
0000
0000
0000
0000
0000
0000
0000
0000
0000
0000
0000
0000
0000
0000
0000
0000
0000
0000
0000
0000
0000
0000
0000
3003
0000
0000
0000
0000
0000
0000
0000
0000
0000
0000
0000
0000
0000
0000
0000
0000
0000
0000
0000
0000
0000
0000
0000
0000
0000
0000
0000
0000
0000
0000
0000
0000
0000
0000
0000
0000
0000
0000
0000
0000
0000
0000
0000
0000
0000
0000
;
