#TITLE:AO-1;
#SUBTITLE:;
#ARTIST:電龍;
#TITLETRANSLIT:;
#SUBTITLETRANSLIT:;
#ARTISTTRANSLIT:Denryu;
#GENRE:;
#CREDIT:;
#BANNER:AO-1.png;
#BACKGROUND:AO-1-bg.png;
#LYRICSPATH:;
#CDTITLE:;
#MUSIC:AO-1.mp3;
#OFFSET:-1.162999;
#SAMPLESTART:82.059998;
#SAMPLELENGTH:12.000000;
#SELECTABLE:YES;
#BPMS:0.000000=195.001007
;
#STOPS:
;
#BGCHANGES:;
#KEYSOUNDS:;
#ATTACKS:;

//---------------dance-double - ----------------
#NOTES:
     dance-double:
     :
     Challenge:
     14:
     0.766104,0.735983,0.556684,0.176283,0.352567,578.000000,518.000000,60.000000,19.000000,0.000000,0.000000,0.766104,0.735983,0.556684,0.176283,0.352567,578.000000,518.000000,60.000000,19.000000,0.000000,0.000000:
00000000
00000000
00000000
00000000
,
00000000
00000000
00000000
00000000
,
00000000
00000000
00000000
00000000
,
00000000
00000000
00000000
00000000
,
00010000
00000000
00010000
00002000
00000000
00013000
00001000
00000000
,
00000010
00000000
00000100
00000020
00000000
00000130
00000010
00000000
,
00000001
00000000
00001000
00000020
00000000
00001030
00000010
00000000
,
00000100
00000000
00000100
00020000
00000000
00030100
00010000
00000000
,
00001000
00000000
00010000
00001000
00010000
00000000
00001000
00000000
00010000
00000000
00001000
00000000
00010000
00000000
00000000
00000000
,
00010000
00100000
00010000
00000000
01000000
00010000
01000000
00000000
,
00100000
00000000
10000000
00100000
10000000
00000000
00100000
00000000
01000000
00000000
00010000
00000000
01000000
00000000
00000000
00000000
,
00100000
00001000
00100000
00000000
00010000
00001000
00010000
00000000
,
00001000
00000000
00000100
00001000
00000100
00000000
00001000
00000000
00000010
00000000
00001000
00000000
00000010
00000000
00000000
00000000
,
00000100
00000000
00000010
00000100
00000010
00000000
00000100
00000000
00000010
00000000
00001000
00000000
00000010
00000000
00000000
00000000
,
00000001
00000000
00000100
00000010
00000100
00000000
00000001
00000000
00001000
00000000
00000010
00000100
00000010
00000000
00000000
00000000
,
00000100
00000000
00000100
00000000
00010000
00000100
00010000
00000100
00000000
00001000
00000000
00010000
00001000
00000000
00000000
00000000
,
00010000
00000000
00001000
00000000
00010000
00000000
00000100
00010000
00000000
00000000
00001000
00000000
00100000
00000000
00010000
00000000
,
01000000
00000000
00100000
00000000
01000000
00000000
00010000
01000000
00000000
00000000
00100000
00000000
10000000
00000000
01000000
00000000
,
10000000
00000000
00100000
00000000
10000000
00000000
01000000
00010000
00000000
00000000
00100000
00000000
00001000
00000000
00010000
00000000
,
00001000
00010000
00000000
00000000
00010000
00000100
00000000
00000000
00001000
00000100
00000000
00001000
00000000
00000000
00000100
00000000
,
00010000
00000000
00001000
00000000
00010000
00000000
00000100
00010000
00000000
00000000
00000100
00000000
00010000
00000000
00001000
00000000
,
00010000
00000000
00001000
00000000
00100000
00000000
00001000
00100000
00000000
00000000
00100000
00000000
00010000
00000000
01000000
00000000
,
00100000
00000000
00100000
00000000
00100000
00000000
10000000
00010000
00000000
00000000
01000000
00000000
00100000
00000000
01000000
00000000
,
00010000
01000000
00000000
00000000
00010000
00100000
00000000
00000000
00001000
00010000
00000000
00001000
00000000
00000000
00010000
00000000
,
00000100
00000000
00001000
00000000
00000010
00000000
00000100
00000010
00000000
00000000
00000100
00000000
00000010
00000000
00001000
00000000
,
00000010
00000000
00001000
00000000
00000100
00000000
00010000
00000100
00000000
00000000
00010000
00000000
00001000
00000000
00100000
00000000
,
00010000
00000000
00100000
00000000
00010000
00000000
01000000
00010000
00000000
00000000
01000000
00000000
00100000
00000000
10000000
00000000
,
01000000
00100000
00000000
00000000
01000000
00010000
00000000
00000000
00100000
00010000
00000000
00010000
00000000
00000000
00001000
00000000
,
00010000
00000000
00000100
00000000
00010000
00000000
00000100
00010000
00000000
00000000
00001000
00000000
00000100
00000000
00001000
00000000
,
00000010
00000000
00000100
00000000
00000010
00000000
00000100
00000001
00000000
00000000
00000100
00000000
00000010
00000000
00000100
00000000
,
00000010
00000000
00001000
00000000
00000010
00000000
00001000
00000100
00000000
00000000
00001000
00000000
00000100
00010000
00000100
00000000
,
00001000
00010000
00000000
00000000
00001000
00100000
00000000
00000000
00010000
00100000
00000000
00010000
00000000
00000000
01010000
00000000
,
02000000
00000000
03100000
20000000
00000000
30010000
01000000
00000000
,
00200000
00000000
00301000
00020000
00000000
00030100
00001000
00000000
,
00000020
00000000
00000130
00000020
00000000
00001030
00000100
00000000
,
00020000
00032000
00203000
00320000
,
01030000
00000000
00100000
20000000
00000000
30100000
01000000
00000000
,
00010000
00000000
00100000
00002000
00000000
00013000
00001000
00000000
,
00010000
00000000
00000100
00002000
00000000
00003100
00000010
00000000
,
00001000
00001100
00000100
00010100
,
00010000
00011000
00000000
00011000
00000000
00010100
00000000
00010100
,
00000000
00001100
00000000
00000110
00000000
00001100
00000100
00000110
,
00000000
00000101
00000000
00000101
00000000
00001100
00000000
00001100
,
00000000
00000110
00000000
00001100
00000000
00000010
00000100
00001000
,
00000000
00010100
00000000
00010100
00000000
00101000
00000000
00101000
,
00000000
00011000
00000000
00011000
00000000
00001000
00010000
00100000
,
00000000
00110000
00000000
00110000
00000000
01100000
00000000
00100000
,
01000000
00000000
00100000
00000000
10000000
00010000
10000000
00010000
00000000
00100000
00000000
10000000
00010000
00000000
10000000
00000000
,
01000000
10000000
01000000
10000000
01000000
01000000
00100000
00000000
,
00110000
00000000
00100000
00000000
00101000
00000000
00000000
00010000
,
00001000
00010000
00000100
00010000
00001000
00001000
00010000
00000000
,
00001100
00000000
00001100
00000000
00001010
00000000
00000000
00000001
,
00000100
00000010
00000100
00000010
00001000
00000001
00001000
00000000
,
00001001
00000000
00001010
00000000
00001100
00000000
00000000
00001000
,
00010000
00001000
00010000
00000100
00010000
00001000
00010000
00000000
,
00101000
00110000
01010000
00000000
,
10000000
00000000
00010000
01000000
00010000
00000000
00000000
00100000
00000000
00000000
01000000
00000000
10010000
00000000
00000000
00000000
,
00100000
00000000
00001000
00010000
00001000
00000000
00000000
00010000
00000000
00000000
00001000
00000000
00010000
00000000
00000000
00000000
,
00000100
00000000
00001000
00000010
00001000
00000000
00000000
00000100
00000000
00000000
00000010
00000000
00000001
00000000
00001000
00000000
,
00000100
00000002
00000000
00000000
00001003
00000020
00000000
00000000
00000130
00000000
00000000
00001001
00000000
00000000
00000110
00000000
,
00000010
00000000
00001000
00000010
00001000
00000000
00000000
00000100
00000000
00000000
00001000
00000000
00001100
00000000
00000000
00000000
,
00001000
00000000
00010000
00001000
00010000
00000000
00000000
00001000
00000000
00000000
00100000
00000000
00101000
00000000
00000000
00000000
,
00010000
00000000
01000000
00010000
01000000
00000000
00000000
00100000
00000000
00000000
01000000
00000000
00100000
00000000
10000000
00000000
,
10000000
00000000
00010000
00000000
01000000
00100000
01000000
00100000
00000000
10000000
00000000
01000000
00010000
00000000
00000000
00000000
,
00100000
00100000
00001000
00001000
00010000
00010000
00001000
00000000
,
00011000
00001100
00011000
00000000
,
00010000
00100000
00010000
00100000
00010000
01000000
00100000
00000000
,
10100000
00000000
01100000
00000000
01010000
00000000
00000000
00100000
,
00001000
00010000
00001000
00010000
00000100
00010000
00001000
00000000
,
00011000
00000000
00001100
00000000
00000110
00000000
00000000
00001000
,
00000010
00001000
00000100
00001000
00000010
00001000
00000001
00000000
,
00001001
00000000
00001100
00000000
00001100
00000000
00000000
00000100
,
00010000
00001000
00010000
00000100
00010000
00001000
00010000
00000000
,
00110000
01100000
11000000
00000000
,
00001000
00000000
00010000
00000000
00001000
00000000
00100000
00001000
00000000
00000000
00010000
00000000
00000100
00000000
00001000
00000000
,
00000010
00000000
00000100
00000000
00000010
00000000
00001000
00000010
00000000
00000000
00000100
00000000
00000001
00000000
00000010
00000000
,
00000001
00000000
00000100
00000000
00000001
00000000
00000010
00001000
00000000
00000000
00000100
00000000
00010000
00000000
00001000
00000000
,
00010000
00001000
00000000
00000000
00001000
00100000
00000000
00000000
00010000
00100000
00000000
00010000
00000000
00000000
00100000
00000000
,
00001000
00000000
00010000
00000000
00001000
00000000
00000100
00001000
00000000
00000000
00000100
00000000
00001000
00000000
00000010
00000000
,
00001000
00000000
00000010
00000000
00000100
00000000
00000010
00000100
00000000
00000000
00000100
00000000
00001000
00000000
00010000
00000000
,
00000100
00000000
00010000
00000000
00001000
00000000
00010000
00001000
00000000
00000000
00100000
00000000
01000000
00000000
00100000
00000000
,
10000000
00100000
00000000
00000000
10000000
01000000
00000000
00000000
00010000
10000000
00000000
00010000
00000000
00000000
10000000
00000000
,
10000000
00100000
01000000
00010000
,
00110000
00011000
00001100
00000000
;

//---------------dance-double - Copied from----------------
#NOTES:
     dance-double:
     Copied from:
     Hard:
     11:
     0.584519,0.697247,0.519572,0.092781,0.125254,441.000000,385.000000,56.000000,10.000000,0.000000,0.000000,0.584519,0.697247,0.519572,0.092781,0.125254,441.000000,385.000000,56.000000,10.000000,0.000000,0.000000:
00000000
00000000
00000000
00000000
,
00000000
00000000
00000000
00000000
,
00000000
00000000
00000000
00000000
,
00000000
00000000
00000000
00000000
,
00001000
00000000
00001000
00010000
00000000
00001000
00010000
00000000
,
01000000
00000000
00100000
01000000
00000000
00100000
01000000
00000000
,
10000000
00000000
00010000
01000000
00000000
00010000
01000000
00000000
,
00100000
00110000
00011000
00000000
,
00010000
00001000
00010000
00000000
00001000
00010000
00001000
00000000
,
00001000
00000100
00001000
00000000
00000010
00001000
00000010
00000000
,
00000100
00000001
00000100
00000000
00000010
00001000
00000010
00000000
,
00010100
00010100
00101000
00101000
,
00010000
00100000
00010000
00000000
01000000
00010000
01000000
00000000
,
00100000
01000000
00100000
00000000
01000000
00010000
01000000
00000000
,
10000000
00100000
01000000
00000000
00010000
01000000
00100000
00000000
,
01000000
00000000
01000000
00000000
00010000
00000000
00000000
00010000
00000000
10000000
00000000
00000000
10010000
00000000
00000000
00000000
,
01000000
00000000
00100000
00000000
01000000
00000000
00000000
10000000
00000000
00000000
01000000
00000000
00010000
00000000
00000000
00000000
,
00100000
00000000
00010000
00000000
00100000
00000000
00000000
00001000
00000000
00000000
00010000
00000000
00001000
00000000
00000000
00000000
,
00001000
00000000
00000010
00000000
00001000
00000000
00000000
00000010
00000000
00000000
00001000
00000000
00000100
00000000
00000000
00000000
,
00001010
00000000
00000000
00000000
00001010
00000000
00000000
00000000
00000100
00000000
00000000
00000001
00000000
00000000
00000010
00000000
,
00001000
00000000
00000010
00000000
00001000
00000000
00000000
00000100
00000000
00000000
00010000
00000000
00001000
00000000
00000000
00000000
,
00100000
00000000
01000000
00000000
00100000
00000000
00000000
01000000
00000000
00000000
10000000
00000000
00010000
00000000
00000000
00000000
,
01000000
00000000
00010000
00000000
01000000
00000000
00000000
00100000
00000000
00000000
00001000
00000000
00010000
00000000
00000000
00000000
,
00011000
00000000
00000000
00000000
00011000
00000000
00000000
00000000
00001000
00000000
00000000
00001000
00000000
00000000
00010000
00000000
,
00001000
00000000
00010000
00000000
00001000
00000000
00000000
00010000
00000000
00000000
00001000
00000000
00010000
00000000
00000000
00000000
,
00000100
00000000
00001000
00000000
00000100
00000000
00000000
00000010
00000000
00000000
00001000
00000000
00000010
00000000
00000000
00000000
,
00000001
00000000
00000100
00000000
00000001
00000000
00000000
00000100
00000000
00000000
00000001
00000000
00000010
00000000
00000000
00000000
,
00000101
00000000
00000000
00000000
00000101
00000000
00000000
00000000
00000010
00000000
00000000
00001000
00000000
00000000
00000010
00000000
,
00001000
00000000
00010000
00000000
00001000
00000000
00000000
00100000
00000000
00000000
00001000
00000000
00010000
00000000
00000000
00000000
,
00000100
00000000
00000010
00000000
00000100
00000000
00000000
00000010
00000000
00000000
00000001
00000000
00001000
00000000
00000000
00000000
,
00000010
00000000
00001000
00000000
00000010
00000000
00000000
00000100
00000000
00000000
00010000
00000000
00001000
00000000
00000000
00000000
,
00011000
00000000
00000000
00000000
00011000
00000000
00000000
00000000
00010000
00000000
00000000
00010000
00000000
00000000
00001000
00000000
,
00010000
00000000
00001000
00010000
00000000
00000000
00001000
00000000
,
00000100
00000000
00000100
00000010
00000000
00000000
00000100
00000000
,
00000001
00000000
00000100
00000001
00000000
00000000
00000010
00000000
,
00001000
00000100
00010000
00001000
,
00100000
00000000
00010000
01000000
00000000
00000000
00100000
00000000
,
10000000
00000000
01000000
00010000
00000000
00000000
00100000
00000000
,
00001000
00000000
00010000
00000100
00000000
00000000
00001000
00000000
,
00000010
00000100
00000000
00000010
00000000
00001000
00000000
00000100
,
00000010
00000001
00000000
00001001
00000000
00001100
00000000
00001001
,
00000000
00000010
00000000
00000110
00000000
00001010
00000000
00000110
,
00000000
00000100
00000000
00011000
00000000
00001100
00000000
00011000
,
00000000
00001000
00000000
00110000
00000000
00010000
01000000
00010000
,
00000000
11000000
00000000
11000000
00000000
01010000
00000000
01010000
,
00000000
00110000
00000000
00110000
00000000
00011000
00000000
00011000
,
00000000
00001100
00000000
00001100
00000000
00000110
00000000
00000010
,
00001000
00000000
00000100
00000000
00000010
00000001
00000010
00000000
,
00000100
00010000
00000100
00000000
00001000
00000000
00010000
00000000
,
00001000
00010000
00001000
00000000
,
00100000
00001000
00100000
00000000
00010000
00000000
00001000
00000000
,
00010000
00000100
00001000
00000000
,
00000001
00000100
00000001
00000000
00000010
00000000
00001000
00000000
,
00000100
00010000
00011000
00000000
,
00100000
00010000
01000000
00000000
00100000
00000000
10000000
00000000
,
01000000
00010000
00011000
00000000
,
00002000
00013000
00020000
00030100
,
00000020
00001030
00000002
00000013
,
00000200
00000301
00000020
00010030
,
00010100
00010100
00101000
00101000
,
00200000
00310000
02000000
03010000
,
00002000
00103000
00020000
00031000
,
00011000
00110000
00011000
00101000
,
00100000
00000000
00001000
00000000
00010000
00000000
00000000
00010000
00000000
00001000
00000000
00000000
00011000
00000000
00000000
00000000
,
00100000
00010000
01000000
10000000
,
10010000
01100000
10010000
00000000
,
10000000
01000000
10000000
00000000
00010000
01000000
00010000
00000000
,
00100000
00010000
00001000
00000000
,
00001000
00000100
00001000
00000000
00000010
00001000
00000010
00000000
,
00000001
00000010
00000100
00000000
,
00000100
00010000
00000100
00000000
00001000
00010000
00001000
00000000
,
00010000
00100000
01000000
00000000
,
10000000
00100000
10000000
00000000
01000000
00010000
01000000
00000000
,
00100000
00110000
00011000
00000000
,
00000100
00000000
00001000
00000000
00000100
00000000
00000000
00010000
00000000
00000000
00001000
00000000
00010000
00000000
00000000
00000000
,
01000000
00000000
00100000
00000000
01000000
00000000
00000000
00100000
00000000
00000000
10000000
00000000
00010000
00000000
00000000
00000000
,
00100000
00000000
00001000
00000000
00100000
00000000
00000000
00010000
00000000
00000000
00010000
00000000
00001000
00000000
00000000
00000000
,
00000100
00000000
00000000
00000000
00000100
00000000
00000000
00000000
00001000
00000000
00000000
00000010
00000000
00000000
00000100
00000000
,
00000001
00000000
00000100
00000000
00000001
00000000
00000000
00000100
00000000
00000000
00000010
00000000
00001000
00000000
00000000
00000000
,
00010000
00000000
00001000
00000000
00010000
00000000
00000000
00001000
00000000
00000000
00100000
00000000
00010000
00000000
00000000
00000000
,
01000000
00000000
00100000
00000000
01000000
00000000
00000000
10000000
00000000
00000000
00100000
00000000
01000000
00000000
00000000
00000000
,
10010000
00000000
10010000
00000000
01100000
00000000
00000000
00010000
,
00001000
00000100
00000010
00000001
,
00000010
00001000
00011000
00000000
;

//---------------dance-single - Copied from----------------
#NOTES:
     dance-single:
     Copied from:
     Hard:
     12:
     0.584519,0.697247,0.519572,0.092781,0.125254,441.000000,385.000000,56.000000,10.000000,0.000000,0.000000,0.584519,0.697247,0.519572,0.092781,0.125254,441.000000,385.000000,56.000000,10.000000,0.000000,0.000000:
0000
0000
0000
0000
,
0000
0000
0000
0000
,
0000
0000
0000
0000
,
0000
0000
0000
0000
,
0001
0000
0001
0100
0000
0001
0100
0000
,
0010
0000
1000
0010
0000
1000
0010
0000
,
0001
0000
0100
0010
0000
0100
0010
0000
,
1000
1100
0101
0000
,
0100
0001
0100
0000
0001
0100
0001
0000
,
0001
0010
0001
0000
1000
0001
1000
0000
,
0010
0100
0010
0000
1000
0001
1000
0000
,
0110
0110
1001
1001
,
0100
1000
0100
0000
0010
0100
0010
0000
,
1000
0010
1000
0000
0010
0100
0010
0000
,
0001
1000
0010
0000
0100
0010
1000
0000
,
0010
0000
0010
0000
0100
0000
0000
0100
0000
0001
0000
0000
0101
0000
0000
0000
,
0010
0000
1000
0000
0010
0000
0000
0001
0000
0000
0010
0000
0100
0000
0000
0000
,
1000
0000
0100
0000
1000
0000
0000
0001
0000
0000
0100
0000
0001
0000
0000
0000
,
0001
0000
1000
0000
0001
0000
0000
1000
0000
0000
0001
0000
0010
0000
0000
0000
,
1001
0000
0000
0000
1001
0000
0000
0000
0010
0000
0000
0100
0000
0000
1000
0000
,
0001
0000
1000
0000
0001
0000
0000
0010
0000
0000
0100
0000
0001
0000
0000
0000
,
0001
0000
1000
0000
0001
0000
0000
1000
0000
0000
0100
0000
0010
0000
0000
0000
,
1000
0000
0010
0000
1000
0000
0000
0001
0000
0000
0100
0000
0010
0000
0000
0000
,
0110
0000
0000
0000
0110
0000
0000
0000
0100
0000
0000
0100
0000
0000
0010
0000
,
0100
0000
0010
0000
0100
0000
0000
0010
0000
0000
0100
0000
0010
0000
0000
0000
,
1000
0000
0100
0000
1000
0000
0000
0001
0000
0000
0100
0000
0001
0000
0000
0000
,
0010
0000
1000
0000
0010
0000
0000
1000
0000
0000
0010
0000
0001
0000
0000
0000
,
1010
0000
0000
0000
1010
0000
0000
0000
0001
0000
0000
0100
0000
0000
0001
0000
,
0100
0000
0010
0000
0100
0000
0000
0001
0000
0000
0100
0000
0010
0000
0000
0000
,
1000
0000
0001
0000
1000
0000
0000
0001
0000
0000
0010
0000
0100
0000
0000
0000
,
0001
0000
0100
0000
0001
0000
0000
1000
0000
0000
0010
0000
0100
0000
0000
0000
,
1010
0000
0000
0000
1010
0000
0000
0000
1000
0000
0000
1000
0000
0000
0010
0000
,
1000
0000
0010
1000
0000
0000
0010
0000
,
0001
0000
0001
0100
0000
0000
0001
0000
,
1000
0000
0001
1000
0000
0000
0100
0000
,
0010
0001
1000
0010
,
0100
0000
1000
0001
0000
0000
0100
0000
,
0010
0000
0001
1000
0000
0000
0100
0000
,
0010
0000
0100
0010
0000
0000
0001
0000
,
1000
0010
0000
1000
0000
0001
0000
0010
,
1000
0100
0000
0110
0000
1100
0000
0110
,
0000
0001
0000
1001
0000
0101
0000
1001
,
0000
1000
0000
0110
0000
1100
0000
0110
,
0000
0100
0000
0011
0000
0010
1000
0010
,
0000
1100
0000
1100
0000
1001
0000
1001
,
0000
1100
0000
1100
0000
1010
0000
1010
,
0000
0011
0000
0011
0000
0101
0000
0100
,
0010
0000
0001
0000
0100
1000
0100
0000
,
0001
1000
0001
0000
0010
0000
1000
0000
,
0010
1000
0010
0000
,
0100
0010
0100
0000
1000
0000
0010
0000
,
1000
0001
0010
0000
,
1000
0010
0100
0000
1000
0000
0001
0000
,
0010
0100
0101
0000
,
1000
0100
0010
0000
1000
0000
0001
0000
,
0010
0100
0101
0000
,
0002
0103
0200
0310
,
2000
3001
0200
1300
,
0020
0130
2000
3100
,
0110
0110
1001
1001
,
0002
0013
2000
3010
,
0200
0301
0020
0130
,
0110
0011
0110
0101
,
0001
0000
0100
0000
0010
0000
0000
0010
0000
0100
0000
0000
0110
0000
0000
0000
,
0001
0010
1000
0100
,
0110
1001
0110
0000
,
0010
0001
0010
0000
1000
0001
1000
0000
,
0100
1000
0010
0000
,
0010
0001
0010
0000
0100
0010
0100
0000
,
1000
0100
0001
0000
,
0001
1000
0001
0000
0010
1000
0010
0000
,
1000
0100
0001
0000
,
0010
0100
0010
0000
0001
1000
0001
0000
,
0100
1100
1010
0000
,
0010
0000
0001
0000
0010
0000
0000
0100
0000
0000
0001
0000
0100
0000
0000
0000
,
0010
0000
1000
0000
0010
0000
0000
1000
0000
0000
0001
0000
0100
0000
0000
0000
,
1000
0000
0001
0000
1000
0000
0000
0100
0000
0000
0100
0000
0001
0000
0000
0000
,
0010
0000
0000
0000
0010
0000
0000
0000
0001
0000
0000
1000
0000
0000
0010
0000
,
0100
0000
0010
0000
0100
0000
0000
0010
0000
0000
1000
0000
0001
0000
0000
0000
,
0100
0000
0001
0000
0100
0000
0000
0001
0000
0000
1000
0000
0100
0000
0000
0000
,
0010
0000
1000
0000
0010
0000
0000
0001
0000
0000
1000
0000
0010
0000
0000
0000
,
0101
0000
0101
0000
1010
0000
0000
0100
,
0001
0010
1000
0100
,
1000
0001
1001
0000
;

//---------------dance-single - ----------------
#NOTES:
     dance-single:
     :
     Challenge:
     14:
     0.767429,0.735983,0.556684,0.167005,0.361845,579.000000,519.000000,60.000000,18.000000,0.000000,0.000000,0.767429,0.735983,0.556684,0.167005,0.361845,579.000000,519.000000,60.000000,18.000000,0.000000,0.000000:
0000
0000
0000
0000
,
0000
0000
0000
0000
,
0000
0000
0000
0000
,
0000
0000
0000
0000
,
0001
0000
0001
0100
0000
0001
0100
0000
,
1000
0000
1000
0020
0000
1030
0010
0000
,
0001
0000
0100
0002
0000
0103
0001
0000
,
0100
0000
0100
0002
0000
0103
0001
0000
,
1000
0000
0001
1000
0001
0000
0100
0000
0010
0000
0100
0000
0010
0000
0000
0000
,
1000
0000
0010
1000
0010
0000
0000
0000
0100
0000
0001
0000
0100
0000
0000
0000
,
0010
0000
1000
0010
1000
0000
0010
0000
0100
0000
0001
0000
0100
0000
0000
0000
,
0010
0000
0100
0010
0100
0000
0000
0000
0001
0000
1000
0000
0100
0000
0000
0000
,
0001
0000
0010
0001
0010
0000
0001
0000
1000
0000
0001
0000
1000
0000
0000
0000
,
0010
0000
1000
0010
1000
0000
0010
0000
1000
0000
0001
0000
1000
0000
0000
0000
,
0100
0000
0010
1000
0010
0000
0100
0000
0001
0000
0010
0100
0010
0000
0000
0000
,
0100
0000
0100
0000
0001
0100
0001
0100
0000
1000
0000
0001
1000
0000
0000
0000
,
0010
0000
0100
0000
0010
0000
1000
0010
0000
0000
0100
0000
0001
0000
0010
0000
,
1000
0000
0001
0000
1000
0000
0010
1000
0000
0000
0001
0000
0100
0000
1000
0000
,
0100
0000
0001
0000
0100
0000
1000
0010
0000
0000
0001
0000
0100
0000
0010
0000
,
0100
0010
0000
0000
0010
1000
0000
0000
0100
1000
0000
0100
0000
0000
0010
0000
,
0100
0000
0001
0000
0100
0000
0010
0100
0000
0000
0010
0000
0100
0000
0001
0000
,
0100
0000
0001
0000
1000
0000
0001
1000
0000
0000
1000
0000
0100
0000
0010
0000
,
0001
0000
0001
0000
0001
0000
0100
0010
0000
0000
1000
0000
0001
0000
1000
0000
,
0010
1000
0000
0000
0010
0001
0000
0000
0100
0010
0000
0100
0000
0000
0010
0000
,
1000
0000
0100
0000
0001
0000
1000
0001
0000
0000
1000
0000
0001
0000
0100
0000
,
0001
0000
0100
0000
1000
0000
0010
1000
0000
0000
0010
0000
0100
0000
0001
0000
,
0010
0000
0001
0000
0010
0000
1000
0010
0000
0000
1000
0000
0001
0000
0100
0000
,
1000
0001
0000
0000
1000
0010
0000
0000
0001
0010
0000
0010
0000
0000
0100
0000
,
0010
0000
0010
0000
0100
0000
0010
0100
0000
0000
0001
0000
0010
0000
0001
0000
,
1000
0000
0010
0000
1000
0000
0010
0100
0000
0000
0010
0000
1000
0000
0010
0000
,
1000
0000
0001
0000
1000
0000
0001
0010
0000
0000
0001
0000
0010
0100
0010
0000
,
0001
0100
0000
0000
0001
1000
0000
0000
0100
1000
0000
0100
0000
0000
0101
0000
,
0200
0000
0310
2000
0000
3001
0100
0000
,
0020
0000
1030
0002
0000
0103
1000
0000
,
0020
0000
0130
0020
0000
1030
0100
0000
,
0002
2003
3020
0032
,
0013
0000
1000
0002
0000
1003
0010
0000
,
0100
0000
1000
0002
0000
0103
0001
0000
,
0100
0000
0010
0002
0000
0013
1000
0000
,
0001
0011
0010
0110
,
0100
1001
0000
1001
0000
0101
0000
0101
,
0000
0011
0000
1010
0000
0011
0010
1010
,
0000
0110
0000
0110
0000
1100
0000
1100
,
0000
1001
0000
1100
0000
0001
1000
0100
,
0000
1010
0000
1001
0000
0110
0000
0101
,
0000
0110
0000
0110
0000
0100
0010
0001
,
0000
0011
0000
0011
0000
1010
0000
1000
,
0010
0000
0010
0000
1000
0001
1000
0001
0000
0010
0000
1000
0001
0000
0000
0000
,
0100
1000
0100
1000
0100
0100
0010
0000
,
0011
0000
0010
0000
1010
0000
0000
0001
,
1000
0001
0100
0001
1000
1000
0001
0000
,
0011
0000
0011
0000
1001
0000
0000
0100
,
0010
1000
0010
1000
0001
0100
0001
0000
,
0101
0000
1001
0000
0011
0000
0000
0001
,
0100
0001
0100
0010
0100
0001
0100
0000
,
1001
1100
0110
0000
,
0001
0000
0100
0010
0100
0000
0000
1000
0000
0000
0010
0000
0101
0000
0000
0000
,
1000
0000
0001
0100
0001
0000
0000
0100
0000
0000
0001
0000
0100
0000
0000
0000
,
1000
0000
0100
0001
0100
0000
0000
1000
0000
0000
0001
0000
0010
0000
0100
0000
,
0001
2000
0000
0000
3010
0200
0000
0000
0301
0000
0000
1010
0000
0000
0101
0000
,
0100
0000
0010
0100
0010
0000
0000
0001
0000
0000
0010
0000
0011
0000
0000
0000
,
0010
0000
1000
0010
1000
0000
0000
0010
0000
0000
0100
0000
0110
0000
0000
0000
,
0001
0000
1000
0010
1000
0000
0000
0001
0000
0000
1000
0000
0001
0000
0100
0000
,
0100
0000
0010
0000
1000
0001
1000
0001
0000
0100
0000
1000
0010
0000
0000
0000
,
0010
0010
1000
1000
0001
0001
1000
0000
,
1001
1100
1001
0000
,
0001
0010
0001
0010
0001
0100
0010
0000
,
1010
0000
0110
0000
0101
0000
0000
1000
,
0001
0100
0001
0100
0010
0100
0001
0000
,
0101
0000
0011
0000
1010
0000
0000
0001
,
1000
0001
0010
0001
1000
0001
0100
0000
,
0101
0000
1100
0000
1100
0000
0000
0001
,
1000
0010
1000
0001
1000
0010
1000
0000
,
1100
0101
0011
0000
,
0010
0000
1000
0000
0010
0000
0100
0010
0000
0000
1000
0000
0001
0000
0010
0000
,
0100
0000
0001
0000
0100
0000
0010
0100
0000
0000
0001
0000
1000
0000
0100
0000
,
1000
0000
0001
0000
1000
0000
0100
0010
0000
0000
0001
0000
1000
0000
0010
0000
,
1000
0010
0000
0000
0010
0001
0000
0000
0010
0001
0000
0010
0000
0000
0001
0000
,
0100
0000
0010
0000
0100
0000
1000
0100
0000
0000
1000
0000
0100
0000
0001
0000
,
0100
0000
0001
0000
1000
0000
0001
1000
0000
0000
1000
0000
0100
0000
0010
0000
,
1000
0000
0010
0000
0100
0000
0010
0100
0000
0000
0001
0000
1000
0000
0001
0000
,
0100
0001
0000
0000
0100
1000
0000
0000
0010
0100
0000
0010
0000
0000
0100
0000
,
0100
0001
1000
0010
,
0011
0110
1100
0000
;

//---------------dance-double - ----------------
#NOTES:
     dance-double:
     :
     Medium:
     9:
     0.489087,0.619775,0.445348,0.129893,0.000000,369.000000,321.000000,48.000000,14.000000,0.000000,0.000000,0.489087,0.619775,0.445348,0.129893,0.000000,369.000000,321.000000,48.000000,14.000000,0.000000,0.000000:
00000000
00000000
00000000
00000000
,
00000000
00000000
00000000
00000000
,
00000000
00000000
00000000
00000000
,
00000000
00000000
00000000
00000000
,
10000000
00010000
10000000
00010000
,
01000000
01000000
01000000
00000000
,
00100000
00001000
00100000
00001000
,
00010000
00010000
00011000
00000000
,
00001000
00000100
00001000
00000000
00000100
00000000
00000100
00000000
,
00000010
00000010
00000001
00000001
,
00000001
00000100
00000001
00000000
00000100
00000000
00000100
00000000
,
00000010
00000010
00001000
00001000
,
00010000
00001000
00010000
00000000
00010000
00000000
00010000
00000000
,
00100000
00001000
00100000
00000000
00010000
00000000
00010000
00000000
,
01000000
00100000
01000000
00000000
00100000
01000000
00100000
00000000
,
10000000
01000000
10000000
01000000
10000000
00000000
00000000
00000000
,
01100000
00000000
01100000
00000000
10000000
00100000
10000000
00000000
,
01010000
00000000
01010000
00000000
00100000
00001000
00100000
00000000
,
00011000
00000000
00011000
00000000
00000100
00001000
00000100
00000000
,
00000110
00000110
00001001
00000000
,
00000101
00000000
00000101
00000000
00000010
00001000
00000010
00000000
,
00001100
00000000
00001100
00000000
00000100
00010000
00000100
00000000
,
00011000
00000000
00011000
00000000
00001000
00100000
00001000
00000000
,
00110000
00110000
01010000
00000000
,
01100000
00000000
10010000
00000000
10000000
01000000
00010000
00000000
,
01100000
00000000
10010000
00000000
00010000
01000000
10000000
00000000
,
01100000
00000000
00110000
00000000
00010000
00001000
00010000
00000000
,
00011000
00001100
00001010
00000000
,
00001010
00000000
00010100
00000000
00001000
00100000
00010000
00000000
,
00110000
00000000
00010100
00000000
00001000
00010000
00000100
00000000
,
00001000
00001010
00000010
00000110
,
00000101
00000100
00001100
00000000
,
00010000
00000000
00000000
00001000
00000000
00000000
00100000
00000000
,
00010000
00000000
00000000
01000000
00000000
00000000
01000000
00000000
,
00100000
00000000
00000000
10000000
00000000
00000000
10000000
00000000
,
00010000
00010000
01000000
01000000
,
00001000
00000000
00000000
00010000
00000000
00000000
00001000
00000000
,
00010000
00000000
00000000
00000100
00000000
00000000
00010000
00000000
,
00000100
00000000
00000000
00001000
00000000
00000000
00000010
00000000
,
00000100
00000010
00000000
00001000
00000000
00000100
00000000
00001000
,
00000100
00010000
00000000
00010000
00000000
00001000
00000000
00001000
,
00000000
00100000
00000000
00100000
00000000
00010000
00000000
01000000
,
00000000
00100000
00000000
00100000
00000000
10000000
00000000
01000000
,
00000000
00010000
00000000
00100000
00000000
00001000
00010000
00001000
,
00000000
00010000
00000000
00010000
00000000
00000100
00000000
00000100
,
00000000
00001000
00000000
00001000
00000000
00000010
00000000
00000010
,
00000000
00000100
00000000
00000100
00000000
00000001
00000000
00000001
,
00001000
00001000
00000100
00010100
,
00010000
00010000
00001000
00001000
,
00100000
00010000
00110000
00000000
,
01000000
01000000
00100000
00100000
,
10000000
00010000
10010000
00000000
,
00100000
00100000
00001000
00001000
,
00010000
00001000
00011000
00000000
,
00000100
00000100
00001000
00001000
,
00000010
00000100
00001001
00000000
,
00000020
00001030
00000200
00000300
,
00002000
00013000
00000200
00000300
,
00020000
00031000
00200000
00300000
,
02000000
03010000
00200000
00300000
,
00002000
00013000
00020000
00030100
,
00000200
00000310
00000002
00000103
,
00000001
00000100
00000001
00000000
00001000
00000100
00001000
00000000
,
00000100
00010000
00000100
00010000
00000100
00000000
00010100
00000000
,
00001000
00001000
00100000
00100000
,
00010000
01000000
10010000
00000000
,
10000000
01000000
10000000
00000000
00100000
00000000
00100000
00000000
,
01000000
00010000
01010000
00000000
,
00010000
00001000
00010000
00000000
00001000
00000000
00001000
00000000
,
00010000
00000100
00001100
00000000
,
00000010
00000100
00000010
00000000
00000001
00000000
00000001
00000000
,
00001000
00000100
00001100
00000000
,
00000100
00010000
00000100
00000000
00010000
00000000
00010000
00000000
,
00001000
00100000
00110000
00000000
,
01000000
00010000
01000000
00000000
00100000
00000000
00100000
00000000
,
00100000
00001000
00100000
00000000
00010000
00000000
00010000
00000000
,
00000100
00001000
00000100
00000000
00000010
00000000
00000010
00000000
,
00000001
00000100
00001000
00000000
,
00000100
00010000
00000100
00000000
00010000
00000000
00010000
00000000
,
00100000
00001000
00100000
00000000
01000000
00000000
01000000
00000000
,
10000000
00010000
10000000
00000000
01000000
00000000
01000000
00000000
,
00100000
00001000
00010000
00000000
,
00022000
00000000
00000000
00000000
,
00000000
00000000
00033000
00000000
;

//---------------dance-single - ----------------
#NOTES:
     dance-single:
     :
     Medium:
     9:
     0.489087,0.619775,0.445348,0.129893,0.000000,369.000000,321.000000,48.000000,14.000000,0.000000,0.000000,0.489087,0.619775,0.445348,0.129893,0.000000,369.000000,321.000000,48.000000,14.000000,0.000000,0.000000:
0000
0000
0000
0000
,
0000
0000
0000
0000
,
0000
0000
0000
0000
,
0000
0000
0000
0000
,
1000
0001
1000
0001
,
0100
0100
0100
0000
,
0010
1000
0010
1000
,
0001
0001
1001
0000
,
0001
0010
0001
0000
0010
0000
0010
0000
,
1000
1000
0100
0100
,
0100
0010
0100
0000
0010
0000
0010
0000
,
1000
1000
0001
0001
,
0100
0001
0100
0000
0100
0000
0100
0000
,
1000
0001
1000
0000
0100
0000
0100
0000
,
0010
1000
0010
0000
1000
0010
1000
0000
,
0001
0010
0001
0010
0001
0000
0000
0000
,
1010
0000
1010
0000
0001
1000
0001
0000
,
0110
0000
0110
0000
1000
0001
1000
0000
,
0101
0000
0101
0000
0010
0001
0010
0000
,
1010
1010
0101
0000
,
0110
0000
0110
0000
1000
0001
1000
0000
,
1100
0000
1100
0000
1000
0010
1000
0000
,
0110
0000
0110
0000
0100
0001
0100
0000
,
0011
0011
1010
0000
,
1001
0000
0110
0000
0100
1000
0010
0000
,
1001
0000
0110
0000
0010
1000
0100
0000
,
1001
0000
0011
0000
0010
0100
0010
0000
,
0110
1100
0101
0000
,
0101
0000
1010
0000
0100
0001
0010
0000
,
0011
0000
1010
0000
0100
0010
1000
0000
,
0100
0101
0001
1001
,
1010
1000
1100
0000
,
0010
0000
0000
0100
0000
0000
0001
0000
,
0010
0000
0000
1000
0000
0000
1000
0000
,
0001
0000
0000
0100
0000
0000
0100
0000
,
0010
0010
1000
1000
,
0100
0000
0000
0010
0000
0000
0100
0000
,
0010
0000
0000
1000
0000
0000
0010
0000
,
1000
0000
0000
0100
0000
0000
0001
0000
,
0001
0100
0000
0010
0000
0001
0000
0010
,
0001
1000
0000
1000
0000
0010
0000
0010
,
0000
0100
0000
0100
0000
1000
0000
0001
,
0000
0100
0000
0100
0000
0010
0000
0001
,
0000
1000
0000
0100
0000
0010
1000
0010
,
0000
1000
0000
1000
0000
0001
0000
0001
,
0000
0010
0000
0010
0000
0100
0000
0100
,
0000
0001
0000
0001
0000
1000
0000
1000
,
0010
0010
0001
1001
,
1000
1000
0010
0010
,
0100
1000
1100
0000
,
0001
0001
0100
0100
,
0010
1000
1001
0000
,
0100
0100
0010
0010
,
1000
0010
1001
0000
,
0001
0001
0010
0010
,
0100
0001
1010
0000
,
0200
0310
0002
0003
,
0020
1030
0002
0003
,
2000
3010
0200
0300
,
0002
1003
0200
0300
,
0020
1030
2000
3001
,
0002
0103
2000
3001
,
1000
0001
1000
0000
0010
0001
0010
0000
,
0001
1000
0001
1000
0001
0000
1001
0000
,
0010
0010
0100
0100
,
1000
0001
1010
0000
,
0010
0001
0010
0000
0100
0000
0100
0000
,
0001
1000
1001
0000
,
1000
0010
1000
0000
0010
0000
0010
0000
,
1000
0001
0011
0000
,
0100
0001
0100
0000
1000
0000
1000
0000
,
0010
0001
0011
0000
,
0001
1000
0001
0000
1000
0000
1000
0000
,
0010
0100
1100
0000
,
0001
1000
0001
0000
0100
0000
0100
0000
,
0100
0010
0100
0000
1000
0000
1000
0000
,
0001
0010
0001
0000
0100
0000
0100
0000
,
1000
0001
0010
0000
,
0001
1000
0001
0000
1000
0000
1000
0000
,
0100
0010
0100
0000
0001
0000
0001
0000
,
0010
1000
0010
0000
0001
0000
0001
0000
,
0100
0010
1000
0000
,
2002
0000
0000
0000
,
0000
0000
3003
0000
;

//---------------dance-single - ----------------
#NOTES:
     dance-single:
     :
     Beginner:
     5:
     0.231952,0.348624,0.064947,0.139171,0.000000,175.000000,168.000000,7.000000,15.000000,0.000000,0.000000,0.231952,0.348624,0.064947,0.139171,0.000000,175.000000,168.000000,7.000000,15.000000,0.000000,0.000000:
0000
0000
0000
0000
,
0000
0000
0000
0000
,
0000
0000
0000
0000
,
0000
0000
0000
0000
,
0001
0000
0001
0000
,
0100
0100
0100
0000
,
1000
0000
1000
0000
,
0010
0010
0010
0000
,
0200
0000
0300
0000
,
0200
0000
0300
0000
,
0020
0000
0030
0000
,
0020
0000
0030
0000
,
1000
0000
1000
0000
,
0001
0000
0001
0000
,
0100
0000
0100
0000
,
0010
0010
0010
0000
,
1000
0000
0001
0001
,
0001
0000
0010
0010
,
0010
0000
0100
0000
,
0001
0001
0001
0000
,
1000
0000
0010
0010
,
0010
0000
0100
0100
,
0100
0000
0001
0000
,
1000
1000
1000
0000
,
0010
0000
0100
0000
,
0010
0000
0100
0000
,
0001
0000
1000
0000
,
0001
0001
0001
0000
,
0100
0000
0010
0000
,
0100
0000
0010
0000
,
1000
0000
0100
0000
,
1000
1000
1000
0000
,
0002
0000
0003
0000
,
2000
0000
3000
0000
,
0020
0000
0030
0000
,
0100
0100
0100
0000
,
0002
0000
0003
0000
,
2000
0000
3000
0000
,
0020
0000
0030
0000
,
0100
0100
0100
0000
,
0001
0000
0001
0000
,
1000
0000
1000
0000
,
0010
0000
0010
0000
,
0100
0000
0100
0000
,
0010
0000
0010
0000
,
1000
0000
1000
0000
,
0100
0000
0100
0000
,
0002
0000
0003
0000
,
1000
0000
1000
0000
,
0010
0010
0010
0000
,
0001
0000
0001
0000
,
0010
0010
0010
0000
,
1000
0000
1000
0000
,
0010
0010
0010
0000
,
0001
0000
0001
0000
,
0100
0100
0100
0000
,
1001
0000
0100
0000
,
1001
0000
0010
0000
,
1001
0000
0100
0000
,
1001
0000
0010
0000
,
0110
0000
0000
0000
,
1001
0000
0000
0000
,
0010
0000
0010
0000
,
0100
0100
0100
0000
,
0001
0000
0000
0000
,
1000
1000
1000
0000
,
0010
0000
0010
0000
,
0001
0001
0001
0000
,
0010
0000
0010
0000
,
1000
1000
1000
0000
,
0010
0000
0010
0000
,
0001
0001
0001
0000
,
0100
0000
0100
0000
,
1000
1000
1000
0000
,
0020
0000
0030
0000
,
0200
0000
0300
0000
,
0001
0000
0001
0000
,
1000
1000
1000
0000
,
0010
0000
0010
0000
,
0100
0000
0100
0000
,
0001
0001
0001
0001
,
0001
0001
0001
0000
,
2002
0000
0000
0000
,
0000
0000
3003
0000
;

//---------------dance-double - ----------------
#NOTES:
     dance-double:
     :
     Easy:
     7:
     0.406910,0.542303,0.343289,0.111337,0.000000,307.000000,270.000000,37.000000,12.000000,0.000000,0.000000,0.406910,0.542303,0.343289,0.111337,0.000000,307.000000,270.000000,37.000000,12.000000,0.000000,0.000000:
00000000
00000000
00000000
00000000
,
00000000
00000000
00000000
00000000
,
00000000
00000000
00000000
00000000
,
00000000
00000000
00000000
00000000
,
00100000
00010000
00100000
00000000
,
00001000
00010000
00001000
00000000
,
00000100
00001000
00000100
00000000
,
00010000
00001000
00010000
00000000
,
00100000
00100000
01000000
10010000
,
01000000
01000000
00100000
10010000
,
00100000
00100000
00001000
00011000
,
00010000
00010000
00000100
00001100
,
00000010
00000010
00000100
00001001
,
00000100
00000100
00000010
00001001
,
00000010
00000010
00001000
00001100
,
00001000
00001000
00010000
00011000
,
00100000
00010000
02000000
03000000
,
00100000
10000000
02000000
03000000
,
00100000
00100000
00001000
00001000
,
00010000
00010000
00000100
00000100
,
00000010
00000001
00000200
00000300
,
00000010
00001000
00000200
00000300
,
00000010
00000010
00001000
00001000
,
00000100
00000100
00010000
00000000
,
00001000
00010000
00011000
00000000
,
00100000
00010000
00110000
00000000
,
10000000
01000000
00100000
00010000
,
01000000
01000000
10010000
00000000
,
01000000
00010000
00110000
00000000
,
00010000
00000100
00001100
00000000
,
00000010
00000001
00000101
00000000
,
00000010
00000010
00001000
00001000
,
00020000
00000000
00031000
00000000
,
00002000
00000000
00003010
00000000
,
00000020
00000000
00000031
00000000
,
00000001
00000100
00001000
00000000
,
00000200
00000000
00010300
00000000
,
00002000
00000000
00103000
00000000
,
00020000
00000000
01030000
00000000
,
00100000
10000000
01000000
00000000
,
00100000
00100000
01000000
01000000
,
00010000
00010000
00100000
00100000
,
00001000
00001000
00010000
00010000
,
00000010
00000010
00000100
00000000
,
00000001
00000001
00000100
00000100
,
00000010
00000010
00001000
00001000
,
00000100
00000100
00010000
00010000
,
00001000
00001000
01000000
00000000
,
00100000
10000000
00100000
00000000
,
01010000
00000000
01010000
00000000
,
00100000
00001000
00100000
00000000
,
00010100
00000000
00010100
00000000
,
00001000
00000010
00001000
00000000
,
00001001
00000000
00001001
00000000
,
00000010
00010000
00000010
00000000
,
00010100
00000000
00010100
00000000
,
00001000
00001000
00010000
00010000
,
00000100
00000100
00001000
00000100
,
00000010
00000010
00000001
00000001
,
00000100
00000100
00010000
00000100
,
00010000
00000000
00001000
00000000
00010000
00001000
00010000
00000000
,
00010000
00000000
00010000
00000000
01000000
00010000
01000000
00000000
,
00100000
00100000
10000000
10000000
,
01010000
01010000
10010000
00000000
,
00100000
00001000
00010000
00001000
,
00011000
00011000
00011000
00000000
,
00000100
00001000
00000010
00000001
,
00000100
00001000
00011000
00000000
,
00010000
00100000
10000000
01000000
,
00100000
00010000
00011000
00000000
,
00000100
00001000
00000100
00000001
,
00000010
00001000
00001100
00000000
,
00000100
00010000
00001000
00100000
,
00010000
01000000
10010000
00000000
,
10000000
00000000
01000000
00000000
10000000
01000000
10000000
00000000
,
00100000
00000000
00010000
00000000
00100000
00010000
00100000
00000000
,
00001000
00000000
00010000
00000000
00001000
00010000
00001000
00000000
,
00000100
00001000
00001010
00000000
,
00000001
00000000
00000100
00000000
00000001
00000100
00000001
00000000
,
00001000
00000000
00000100
00000000
00001000
00000100
00001000
00000000
,
00000100
00000000
00010000
00000000
00001000
00010000
00001000
00000000
,
00011000
00011000
00011000
00000000
,
00022000
00000000
00000000
00000000
,
00000000
00000000
00033000
00000000
;

//---------------dance-single - ----------------
#NOTES:
     dance-single:
     :
     Easy:
     6:
     0.449324,0.581039,0.649465,0.167005,0.000000,339.000000,269.000000,70.000000,18.000000,0.000000,0.000000,0.449324,0.581039,0.649465,0.167005,0.000000,339.000000,269.000000,70.000000,18.000000,0.000000,0.000000:
0000
0000
0000
0000
,
0000
0000
0000
0000
,
0000
0000
0000
0000
,
0000
0000
0000
0000
,
0010
0000
0010
0000
,
1000
0001
1001
0000
,
0100
0000
0100
0000
,
0001
1000
1001
0000
,
0010
0001
0100
1000
,
0010
0001
0100
0100
,
0010
1000
0100
0001
,
0010
1000
0100
0100
,
0010
0001
1001
0000
,
0010
1000
1001
0000
,
0110
0000
1001
0000
,
0020
0000
0000
0130
,
0001
0100
0001
0101
,
1000
0010
1000
1010
,
0100
0100
0010
0010
,
1000
1000
1001
0000
,
0010
0010
0001
0011
,
1000
1000
0100
1100
,
0010
0010
0100
1001
,
0010
0010
0110
0000
,
1000
0100
0001
0101
,
0001
0100
1000
1100
,
1000
0010
0001
0011
,
0001
0010
1000
1010
,
1000
0100
0010
1010
,
0001
0010
0100
0101
,
1000
0010
0100
0110
,
0001
0100
0010
0110
,
1000
1000
0002
0003
,
0100
0100
0020
0030
,
1000
1000
0200
0300
,
0002
0003
0200
0300
,
0010
0010
2000
3000
,
0100
0100
0002
0003
,
1000
1000
0002
0003
,
0220
0330
2002
3003
,
1000
1000
0001
0001
,
0100
0100
0010
0010
,
1000
1000
0100
0100
,
0001
0001
0100
0100
,
0010
0010
0100
0100
,
0010
0010
0100
0100
,
1001
1001
0110
0110
,
2002
0000
0000
3003
,
0010
0010
1000
1000
,
0010
1000
0100
0000
,
0010
0010
0001
0001
,
0010
0001
0100
0000
,
0010
0010
0100
0100
,
0001
1000
1001
0000
,
0100
0100
0010
0010
,
1000
0001
1001
0000
,
0010
0010
1000
1000
,
0100
0110
0001
0000
,
0010
0010
0001
0001
,
0010
0110
1000
0000
,
0100
0110
0100
0100
,
0001
1001
0001
0001
,
0010
1010
0010
1010
,
0100
0100
1001
0000
,
0020
0000
0000
0000
,
0130
0100
0110
0000
,
1000
0100
1000
0100
,
0011
0110
1100
0000
,
0001
0010
0001
0010
,
1100
0110
0011
0000
,
0100
0100
1001
1001
,
0010
0010
1001
0000
,
0010
0010
1001
1001
,
0100
0110
0110
0000
,
1000
1010
1000
1100
,
0001
0101
0001
0011
,
0010
0110
0100
0101
,
1001
1001
0110
0000
,
1000
1010
0100
0101
,
0010
0011
1000
1100
,
0010
0110
1000
1001
,
0110
0110
1001
0000
,
2002
0000
0000
0000
,
0000
0000
3003
0000
;
