#TITLE:2Nite;
#SUBTITLE:;
#ARTIST:ND Lee;
#TITLETRANSLIT:;
#SUBTITLETRANSLIT:;
#ARTISTTRANSLIT:;
#GENRE:;
#CREDIT:;
#BANNER:2Nite.png;
#BACKGROUND:2Nite-bg.png;
#LYRICSPATH:;
#CDTITLE:;
#MUSIC:2Nite.ogg;
#OFFSET:-0.320000;
#SAMPLESTART:21.865454;
#SAMPLELENGTH:17.454546;
#SELECTABLE:YES;
#DISPLAYBPM:110.000000;
#BPMS:0.000000=110.000000
;
#STOPS:
;
#BGCHANGES:0.000=2Nite.avi=1.000=0=0=1=====,
99999=-nosongbg-=1.000=0=0=0 // don't automatically add -songbackground-
;
#KEYSOUNDS:;
#ATTACKS:;

//---------------dance-single - ----------------
#NOTES:
     dance-single:
     :
     Hard:
     11:
     0.422530,0.469164,0.228773,0.000000,0.339074,362.000000,334.000000,28.000000,0.000000,0.000000,0.000000,0.422530,0.469164,0.228773,0.000000,0.339074,362.000000,334.000000,28.000000,0.000000,0.000000,0.000000:
0000
0000
0000
0000
,
0000
0000
0000
0000
,
0000
0000
0000
0000
,
0000
0000
0000
0000
,
0000
0000
0000
0000
,
0000
0000
0000
0000
,
0000
0000
0001
0000
0100
0000
0001
0000
1000
0000
0001
0000
0100
0000
0000
1001
,
0000
0000
1000
0000
0001
0000
1000
0000
0100
0000
1000
0000
0001
0000
0000
1001
,
0000
0001
0010
0001
0100
0001
0010
0001
,
1000
0000
0000
0000
0001
0000
0000
0000
0001
0000
0000
0000
1000
0000
0000
0001
,
0000
0000
0100
0000
1000
0000
0100
0000
0010
0000
1000
0010
0000
0000
0101
0000
,
0000
0000
0010
0000
1000
0000
0100
0000
0010
0000
1000
0010
0000
0000
0100
0000
,
0000
0000
0000
0000
1000
0000
0000
0000
0000
0000
0010
0000
1001
0000
0100
0010
,
0000
0000
0000
0000
1000
0000
0000
0000
0000
0000
0001
0000
1000
0000
0000
0001
,
0000
0000
0010
0000
1000
0000
0001
0000
0010
0000
0010
0100
0000
0000
1001
0000
,
0000
0000
0100
0000
1000
0000
0100
0000
1000
0000
0100
0010
0000
0000
0110
0000
,
0000
0000
0000
0000
0000
0000
0001
0000
0100
0000
0000
0000
0001
0010
0100
1000
,
0000
0000
1000
0001
0000
0010
0000
0001
0000
0000
0100
0000
0010
0000
1001
0000
,
0000
0000
0010
0000
1000
0000
0010
0000
0100
0000
1000
0001
0000
0001
1000
0000
,
0000
0000
1000
0000
0010
0000
0100
0000
0001
0000
1000
0001
0000
0001
1000
0000
,
0000
0000
1000
0000
0010
0000
0100
0000
0001
0000
0010
1000
0000
1000
0010
0000
,
0000
1000
0010
0100
0010
1000
0010
0101
,
0000
0000
0100
0000
0010
0000
1000
0000
0001
0000
0100
0010
0000
0010
0100
0000
,
0000
0000
0100
0000
0010
0000
1000
0000
0001
0000
0100
0010
0000
0010
0100
0000
,
0000
1000
0010
0100
0001
0100
0010
1000
,
0000
0000
1000
0000
0010
0000
0100
0000
0010
0100
0010
0000
0001
0000
0000
0001
,
1000
0000
0000
0000
0010
0000
0000
0100
0000
0000
1000
0000
0010
0000
0000
0100
,
0000
0000
1000
0000
0010
0000
0000
0010
0000
0000
1000
0000
0101
0000
0000
0001
,
1000
0000
0000
0000
0010
0000
0000
0100
0000
0000
1000
0000
0010
0000
0100
0000
,
1000
0010
1000
0000
0001
0000
0100
0000
0010
0001
0010
0001
0010
0001
0010
0001
,
0000
0000
0101
0000
0010
1000
0101
0000
,
0110
0000
0000
0000
0100
0000
0000
0000
0010
0000
1000
0000
0101
0000
0000
0001
,
1000
0000
0000
0000
0010
0000
0000
0000
0000
0000
1000
0000
0010
0000
0100
0010
,
0000
0000
0000
0000
0001
0000
0100
0000
1000
0001
1000
0001
1000
0001
1000
0001
,
0000
0000
0010
0000
0100
1000
0010
0000
,
0110
0000
0000
0000
1010
0000
0000
0000
0001
0000
1000
0000
0101
0000
0000
0001
,
1000
0000
0000
0000
0100
0000
0001
0000
0010
0000
0000
0000
0100
0010
0100
0010
,
0000
0000
0000
0000
0001
0000
0100
0000
0010
0100
0010
0100
0010
0100
0010
0100
,
0000
0000
0101
0000
0010
1000
0101
0000
,
1010
0000
0000
0000
0100
0000
0000
0000
0001
0000
1000
0000
0101
0000
0000
0001
,
1000
0000
0000
0000
0001
0000
0010
0000
1000
0000
0100
0000
0001
0000
0100
0010
,
0000
0000
0000
0000
0001
0000
0100
0000
1000
0001
1000
0001
1000
0010
1000
0010
,
1000
0000
0010
0000
0100
1000
0010
0000
,
1001
0000
0000
0000
0101
0000
0000
0000
0010
0000
1000
0000
0101
0000
0000
0001
,
1000
0000
0000
0000
0100
0000
0001
0000
0010
0000
0000
0000
0100
0010
0100
0010
,
0000
0000
0001
0000
0000
0000
0100
0001
0000
0000
0010
0000
0001
0100
0001
0000
,
0100
0010
0000
0000
0000
0000
0001
0000
0001
0000
0001
1000
0000
0000
0100
0010
,
0000
0000
0000
1001
0000
0000
0001
0000
0010
0100
0000
0000
0110
0000
0000
0000
,
0100
0010
0000
0000
0000
0000
0001
0000
0001
0000
0001
1000
0000
0000
0100
0010
,
0000
0000
0001
1000
0000
0000
0100
0000
0000
0010
0000
0000
0001
0000
0000
0000
,
0100
0010
0000
0000
0000
0000
0001
0000
0001
0000
0001
1000
0000
0000
0100
0010
,
0000
0000
0000
1001
0000
0000
1000
0000
0010
0100
0000
0000
0110
0000
0000
0000
,
1000
0010
0000
0000
0000
0000
0001
0000
0001
0000
0001
0100
0000
0000
1000
0010
,
0000
0000
0001
1000
0000
0000
0100
0000
0000
0010
0000
0000
0001
0000
0000
1000
,
0000
0000
0100
0000
0000
0010
0000
0000
0001
0000
0000
0110
0000
0000
0000
0000
;

//---------------dance-double - ----------------
#NOTES:
     dance-double:
     :
     Hard:
     11:
     0.413192,0.469164,0.196091,0.000000,0.322734,354.000000,330.000000,24.000000,0.000000,0.000000,0.000000,0.413192,0.469164,0.196091,0.000000,0.322734,354.000000,330.000000,24.000000,0.000000,0.000000,0.000000:
00000000
00000000
00000000
00000000
,
00000000
00000000
00000000
00000000
,
00000000
00000000
00000000
00000000
,
00000000
00000000
00000000
00000000
,
00000000
00000000
00000000
00000000
,
00000000
00000000
00000000
00000000
,
00000000
00000000
00010000
00000000
01000000
00000000
00010000
00000000
10000000
00000000
00010000
00000000
01000000
00000000
00000000
10010000
,
00000000
00000000
10000000
00000000
00010000
00000000
10000000
00000000
01000000
00000000
00100000
00000000
00010000
00000000
00000000
00011000
,
00000000
00001000
00000100
00001000
00000010
00001000
00000100
00001000
,
00000001
00000000
00000000
00000000
00001000
00000000
00000000
00000000
00001000
00000000
00000000
00000000
00000001
00000000
00000000
00001000
,
00000000
00000000
00000100
00000000
00001000
00000000
00001000
00000000
00100000
00000000
00000000
00010000
00000000
00000000
01000000
00000000
,
00000000
00000000
00100000
00000000
10000000
00000000
01000000
00000000
00100000
00000000
10000000
00100000
00000000
00000000
01000000
00000000
,
00000000
00000000
00000000
00000000
10000000
00000000
00000000
00000000
00000000
00000000
00100000
00000000
10010000
00000000
01000000
00100000
,
00000000
00000000
00000000
00000000
00010000
00000000
00000000
00000000
00000000
00000000
00001000
00000000
00000100
00000000
00000000
00001000
,
00000000
00000000
00100000
00000000
00010000
00000000
00010000
00000000
00000100
00000000
00000000
00001000
00000000
00000000
00000010
00000000
,
00000000
00000000
00000100
00000000
00000001
00000000
00000010
00000000
00000100
00000000
00000001
00000100
00000000
00000000
00000010
00000000
,
00000000
00000000
00000000
00000000
00000001
00000000
00000000
00000000
00000000
00000000
00000100
00000000
00001001
00000000
00000010
00000100
,
00000000
00000000
00001000
00000000
00010000
00100000
01000000
10000000
,
00000000
00000000
00100000
00000000
10000000
00000000
00100000
00000000
01000000
00000000
10000000
00010000
00000000
00010000
10000000
00000000
,
00000000
00000000
10000000
00000000
00100000
00000000
01000000
00000000
00010000
00000000
00001000
00010000
00000000
00010000
00001000
00000000
,
00000000
00000000
00001000
00000000
00000100
00000000
00000010
00000000
00000001
00000000
00000100
00000001
00000000
00000001
00000100
00000000
,
00000000
00000001
00000100
00000010
00000100
00000001
00000100
00001000
,
00000000
00000000
00010000
00000000
00100000
00000000
01000000
00000000
10000000
00000000
01000000
00100000
00000000
00100000
01000000
00000000
,
00000000
00000000
10000000
00000000
01000000
00000000
00100000
00000000
00010000
00000000
00001000
00010000
00000000
00010000
00001000
00000000
,
00000000
00100000
00001000
00010000
00001000
00010000
00000100
00010000
,
00000010
00000000
00001000
00000000
00000010
00000000
00000100
00000000
00000010
00000100
00000010
00000000
00000001
00000000
00000000
00000001
,
00001000
00000000
00000000
00000000
00100000
00000000
00000000
01000000
00000000
00000000
10000000
00000000
00100000
00000000
00000000
01000000
,
00000000
00000000
10000000
00000000
00100000
00000000
00000000
00100000
00000000
00000000
10000000
00000000
01010000
00000000
00000000
00010000
,
00001000
00000000
00000000
00000000
00000010
00000000
00000000
00000100
00000000
00000000
00001000
00000000
00000010
00000000
00000100
00000000
,
00001000
00000010
00001000
00000000
00000001
00000000
00000100
00000000
00000010
00000001
00000010
00000001
00000010
00000001
00000010
00000001
,
00000000
00001100
00110000
01010000
,
01100000
00000000
00000000
00000000
01000000
00000000
00000000
00000000
00100000
00000000
10000000
00000000
01010000
00000000
00000000
00010000
,
10000000
00000000
00000000
00000000
00100000
00000000
00000000
00000000
00010000
00000000
00001000
00000000
00000010
00000000
00000100
00000010
,
00000000
00000000
00000000
00000000
00000001
00000000
00000100
00000000
00001000
00000001
00001000
00000001
00001000
00000001
00001000
00000001
,
00000000
00000000
00000010
00000000
00000100
00001000
00010000
00000000
,
01100000
00000000
00000000
00000000
10100000
00000000
00000000
00000000
00010000
00000000
10000000
00000000
01010000
00000000
00000000
00010000
,
10000000
00000000
00000000
00000000
01000000
00000000
00010000
00000000
00100000
00000000
00000000
00000000
01000000
00100000
01000000
00100000
,
00000000
00000000
00000000
00000000
00010000
00000000
00001000
00000000
00010000
00001000
00010000
00001000
00010000
00001000
00010000
00001000
,
00000000
00000000
00000010
00000000
00000100
00000001
00001010
00000000
,
00000100
00000000
00001000
00000000
00001010
00000000
00000000
00000000
00000100
00000000
00000001
00000000
00001010
00000000
00000000
00001000
,
00000001
00000000
00000000
00000000
00000100
00000000
00000000
00000000
00001000
00000000
00010000
00000000
01000000
00000000
00100000
01000000
,
00000000
00000000
00000000
00000000
10000000
00000000
00100000
00000000
00010000
10000000
00010000
10000000
00010000
10000000
00010000
10000000
,
00000000
00000000
01000000
00000000
00100000
00010000
00001000
00000000
,
00000110
00000000
00000000
00000000
00000101
00000000
00000000
00000000
00001000
00000000
00000001
00000000
00001010
00000000
00000000
00001000
,
00000001
00000000
00000000
00000000
00000010
00000000
00001000
00000000
00000100
00000000
00000000
00000000
00000010
00000100
00000010
00000100
,
00000000
00000000
00000000
00000000
00001000
00000000
00010000
00000000
00001000
00010000
00001000
00010000
00001000
00000000
00010000
00000000
,
00010000
00100000
00000000
00000000
00000000
00000000
00010000
00000000
00010000
00000000
00010000
10000000
00000000
00000000
01000000
00100000
,
00000000
00000000
00000000
10010000
00000000
00000000
00010000
00000000
00100000
01000000
00000000
00000000
01100000
00000000
00000000
00000000
,
01000000
00100000
00000000
00000000
00000000
00000000
00010000
00000000
00010000
00000000
00010000
10000000
00000000
00000000
01000000
00100000
,
00000000
00000000
00010000
10000000
00000000
00000000
01000000
00000000
00000000
00100000
00000000
00000000
00010000
00000000
00000000
00000000
,
00001000
00000100
00000000
00000000
00000000
00000000
00001000
00000000
00001000
00000000
00001000
00000001
00000000
00000000
00000010
00000100
,
00000000
00000000
00000000
00001001
00000000
00000000
00001000
00000000
00000100
00000010
00000000
00000000
00000110
00000000
00000000
00000000
,
00000010
00000100
00000000
00000000
00000000
00000000
00001000
00000000
00001000
00000000
00001000
00000001
00000000
00000000
00000010
00000100
,
00000000
00000000
00001000
00000001
00000000
00000000
00000010
00000000
00000000
00000100
00000000
00000000
00001000
00000000
00000000
00010000
,
00000000
00000000
00100000
00000000
00000000
01000000
00000000
00000000
10000000
00000000
00000000
01100000
00000000
00000000
00000000
00000000
;

//---------------dance-single - ----------------
#NOTES:
     dance-single:
     :
     Medium:
     8:
     0.336156,0.357458,0.245114,0.000000,0.053108,288.000000,258.000000,30.000000,0.000000,0.000000,0.000000,0.336156,0.357458,0.245114,0.000000,0.053108,288.000000,258.000000,30.000000,0.000000,0.000000,0.000000:
0000
0000
0000
0000
,
0000
0000
0000
0000
,
0000
0000
0000
0000
,
0000
0000
0000
0000
,
0000
0000
0000
0000
,
0000
0000
0000
0000
,
0010
0000
0001
0000
1000
0100
0001
0000
,
0010
0000
1000
0000
0001
0100
1000
0000
,
0010
0000
0001
0000
1000
0100
0010
0000
,
0010
0000
1000
0000
0001
0010
0100
1000
,
0000
0001
0001
0000
1000
0100
0010
0001
,
0000
1000
1000
0000
0001
0010
0100
1000
,
0000
0000
0110
0000
1000
0001
1000
0000
,
0010
0000
0110
0000
0001
1000
0001
0100
,
0000
0010
0010
0000
0001
0100
0010
1000
,
0000
0100
0100
0000
1000
0010
0100
0001
,
0000
0100
0100
0000
0110
0000
1000
0001
,
0000
0000
0110
0000
0001
1000
0001
1000
,
0000
0001
0010
0100
1000
0000
1000
1001
,
0000
1000
0100
0010
0001
0000
0001
1001
,
0000
0010
0100
1000
0001
0000
0100
0110
,
0000
0000
1001
0000
1000
0100
0010
0001
,
0000
0100
0001
0100
0010
1000
0010
0010
,
0000
0010
0001
0010
0100
1000
0100
0100
,
0000
1000
0100
1000
0001
0100
0001
0001
,
0000
0000
0000
0000
0110
0000
0000
0000
1001
0000
0000
0000
0100
0000
0000
0110
,
0000
0000
0001
0100
0001
1000
0100
1000
,
1000
0000
0000
0000
0010
0000
0100
0000
0010
0000
1000
0000
1000
0000
0000
0001
,
0000
0000
0100
0010
0100
0001
0001
1000
,
1000
0010
1000
0110
,
1001
0000
0010
0000
1000
0100
1000
0000
,
1001
0000
0000
0000
0010
0000
0000
0000
0001
0000
0000
0000
0100
0000
0000
0010
,
0000
0000
1000
0000
0001
0100
0010
1000
,
0100
0000
0001
0000
1000
0100
0010
0000
,
1001
0000
0100
0000
0001
0010
0001
0000
,
1001
0000
0000
0000
0100
0000
0000
0000
1000
0000
0000
0000
0010
0000
0000
0100
,
0000
0000
0001
0000
1000
0010
0100
0001
,
0010
0000
1000
0000
0001
0010
0100
0000
,
1000
1100
0001
0101
,
0010
0000
0000
0000
0110
0000
0000
0000
1001
0000
0000
0000
0110
0000
0000
1001
,
0000
0000
0010
0100
1000
0000
0001
0010
,
0100
0000
1000
0100
0010
0001
0110
0000
,
0001
0101
1000
1100
,
0100
0000
0000
0000
0110
0000
0000
0000
1001
0000
0000
0000
0110
0000
0000
1001
,
0000
0000
0010
0100
0001
0000
1000
0010
,
0100
0000
0001
0100
0010
1000
0100
0010
,
0001
0000
0000
0100
0100
0100
0000
0010
,
0000
0000
0000
0001
1000
0010
0100
0000
,
1000
0000
0000
0010
0010
0010
0000
0100
,
0000
0000
0000
1000
0000
0000
0100
0000
0000
0010
0000
0000
0001
0000
0000
0000
,
1000
0000
0000
0100
0100
0100
0000
0010
,
0000
0000
0000
1000
0001
0010
0100
0000
,
0001
0000
0000
0010
0010
0010
0000
0100
,
0000
0000
0000
1000
0000
0000
0100
0000
0000
0010
0000
0000
0001
0000
0000
0010
,
0000
0000
0100
0000
0000
1000
0000
0000
0001
0000
0000
1001
0000
0000
0000
0000
;

//---------------dance-single - ----------------
#NOTES:
     dance-single:
     :
     Beginner:
     3:
     0.138898,0.178116,0.049023,0.000000,0.000000,119.000000,113.000000,6.000000,0.000000,0.000000,0.000000,0.138898,0.178116,0.049023,0.000000,0.000000,119.000000,113.000000,6.000000,0.000000,0.000000,0.000000:
0000
0000
0000
0000
,
0000
0000
0000
0000
,
0000
0000
0000
0000
,
0000
0000
0000
0000
,
0000
0000
0000
0000
,
0000
0000
0000
0000
,
0000
0001
0000
0001
,
0000
1000
0000
1000
,
0000
0010
0000
0010
,
0000
0100
0000
0100
,
0000
0001
0001
0001
,
0000
1000
1000
1000
,
0000
0010
0000
0010
,
0000
0100
0000
0100
,
0000
1000
1000
1000
,
0000
0001
0001
0001
,
0000
0010
0000
0010
,
0000
0100
0000
0100
,
0000
0001
0001
0000
,
0000
1000
1000
0000
,
0000
0001
0001
0000
,
0010
0000
0100
0000
,
0000
0010
0010
0000
,
0000
0100
0100
0000
,
0000
0010
0010
0000
,
0100
0000
0100
0000
,
1001
0000
0010
0000
,
1000
0000
0100
0000
,
1001
0000
0010
0000
,
0001
0000
0100
0000
,
1000
1000
1000
0000
,
0001
0001
0001
0000
,
1001
0000
0000
0000
,
0010
0010
0010
0000
,
0001
0001
0001
0000
,
1000
1000
1000
0000
,
1001
0000
0000
0000
,
0010
0010
0010
0000
,
0100
0100
0100
0000
,
0010
0010
0010
0000
,
1001
0000
0000
0000
,
0010
0000
1000
0000
,
0100
0100
0100
0000
,
0010
0010
0010
0000
,
1001
0000
0000
0000
,
0010
0000
0001
0000
,
0100
0000
0100
0100
,
0100
0000
0010
0010
,
0010
0000
0100
0100
,
0100
0000
0000
0000
,
0001
0000
1000
1000
,
1000
0000
0001
0001
,
0001
0000
0100
0100
,
0100
0000
0010
0000
,
0001
0000
1000
0000
;

//---------------dance-single - ----------------
#NOTES:
     dance-single:
     :
     Easy:
     4:
     0.189088,0.223411,0.098046,0.000000,0.004085,162.000000,150.000000,12.000000,0.000000,0.000000,0.000000,0.189088,0.223411,0.098046,0.000000,0.004085,162.000000,150.000000,12.000000,0.000000,0.000000,0.000000:
0000
0000
0000
0000
,
0000
0000
0000
0000
,
0000
0000
0000
0000
,
0000
0000
0000
0000
,
0000
0000
0000
0000
,
0000
0000
0000
0000
,
0000
0001
0000
0100
,
0000
1000
0000
0100
,
0000
0010
0000
1000
,
0000
0100
0000
0001
,
0000
0001
0100
0001
,
0000
1000
0100
1000
,
0000
0010
0000
0010
,
0000
0100
0000
0100
,
0000
1000
0100
1000
,
0000
0001
0100
0001
,
0000
0010
0000
0010
,
0000
0100
0000
0100
,
0000
0001
1001
1000
,
0000
1000
1001
0001
,
0000
0010
0100
0001
,
0010
0100
1000
1001
,
0000
0010
0110
0100
,
0000
0100
0110
0010
,
0000
1000
0100
0010
,
0001
0010
0100
1000
,
1001
0000
0010
0000
,
1000
0100
0001
0000
,
1001
0000
0010
0000
,
0001
0100
1000
0000
,
1000
0010
1000
0000
,
0001
0010
0001
0000
,
1001
0000
0100
0001
,
0010
0010
0010
0010
,
0001
0010
0001
0000
,
1000
0010
1000
0000
,
1001
0000
0100
1000
,
0010
0010
0010
1000
,
0100
0100
0100
1000
,
0010
0010
0010
0001
,
1001
0000
0010
1000
,
0010
1000
0010
0001
,
0100
0100
0100
0001
,
0010
0010
0010
1000
,
1001
0000
0010
0010
,
0010
0001
0001
0001
,
0100
0000
0100
1000
,
0100
0000
0010
0001
,
0010
0000
0100
1000
,
0100
0010
0001
0100
,
0001
0000
1000
0001
,
1000
0000
0001
1000
,
0001
0000
0100
0010
,
0001
1000
0100
0010
,
0001
0000
0000
0000
0010
0000
0000
0000
0100
0000
0000
0110
0000
0000
0000
0000
;

//---------------dance-double - ----------------
#NOTES:
     dance-double:
     :
     Easy:
     4:
     0.176249,0.223411,0.065364,0.000000,0.004085,151.000000,143.000000,8.000000,0.000000,0.000000,0.000000,0.176249,0.223411,0.065364,0.000000,0.004085,151.000000,143.000000,8.000000,0.000000,0.000000,0.000000:
00000000
00000000
00000000
00000000
,
00000000
00000000
00000000
00000000
,
00000000
00000000
00000000
00000000
,
00000000
00000000
00000000
00000000
,
00000000
00000000
00000000
00000000
,
00000000
00000000
00000000
00000000
,
00000000
00010000
00000000
00001000
,
00000000
00010000
00000000
00001000
,
00000000
00010000
00000000
00001000
,
00000000
00010000
00000000
00010000
,
00000000
00010000
01000000
00010000
,
00000000
10000000
01000000
10000000
,
00000000
00100000
00000000
00010000
,
00000000
00001000
00000000
00000100
,
00000000
00001000
00000100
00001000
,
00000000
00000001
00000100
00000001
,
00000000
00000100
00000000
00001000
,
00000000
00010000
00000000
01000000
,
00000000
00010000
10010000
10000000
,
00000000
10000000
10010000
00010000
,
00000000
00100000
01000000
10000000
,
00100000
00000000
00010000
00000000
,
00000000
00001000
00001001
00000001
,
00000000
00000001
00001001
00001000
,
00000000
00000100
00000010
00000001
,
00000100
00000000
00001000
00010000
,
00011000
00000000
00100000
00000000
,
10000000
01000000
00010000
00001000
,
00011000
00000000
00000100
00000000
,
00000001
00000010
00001000
00010000
,
00011000
00010000
00010000
00000000
,
00001000
00001000
00001000
00000000
,
00010000
00100000
01000000
10000000
,
01000000
00100000
00010000
00000000
,
00001000
00001000
00001000
00000000
,
00010000
00010000
00010000
00000000
,
00001000
00000100
00000010
00000001
,
00000010
00000100
00001000
00000000
,
00100000
00100000
00100000
10000000
,
01000000
01000000
01000000
00000000
,
00010000
00000000
00001000
00000000
,
00010000
00000000
00001000
00000000
,
00000100
00000100
00000100
00000001
,
00000010
00000010
00000010
00000000
,
00001000
00000000
00010000
00000000
,
00001000
00001000
00001000
00001000
,
00010000
00000000
00100000
01000000
,
00100000
00000000
00010000
00001000
,
00010000
00000000
00000100
00000010
,
00000100
00001000
00010000
00100000
,
01000000
00000000
10000000
00010000
,
10000000
00000000
00010000
10000000
,
00010000
00000000
01000000
00100000
,
00010000
00001000
00000100
00000010
,
00000001
00000000
00000000
00000000
00000100
00000000
00000000
00000000
00001000
00000000
00000000
00011000
00000000
00000000
00000000
00000000
;

//---------------dance-double - ----------------
#NOTES:
     dance-double:
     :
     Medium:
     8:
     0.308143,0.335117,0.253285,0.000000,0.053108,264.000000,233.000000,31.000000,0.000000,0.000000,0.000000,0.308143,0.335117,0.253285,0.000000,0.053108,264.000000,233.000000,31.000000,0.000000,0.000000,0.000000:
// measure 0
00000000
00000000
00000000
00000000
,  // measure 1
00000000
00000000
00000000
00000000
,  // measure 2
00000000
00000000
00000000
00000000
,  // measure 3
00000000
00000000
00000000
00000000
,  // measure 4
00000000
00000000
00000000
00000000
,  // measure 5
00000000
00000000
00000000
00000000
,  // measure 6
00100000
00000000
00010000
00000000
10000000
01000000
00010000
00000000
,  // measure 7
00000010
00000000
00000001
00000000
00001000
00000100
00000001
00000000
,  // measure 8
00000100
00000000
00001000
00000000
00000001
00000010
00001000
00000000
,  // measure 9
01000000
00000000
10000000
00000000
00010000
00100000
10000000
01000000
,  // measure 10
00000000
00010000
00010000
00000000
10000000
00000000
00100000
00010000
,  // measure 11
00000000
00001000
00001000
00000000
00000001
00000000
00000100
00001000
,  // measure 12
00000000
00000000
01100000
00000000
10000000
00010000
10000000
00000000
,  // measure 13
00010000
00000000
00001000
00000000
00000100
00000000
00000010
00000100
,  // measure 14
00000000
00000010
00000010
00000000
00001000
00000000
00000100
00010000
,  // measure 15
00000000
01000000
01000000
00000000
10000000
00000000
01000000
00010000
,  // measure 16
00000000
01000000
01000000
00000000
01100000
00000000
00010000
00001000
,  // measure 17
00000000
00000000
00000110
00000000
00000001
00001000
00000001
00001000
,  // measure 18
00000000
00010000
00100000
01000000
10000000
00000000
00000000
10010000
,  // measure 19
00000000
10000000
01000000
00100000
00010000
00000000
00000000
00011000
,  // measure 20
00000000
00001000
00000100
00000010
00000001
00000000
00000000
00001001
,  // measure 21
00000000
00000001
00000010
00000100
00001000
00000000
00000000
00011000
,  // measure 22
00000000
00010000
00100000
01000000
00100000
00000000
00010000
00001000
,  // measure 23
00000000
00001000
00000100
00000010
00000100
00000000
00001000
00010000
,  // measure 24
00000000
00100000
01000000
10000000
00010000
01000000
00010000
00010000
,  // measure 25
00000000
00000000
00000000
00000000
10010000
00000000
00000000
00000000
10010000
00000000
00000000
00000000
01000000
00000000
00000000
01100000
,  // measure 26
00000000
10000000
00100000
00010000
,  // measure 27
00001000
00000000
00000000
00000000
00000100
00000000
00000000
00000000
00000001
00000000
00000000
00000000
00000010
00000000
00000000
00000110
,  // measure 28
00000000
00000001
00000100
00001000
,  // measure 29
00010000
00100000
10000000
01100000
,  // measure 30
10010000
00000000
00100000
00000000
10000000
01000000
10000000
00000000
,  // measure 31
10010000
00000000
00000000
00000000
00100000
00000000
00000000
00000000
00010000
00000000
00000000
00000000
01000000
00000000
00000000
00100000
,  // measure 32
00000000
00000000
00100000
00000000
00010000
00100000
00100000
00000000
,  // measure 33
01000000
00010000
00001000
00000100
,  // measure 34
00001001
00000000
00000100
00000000
00000001
00000010
00000001
00000000
,  // measure 35
00001001
00000000
00000000
00000000
00000100
00000000
00000000
00000000
00001000
00000000
00000000
00000000
00000010
00000000
00000000
00000100
,  // measure 36
00000000
00000000
00000100
00000000
00001000
00000100
00000100
00000000
,  // measure 37
00000010
00001000
00010000
00100000
,  // measure 38
10000000
11000000
00010000
01010000
,  // measure 39
00100000
00000000
00000000
00000000
01100000
00000000
00000000
00000000
10010000
00000000
00000000
00000000
01100000
00000000
00000000
10010000
,  // measure 40
00000000
00000000
00100000
01000000
10000000
00000000
00010000
00100000
,  // measure 41
01000000
00000000
00100000
00010000
00001000
00000000
00001100
00000000
,  // measure 42
00000001
00000011
00001000
00001010
,  // measure 43
00000100
00000000
00000000
00000000
00000110
00000000
00000000
00000000
00001001
00000000
00000000
00000000
00000110
00000000
00000000
00001001
,  // measure 44
00000000
00000000
00000100
00000010
00000001
00000000
00001000
00000100
,  // measure 45
00000010
00000000
00000100
00001000
00010000
00000000
00110000
00000000
,  // measure 46
00100000
00000000
00000000
01000000
01000000
01000000
00000000
00100000
,  // measure 47
00000000
00000000
00000000
10000000
10000000
10000000
10000000
00000000
,  // measure 48
00100000
00000000
00000000
00010000
00100000
00010000
00000000
00001000
,  // measure 49
00000000
00000000
00000000
00000001
00000000
00000000
00000010
00000000
00000000
00000100
00000000
00000000
00001000
00000000
00000000
00000000
,  // measure 50
00000100
00000000
00000000
00000010
00000010
00000010
00000000
00000100
,  // measure 51
00000000
00000000
00000000
00000001
00000001
00000001
00000001
00000000
,  // measure 52
00000100
00000000
00000000
00001000
00000100
00001000
00000000
00010000
,  // measure 53
00000000
00000000
00000000
10000000
00000000
00000000
01000000
00000000
00000000
00100000
00000000
00000000
00010000
00000000
00000000
00001000
,  // measure 54
00000000
00000000
00000100
00000000
00000000
00000010
00000000
00000000
00000001
00000000
00000000
00001001
00000000
00000000
00000000
00000000
;
