#TITLE:24/7 Popperz;
#SUBTITLE:;
#ARTIST:Power Of Nature;
#TITLETRANSLIT:;
#SUBTITLETRANSLIT:;
#ARTISTTRANSLIT:;
#GENRE:;
#CREDIT:;
#BANNER:24-7 Popperz.png;
#BACKGROUND:24-7 Popperz-bg.png;
#LYRICSPATH:;
#CDTITLE:;
#MUSIC:24-7 Popperz.ogg;
#OFFSET:0.000000;
#SAMPLESTART:85.540001;
#SAMPLELENGTH:16.000000;
#SELECTABLE:YES;
#DISPLAYBPM:101.000000:202.000000;
#BPMS:0.000000=202.000000
,200.000000=101.000000
,216.000000=202.000000
,348.000000=101.000000
,352.000000=202.000000
;
#STOPS:
;
#BGCHANGES:;
#KEYSOUNDS:;
#ATTACKS:;

//---------------dance-double - ----------------
#NOTES:
     dance-double:
     :
     Challenge:
     17:
     0.992451,1.210767,0.332400,0.157890,0.972270,836.000000,796.000000,40.000000,19.000000,0.000000,0.000000,0.992451,1.210767,0.332400,0.157890,0.972270,836.000000,796.000000,40.000000,19.000000,0.000000,0.000000:
// measure 0
00000000
00000000
00000000
00000000
,  // measure 1
00000000
00000000
00000000
00000000
,  // measure 2
00000000
00000000
00000000
00000000
,  // measure 3
00000000
00000000
00000000
00000000
,  // measure 4
10010000
00000000
00000000
00000000
00000000
00011000
00000000
00000000
,  // measure 5
00001001
00000000
00000000
00000000
00000000
00011000
00000000
00000000
,  // measure 6
10010000
00000000
00000000
00000000
00000000
00011000
00000000
00000000
,  // measure 7
00001002
00000203
00000320
00020030
,  // measure 8
00031000
00010000
00001000
00010000
00001000
00100000
00010000
00100000
,  // measure 9
00010000
01000000
00100000
01000000
00100000
10000000
01000000
00100000
,  // measure 10
00010000
01000000
00010000
01000000
00001000
00100000
00001000
00010000
,  // measure 11
00000010
00010000
00000010
00001000
00000001
00000100
00000001
00000010
,  // measure 12
00000001
00000100
00000001
00000100
00000001
00001000
00000001
00001000
,  // measure 13
00000010
00001000
00000010
00001000
00000100
00010000
00001000
00010000
,  // measure 14
00001000
01000000
00001000
01000000
00010000
01000000
00010000
10000000
,  // measure 15
00100000
10000000
00100000
10000000
00000000
00010000
10010000
00000000
,  // measure 16
10000000
00000000
00100000
00000000
01000000
00010000
01000000
00010000
01000000
00000000
00100000
00000000
01000000
00000000
00001000
00000000
,  // measure 17
00011000
00000000
00000000
00000000
,  // measure 18
00011000
00000000
00000010
00000000
00000100
00000010
00000100
00000010
00000100
00000000
00000001
00000000
00001000
00000000
00000100
00000000
,  // measure 19
00001001
00000000
00000000
00000000
,  // measure 20
00001001
00000000
00000100
00000000
00010000
00001000
00010000
00001000
00010000
00000000
00001000
00000000
01000000
00000000
00100000
00000000
,  // measure 21
10010000
00000000
00000000
00000000
,  // measure 22
10010000
00000000
00100000
00000000
00001000
00010000
00001000
00010000
00001000
00000000
00010000
00000000
00000010
00000000
00000100
00000000
,  // measure 23
00001001
00010100
00101000
10010000
,  // measure 24
10000000
00000000
00100000
00000000
01000000
00010000
01000000
00010000
01000000
00000000
00100000
00000000
01000000
00000000
00001000
00000000
,  // measure 25
00010000
00001000
00010000
00000000
00001000
00010000
00001000
00000000
00010000
00000000
00000100
00000000
00001000
00000010
00001000
00000010
,  // measure 26
00001000
00000000
00000001
00000000
00001000
00000001
00001000
00000001
00001000
00000000
00000010
00000000
00001000
00000000
00000100
00000000
,  // measure 27
00010000
00001000
00010000
00000000
00001000
00010000
00001000
00000000
00100000
00000000
00010000
00000000
01000000
00100000
01000000
00100000
,  // measure 28
01000000
00000000
00010000
00000000
10000000
01000000
10000000
01000000
10000000
00000000
00100000
00000000
01000000
00000000
00010000
00000000
,  // measure 29
00100000
00001000
00100000
00000000
00001000
00100000
00001000
00000000
00010000
00000000
00000010
00000000
00001000
00000100
00001000
00000100
,  // measure 30
00001000
00000000
00000010
00000000
00000100
00000001
00000100
00000001
00000100
00000000
00000010
00000000
00001000
00000000
00000100
00000000
,  // measure 31
00000010
00000100
00000010
00000100
00000010
00000000
00000001
00000000
00001000
00000100
00001000
00000100
00001000
00000000
00000000
00000000
,  // measure 32
00001000
00010000
00001000
00010000
00001000
01000000
00010000
10000000
,  // measure 33
00100000
10000000
00100000
10000000
00100000
10000000
00100000
01000000
,  // measure 34
00001000
00010000
00001000
00010000
00001000
00010000
00000100
00001000
,  // measure 35
00000010
00000100
00000010
00000100
00000010
00000100
00000001
00001000
,  // measure 36
00000100
00001000
00000100
00001000
00000100
00010000
00001000
00100000
,  // measure 37
00010000
00100000
00010000
00100000
00010000
10000000
00100000
01000000
,  // measure 38
00100000
10000000
00100000
01000000
00010000
01000000
00001000
00010000
,  // measure 39
00001000
00010000
00001000
00010000
00000010
00000100
00000010
00000100
,  // measure 40
00000101
00000000
00000001
00001000
00000000
00001000
00000100
00000000
00000100
00010000
00000000
00010000
,  // measure 41
00001000
00000000
00001000
01000000
00000000
01000000
00100000
00000000
00100000
10000000
00000000
10000000
,  // measure 42
00100000
00000000
00100000
01000000
00000000
01000000
00001000
00000000
00001000
00010000
00000000
00010000
,  // measure 43
00000010
00000000
00000010
00000100
00000000
00000100
00000001
00001000
00000001
00001000
00000001
00001000
,  // measure 44
00000100
00001000
00000100
00001000
00000000
00000100
00010000
00000000
00010000
00001000
00010000
00001000
,  // measure 45
00010000
00000000
00010000
00001000
00000000
00001000
00100000
00001000
00100000
00001000
00000000
00100000
,  // measure 46
00010000
00000000
01000000
00100000
00000000
10000000
01000000
00000000
00100000
00010000
00000000
00100000
,  // measure 47
00001000
00000000
00010000
00000100
00000000
00001000
00000010
00000000
00000100
00000001
00000000
00000001
,  // measure 48
00001000
00000000
00001000
00000100
00000000
00000100
00000010
00000000
00000010
00000001
00000000
00000001
,  // measure 49
00001000
00000000
00001000
00000100
00000000
00000100
00010000
00000000
00010000
00001000
00000000
00000000
,  // measure 50
00010000
00000000
00000000
00010000
00000000
00000000
00010000
00000000
00000000
00001000
00000100
00000010
00000001
00000000
00000100
00000000
,  // measure 51
00000001
00000000
00000000
00000001
00000000
00000000
00000001
00000000
00000000
00000010
00001000
00000010
00001000
00000000
00000100
00000000
,  // measure 52
00010000
00000000
00000000
00010000
00000000
00000000
00010000
00000000
00000000
00001000
00100000
00001000
00100000
00010000
00100000
00010000
,  // measure 53
00100000
00000000
00000000
00000000
00000000
00000000
01000000
00000000
00000000
00000000
00000000
00000000
20010000
00000000
00000000
00000000
00000000
00000000
30000000
00000000
00000000
01000000
00000000
00000000
00010000
00000000
01000000
00000000
00010000
00000000
10000000
00000000
00100000
00000000
10000000
00000000
00010000
00000000
01000000
00000000
00010000
00000000
10000000
00000000
00100000
00000000
10000000
00000000
,  // measure 54
00100000
00000000
10000000
00100000
10000000
00000000
00010000
00000000
01000000
00100000
01000000
00000000
00001000
00000000
00010000
00001000
,  // measure 55
00010000
00000100
00001000
00000010
00000001
00001000
00000100
00010000
,  // measure 56
00001000
00000000
00100000
00010000
00100000
00000000
00010000
00000000
01000000
00100000
01000000
00000000
10000000
00100000
10000000
00000000
,  // measure 57
01000000
00010000
00100000
00001000
00010000
00000010
00000100
00000001
,  // measure 58
00001000
00000010
00001000
00000000
00000100
00000000
00010000
00001000
00010000
00000000
00001000
00000000
00100000
00010000
00100000
00000000
,  // measure 59
00010000
00000000
01000000
00100000
01000000
00000000
10000000
00000000
00010000
01000000
00010000
00000000
10000000
01000000
10000000
00000000
,  // measure 60
01100000
00000000
10000000
00010000
10000000
00010000
10000000
00010000
10000000
00000000
01000000
00010000
01000000
00010000
01000000
00010000
,  // measure 61
01000000
00000000
00001000
00010000
00001000
00010000
00001000
00010000
00001000
00000000
00010000
00000010
00010000
00000010
00010000
00000010
,  // measure 62
00010000
00000000
00000010
00000100
00000010
00000100
00000010
00000100
00000010
00000000
00001000
00000100
00001000
00000100
00001000
00000100
,  // measure 63
00001000
00000000
00000100
00010000
00000100
00010000
00000100
00010000
00000100
00000000
00100000
00001000
00100000
00001000
00100000
00010000
,  // measure 64
00100000
00000000
10000000
01000000
10000000
01000000
10000000
01000000
10000000
00000000
00010000
01000000
00010000
01000000
00010000
01000000
,  // measure 65
00010000
00000000
00100000
01000000
00100000
01000000
00100000
01000000
00100000
00000000
00001000
00010000
00001000
00010000
00001000
00010000
,  // measure 66
00001000
00010000
00000010
00000100
,  // measure 67
00000001
00000000
00000010
00000000
00000100
00000001
00001001
00000000
,  // measure 68
00001001
00000000
00000010
00000000
00001000
00000100
00001000
00000100
00001000
00000000
00000100
00000000
00010000
00001000
00010000
00001000
,  // measure 69
00010000
00000000
00001000
00000000
00100000
00010000
00100000
00010000
00100000
00000000
00000000
00000000
10000000
00000000
01000000
00000000
,  // measure 70
10000000
00000000
00100000
00000000
01000000
00010000
01000000
00010000
01000000
00000000
00001000
00000000
00010000
00001000
00010000
00001000
,  // measure 71
00010000
00001000
00000000
00000000
00001000
00000100
00000000
00000000
00000100
00000010
00000000
00000000
00000010
00000001
00000000
00000000
,  // measure 72
00000001
00000000
00001000
00000010
00001000
00000010
00001000
00000010
00001000
00000000
00000100
00010000
00000100
00000000
00010000
00000000
,  // measure 73
00001000
00000000
00100000
00010000
00100000
00000000
01000000
00010000
01000000
00000000
10000000
00010000
10000000
00000000
01000000
00100000
,  // measure 74
01000000
10000000
00100000
01000000
00001000
00000000
00011000
00000000
,  // measure 75
00010000
00001000
00010000
00001000
00010000
00001000
00010000
00001000
00010000
00000000
00000000
00000000
00011000
00000000
00000000
00000000
,  // measure 76
00220000
00330000
00000220
00000330
,  // measure 77
00022000
00000000
00033000
00000000
02200000
03300000
02200000
03300000
,  // measure 78
10000000
00000000
00100000
00000000
01000000
00010000
01000000
00010000
01000000
00000000
00100000
00000000
00001000
00010000
00001000
00010000
,  // measure 79
00001000
00010000
00000010
00000100
00000001
00000100
00000010
00001000
,  // measure 80
00010000
00000100
00010000
00000000
00100000
00001000
00100000
00000000
00010000
01000000
00010000
10000000
00010000
10000000
00010000
00000000
,  // measure 81
00100000
00001000
00100000
00000000
00010000
00000100
00010000
00000000
00000010
00001000
00000010
00001000
00000001
00000100
00000001
00000000
,  // measure 82
00000001
00000010
00000100
00001000
00000100
00010000
00001000
00100000
,  // measure 83
00010000
01000000
00010000
01000000
00010000
01000000
00010000
01000000
00010000
00000000
00000000
00000000
10000000
01000000
10000000
01000000
,  // measure 84
10000000
01000000
10000000
01000000
10000000
00000000
00000000
00000000
01000000
00010000
01000000
00000000
00001000
00010000
00001000
00000000
,  // measure 85
00000010
00001000
00000010
00001000
00000001
00000100
00000001
00000100
00000001
00000000
00000000
00000000
00001000
00000100
00001000
00000100
,  // measure 86
00000010
00000001
00000010
00000001
00000010
00000000
00000000
00000000
00001000
00000100
00001000
00000100
00010000
00001000
00010000
00001000
,  // measure 87
00020000
00030200
00200300
00320000
,  // measure 88
10030000
00010000
10000000
00010000
01000000
00010000
01000000
00001000
00010000
00001000
00010000
00000010
,  // measure 89
00000100
00000010
00000100
00000001
00000010
00000001
00001000
00000100
00001000
00000100
00010000
00000100
,  // measure 90
00010000
00000000
00000000
00001000
00010000
00001000
00011000
00000000
00000000
00010000
00100000
00010000
,  // measure 91
00110000
00000000
00000000
10000000
01000000
10000000
11000000
00000000
00000000
00010000
00100000
00010000
,  // measure 92
00110000
00000000
00000000
00001000
00000010
00001000
00001010
00000000
00000000
00000001
00000010
00000001
,  // measure 93
00000011
00000110
00011000
01100000
,  // measure 94
10010000
00000000
00000000
00000000
;

//---------------dance-single - ----------------
#NOTES:
     dance-single:
     :
     Challenge:
     17:
     0.994825,1.210767,0.249300,0.132960,1.005509,838.000000,808.000000,30.000000,16.000000,0.000000,0.000000,0.994825,1.210767,0.249300,0.132960,1.005509,838.000000,808.000000,30.000000,16.000000,0.000000,0.000000:
0000
0000
0000
0000
,
0000
0000
0000
0000
,
0000
0000
0000
0000
,
0000
0000
0000
0000
,
1001
0000
0000
0000
0000
0220
0000
0330
,
1001
0000
0000
0000
0000
0220
0000
0330
,
1001
0000
0000
0000
0000
0220
0000
0330
,
1100
0110
0011
1001
,
1000
1000
0010
0010
0100
0100
0001
0001
,
1000
0100
0010
0001
1000
0100
0010
0001
,
0010
0010
0001
0001
0100
0100
0010
0010
,
1000
0001
0010
0100
1000
0010
0100
1000
,
0001
0001
0100
0100
0010
0010
1000
1000
,
0001
1000
0001
1001
0000
0100
0110
0000
,
1000
1000
0001
0001
0100
0100
0010
0010
,
1000
0001
1000
0001
0000
0100
0110
0000
,
1000
0000
0001
0000
0100
0010
0100
0010
0100
0000
0001
0000
0010
0000
0100
0000
,
1001
0000
0000
0000
,
0001
0000
1000
0000
0010
0100
0010
0100
0010
0000
1000
0000
0100
0000
0010
0000
,
1001
0000
0000
0000
,
1100
0000
0010
0000
0001
0100
0001
0100
0001
0000
0010
0000
0100
0000
1000
0000
,
1001
0000
0000
0000
,
0011
0000
0100
0000
1000
0010
1000
0010
1000
0000
0100
0000
0010
0000
0001
0000
,
1001
1100
0110
0011
,
1000
0000
0001
0000
0100
0010
0100
0010
0100
0000
0001
0000
0010
0000
0100
0000
,
1000
0100
1000
0000
0010
0100
0010
0000
0001
0010
0001
0000
0100
0010
0100
0010
,
0100
0000
0001
1000
0001
1000
0001
1000
0001
0000
0100
0000
0010
0000
1000
0000
,
0100
1000
0100
0000
0010
0100
0010
0000
0001
0010
0001
0000
0100
0010
0100
0010
,
0100
0000
0001
0100
0001
0100
0001
0100
0001
0000
0010
0000
0100
0000
1000
0000
,
0010
1000
0010
0000
0100
0001
0100
0000
0010
0001
0010
0000
0100
0010
0100
0000
,
1000
0000
0010
0100
0010
0100
0010
0100
0010
0000
0001
0000
0100
0000
0010
0000
,
1000
0100
1000
0100
1000
0000
0010
0000
0100
0001
0100
0001
0100
0000
0000
0000
,
1000
0001
1000
0001
1000
0100
0010
0001
,
1000
0001
1000
0001
1000
0001
0010
0100
,
1000
0001
1000
0001
1000
0010
0100
0001
,
0010
0001
0010
0001
0100
0010
0100
0010
,
1000
0100
1000
0100
0001
0010
0100
1000
,
0001
0010
0001
0010
1000
0100
0010
0001
,
0100
0010
0100
0010
0001
1000
0001
1000
,
0100
0010
0100
0010
2000
0000
3002
0000
,
0103
0010
0100
0010
0000
0100
0001
0000
0001
0100
0010
0100
,
0010
0000
0010
1000
0000
1000
0010
0100
0010
0100
0000
0100
,
0001
0000
0001
0010
0000
0010
0100
0000
0100
1000
0000
1000
,
0010
0000
0010
0100
0000
0100
0001
0100
0001
0010
0001
0010
,
0001
1000
0001
1000
0010
1000
0010
0000
1000
0100
1000
0100
,
1000
0100
1000
0100
0000
0010
0100
0010
0100
0010
0100
0010
,
0100
0000
0001
0100
0001
0100
0001
0100
0001
0100
0000
0010
,
1000
0100
1000
0100
1000
0100
0010
0001
0010
0001
0010
0001
,
0010
0000
0001
0100
0000
0010
1000
0000
0100
0010
0000
1000
,
0001
0000
0010
0100
0000
1000
0100
0000
0010
0001
0000
0100
,
0010
0000
0000
1000
0000
0000
0100
0000
0000
0001
0010
0001
1000
0100
1000
0100
,
1000
0000
0000
0010
0000
0000
0100
0000
0000
0001
0100
0001
1000
0010
1000
0010
,
0100
0000
0000
0001
0000
0000
0010
0000
0000
1000
0100
1000
0001
0010
0001
0010
,
0001
0000
0000
0000
0000
0000
0000
0000
0000
0000
0000
0000
0000
0000
0000
0000
0000
0000
0000
0000
0000
0000
0000
0000
0100
0000
0000
0000
0000
0000
0000
0000
0000
0000
0000
0000
0000
0000
0000
0000
0000
0000
0000
0000
0000
0000
0000
0000
0010
0000
0000
0000
0000
0000
0000
0000
0000
0000
0000
0000
0000
0000
0000
0000
0000
0000
0000
0000
0000
0000
0000
0000
0000
0000
0000
0000
0000
0000
0000
0000
0000
0000
0000
0000
1000
0000
0000
0000
0000
0000
0100
0000
0000
0000
0000
0000
1000
0000
0000
0000
0000
0000
0000
0000
0100
0000
0000
0000
0000
0000
0000
0000
1000
0000
0000
0000
0000
0000
0000
0000
0010
0000
0000
0000
0000
0000
0000
0000
0100
0000
0000
0000
0000
0000
0000
0000
0010
0000
0000
0000
0000
0000
0000
0000
0100
0000
0000
0000
0000
0000
0000
0000
0001
0000
0000
0000
0000
0000
0000
0000
0100
0000
0000
0000
0000
0000
0000
0000
0001
0000
0000
0000
0000
0000
0000
0000
0010
0000
0000
0000
0000
0000
0000
0000
0001
0000
0000
0000
0000
0000
0000
0000
,
0010
0000
0001
0010
0001
0000
0100
0000
0010
0100
0010
0000
1000
0000
0100
1000
,
0100
0001
0010
0100
1000
0100
0010
0001
,
1000
0000
0100
1000
0100
0000
0001
0000
0010
0001
0010
0000
0001
0000
0100
0001
,
0100
0010
1000
0100
0010
0001
0100
0010
,
0001
0000
1000
0001
1000
0000
0010
0000
0100
0010
0100
0000
0001
0000
1000
0100
,
1000
0001
0010
0100
1000
0010
0100
0001
,
1001
0000
1000
0100
1000
0100
1000
0100
1000
0000
0020
0000
0000
0000
0130
0000
,
1001
0000
0100
0010
0100
0010
0100
0010
0100
0000
0002
0000
0000
0000
1003
0000
,
1001
0000
1000
0100
1000
0100
1000
0100
1000
0000
2000
0000
0000
0000
3010
0000
,
1010
0000
0100
0001
0100
0001
0100
0001
0100
0000
0002
0000
0000
0000
0103
0000
,
0100
0000
1000
0010
1000
0010
1000
0000
0100
0000
0001
0100
0001
0100
0001
0000
,
0010
0000
0001
0100
0001
0100
0001
0000
1000
0000
0010
0100
0010
0100
0010
0000
,
1000
0100
0010
0001
1000
0100
0010
0001
,
1000
0000
0010
0000
0100
0001
1001
0000
,
1000
0000
0010
0000
1000
0100
1000
0100
1000
0000
0010
0000
0001
0010
0001
0010
,
0001
0000
0010
0000
0100
1000
0100
1000
0100
0000
0000
0000
1000
0000
0001
0000
,
1000
0000
0010
0000
1000
0100
1000
0100
1000
0000
0010
0000
0100
0001
0100
0001
,
0100
0001
0000
0000
0001
0100
0000
0000
0100
0010
0000
0000
0010
1000
0000
0000
,
1000
0000
0100
0000
0010
0100
0010
0100
0010
0000
0100
0000
0010
0001
0010
0001
,
0010
0000
0001
0000
0100
0001
0100
0001
0100
0000
0010
0000
1000
0100
1000
0100
,
1000
0010
0100
0001
0100
0010
1000
0100
,
0010
0100
0010
0100
0010
0100
0010
0100
0010
0000
0000
0000
1001
0000
0000
0000
,
0010
0000
1000
0100
1000
0000
0010
1000
0010
0000
0100
0001
0100
0000
0001
0100
,
0001
0000
0100
1000
0100
0000
1000
0010
0100
0000
0001
0100
0001
0000
0100
0000
,
0001
0000
0000
0000
0010
0100
0010
0100
0010
0000
1000
0000
0100
0000
0010
0000
,
0001
0010
0000
0000
0010
0100
0000
0000
0100
1000
0000
0000
1000
0010
0000
0000
,
0010
0000
0100
0000
0001
1000
0001
1000
0001
0000
0100
0000
0010
0000
1000
0000
,
0100
0000
1000
0000
0010
0100
0010
0100
0010
0000
0001
0000
0100
0000
0010
0000
,
1000
0100
0010
0001
0100
0010
1000
0001
,
0100
0000
0001
0000
0100
0001
0100
0001
0100
0000
0000
0000
1000
0000
0010
0000
,
1000
0010
1000
0010
1000
0000
0000
0000
0001
0100
0001
0000
1000
0010
1000
0000
,
0010
0000
0100
0000
0010
0100
0010
0100
0010
0000
0000
0000
1000
0000
0001
0000
,
1000
0001
1000
0001
1000
0000
0000
0000
0010
0001
0010
0000
1000
0100
1000
0000
,
0002
0023
0230
2300
,
3001
0010
0001
0010
0001
0010
0001
1000
0001
1000
0001
1000
,
0010
1000
0010
1000
0010
1000
0100
1000
0100
1000
0100
1000
,
0010
0000
0100
0010
0100
0010
0100
0000
1000
0100
1000
0100
,
1000
0000
0001
0010
0001
0010
0001
0000
0000
1001
0000
0000
,
0001
0010
0100
1000
0010
0100
0001
0010
0100
1000
0010
0100
,
0001
0010
0100
1000
0010
0100
0001
0010
0100
1000
0000
0000
,
1001
0000
0000
0000
;

//---------------dance-double - ----------------
#NOTES:
     dance-double:
     :
     Hard:
     13:
     0.686168,0.820197,0.373950,0.423810,0.278385,578.000000,533.000000,45.000000,51.000000,0.000000,0.000000,0.686168,0.820197,0.373950,0.423810,0.278385,578.000000,533.000000,45.000000,51.000000,0.000000,0.000000:
00000000
00000000
00000000
00000000
,
00000000
00000000
00000000
00000000
,
00000000
00000000
00000000
00000000
,
00000000
00000000
00000000
00000000
,
00011000
00000000
00000000
00000000
00000000
00200000
00000000
00000000
,
01300000
00000000
00000000
00000000
00000000
00020000
00000000
00000000
,
00031000
00000000
00000000
00000000
00000000
00000020
00000000
00000000
,
00000230
00000302
00002003
00003200
,
00010300
00001000
00010000
00000000
01000000
00010000
01000000
00000000
,
00100000
10000000
00100000
10000000
00000000
01000000
10000000
01000000
,
10000000
00100000
10000000
00000000
00010000
01000000
00010000
00000000
,
00100000
00001000
00100000
00001000
00000000
00010000
00000100
00010000
,
00000100
00001000
00000100
00000000
00000010
00000100
00000010
00000000
,
00000001
00000100
00000001
00000100
00000000
00000010
00001000
00000010
,
00001000
00000100
00001000
00000000
00010000
00001000
00010000
00000000
,
00001000
00100000
00010000
00100000
00000000
00010000
10010000
00000000
,
20000000
00000000
30020000
00000000
01030000
00100000
00001000
00010000
,
00011000
00000000
00000000
00000000
,
00020000
00000000
00030200
00000000
00001300
00000010
00000100
00000001
,
00001001
00000000
00000000
00000000
,
00000002
00000000
00002003
00000000
00003100
00010000
00001000
00100000
,
00110000
00000000
00000000
00000000
,
00020000
00000000
20030000
00000000
30100000
01000000
00001000
00010000
,
00011000
00011000
00000110
00000110
,
00000001
00000100
00000001
00000100
00000001
00000100
00000010
00001000
,
00000100
00010000
00000100
00010000
00000100
00010000
00001000
00100000
,
00010000
10000000
00010000
10000000
00010000
10000000
01000000
00010000
,
00100000
00001000
00100000
00001000
00010000
00000100
00001000
00000010
,
00000100
00000001
00000100
00000001
00000100
00000010
00010000
00000100
,
00010000
00001000
00010000
00001000
00010000
00001000
01000000
00010000
,
00100000
01000000
00100000
01000000
10000000
00100000
01000000
00010000
,
00100000
00001000
00010000
00011000
,
00020000
00000000
00000100
00000000
00030100
00000100
00001000
00002000
,
00000010
00000000
00000010
00000000
00003010
00000010
00000100
00000200
,
00000001
00000000
00000001
00000000
00000301
00000001
00000010
00000020
,
00001000
00000000
00001000
00000000
00001030
00001000
00000100
00010000
,
00020000
00000000
00001000
00000000
00031000
00001000
00100000
00200000
,
00010000
00000000
00010000
00000000
00310000
00010000
01000000
02000000
,
00100000
00000000
00100000
00000000
03100000
10000000
01000000
00100000
,
00010000
00100000
00001000
00011000
,
00010000
00000000
00010000
00000100
00000000
00000100
00001000
00000000
00001000
00000010
00000000
00000010
,
00000100
00000000
00000100
00000001
00000000
00000001
00001000
00000000
00001000
00000100
00000000
00000100
,
00010000
00000000
00010000
00001000
00000000
00001000
01000000
00000000
01000000
00100000
00000000
00100000
,
10000000
00000000
10000000
00010000
00000000
00010000
00100000
00000000
00100000
00001000
00000000
00001000
,
00010000
00000000
00010000
00000010
00000000
00000010
00000100
00000000
00000100
00000001
00000000
00000001
,
00001000
00000000
00001000
00000100
00000000
00000100
00010000
00000000
00010000
00001000
00000000
00001000
,
01000000
00000000
01000000
00010000
00000000
00010000
10000000
00000000
10000000
00001000
00000000
00001000
,
00010000
00000000
00010000
00000100
00000000
00000100
00001000
00000000
00001000
00000010
00000000
00000010
,
00000100
00000000
00000100
00000001
00000000
00000001
00001000
00000000
00000000
00001100
00000000
00000000
,
00000100
00000000
00000100
00010000
00000000
00010000
00001000
00000000
00000000
00011000
00000000
00000000
,
00010000
00000000
00000000
00100000
00000000
00000000
02000000
00000000
00000000
00000000
00000000
00000000
03000000
00000000
00000000
00000000
,
10000000
00000000
00000000
00100000
00000000
00000000
02000000
00000000
00000000
00000000
00000000
00000000
03000000
00000000
00000000
00000000
,
00001000
00000000
00000000
00010000
00000000
00000000
00000200
00000000
00000000
00000000
00000000
00000000
00001300
00000000
00000000
00000000
,
00000020
00000000
00000000
00000000
00000000
00000000
00000230
00000000
00000000
00000000
00000000
00000000
00000301
00000000
00000001
00000010
00000000
00000010
00000100
00000000
00000100
00001000
00000000
00001000
,
00000100
00001000
00000100
00010000
00001000
00010000
00001000
00100000
,
00001000
01000000
00010000
01000000
00100000
10000000
00100000
10000000
,
00100000
01000000
00100000
01000000
00001000
01000000
00001000
00010000
,
00001000
00010000
00000100
00010000
00000010
00000100
00000010
00000100
,
00000001
00000100
00000001
00001000
00000010
00001000
00000100
00010000
,
00000100
00010000
00001000
00010000
00001000
00100000
00010000
01000000
,
01100000
00000000
00000000
00000000
00000000
00022000
00000000
00033000
,
00001001
00000000
00000000
00000000
00000000
00022000
00000000
00033000
,
10010000
00000000
00000000
00000000
00000000
00022000
00000000
00033000
,
00001001
00000000
00000000
00000000
00000000
00022000
00000000
00033000
,
10010000
01000000
00100000
00001000
,
00010000
00000100
00001000
00000010
,
00000001
00000100
00000010
00010000
,
00001000
00000000
00100000
00000000
00010000
10000000
10010000
00000000
,
10000000
01000000
10000000
01000000
00100000
00010000
00100000
00001000
,
00010000
00001000
00010000
00001000
00010000
00000000
00000100
00001000
,
00000010
00000100
00000010
00000100
00000001
00000100
00000001
00000010
,
00000002
00000100
00001000
00001003
,
00000100
00001000
00000100
00010000
00001000
00010000
00001000
01000000
,
00010000
01000000
00010000
01000000
00100000
10000000
00100000
10000000
,
01000000
00010000
01000000
00010000
00100000
00001000
00100000
00000000
,
00010000
00001000
00010000
00001000
00010000
00000000
00011000
00000000
,
00000220
00000330
00002200
00003300
,
00022000
00033000
00220000
00330000
,
01100000
00000000
10000000
01000000
00100000
00010000
01000000
00100000
,
20000000
30200000
02300000
03001000
,
00010000
00001000
00010000
00000000
00000100
00001000
00000100
00000000
,
00000001
00000010
00000100
00001000
00000010
00000100
00000001
00001000
,
00000010
00010000
00001000
00100000
00010000
01000000
00100000
10000000
,
00010000
00000000
00000000
00000000
10000000
00010000
10000000
00010000
10000000
00000000
00000000
00000000
01000000
00000000
00000000
00000000
,
00010000
10000000
00010000
10000000
00010000
00000000
00000000
00000000
01100000
00000000
00000000
00000000
00011000
00000000
00000000
00000000
,
00000110
00000000
00000000
00000000
00001000
00000001
00001000
00000001
00001000
00000000
00000000
00000000
00000110
00000000
00000000
00000000
,
00000001
00001000
00000001
00001000
00000001
00000000
00000000
00000000
00000110
00000000
00000000
00000000
00011000
00000000
00000000
00000000
,
01200000
20300000
32000000
03020000
,
00130000
00001000
00100000
00001000
00000000
00000000
00010000
00001000
00010000
00001000
00000000
00000000
,
00000010
00001000
00000010
00001000
00000000
00000000
00000001
00000100
00000001
00000100
00000000
00000000
,
00001001
00000000
00000000
00001100
00000000
00001000
00000100
00000000
00000000
00011000
00000000
00001000
,
00010000
00000000
00000000
00110000
00000000
00010000
00100000
00000000
00000000
01100000
00000000
01000000
,
00100000
00000000
00000000
11000000
00000000
01000000
00100000
00000000
00000000
00110000
00000000
00100000
,
00001000
00000000
00000000
00011000
00000000
00001000
00000010
00000000
00000000
00000110
00000000
00000001
,
00001000
00000000
00000000
00000000
;

//---------------dance-single - ----------------
#NOTES:
     dance-single:
     :
     Hard:
     13:
     0.684981,0.781140,0.407190,0.415500,0.274230,577.000000,528.000000,49.000000,50.000000,0.000000,0.000000,0.684981,0.781140,0.407190,0.415500,0.274230,577.000000,528.000000,49.000000,50.000000,0.000000,0.000000:
0000
0000
0000
0000
,
0000
0000
0000
0000
,
0000
0000
0000
0000
,
0000
0000
0000
0000
,
1001
0000
0000
0000
0000
0020
0000
0000
,
0130
0000
0000
0000
0000
0002
0000
0000
,
1003
0000
0000
0000
0000
0020
0000
0000
,
0230
0302
2003
3200
,
0301
1000
0001
0000
1000
0001
1000
0000
,
0010
1000
0010
1000
0000
0100
1000
0100
,
1000
0010
1000
0000
0001
0100
0001
0000
,
0010
1000
0010
1000
0000
0001
0100
0001
,
0100
1000
0100
0000
0010
0100
0010
0000
,
0001
0100
0001
0100
0000
0010
1000
0010
,
1000
0100
1000
0000
0001
1000
0001
0000
,
1000
0010
0001
0010
0000
0001
1001
0000
,
2002
0000
3003
0000
1000
0100
0010
0001
,
1001
0000
0000
0000
,
2002
0000
0000
3003
0001
0010
0100
1000
,
1001
0000
0000
0000
,
0220
0000
0330
0000
0001
0010
0001
0010
,
0011
0000
0000
0000
,
0220
0000
0330
0000
1000
0100
1000
0100
,
1100
0110
0011
1001
,
0001
0100
0001
0100
0001
0100
0010
1000
,
0001
0100
0001
0100
0001
1000
0010
0100
,
0001
1000
0001
1000
0001
1000
0001
0100
,
0010
1000
0010
1000
0001
0100
0001
0100
,
0010
0100
0010
1000
0010
0100
0001
0100
,
0001
1000
0001
1000
0001
1000
0100
1000
,
0010
0100
0010
0100
0001
0010
0100
0001
,
0010
1000
0001
1001
,
0002
0000
0100
0000
0103
0100
1000
2000
,
0010
0000
0010
0000
3010
0010
0100
0200
,
0001
0000
0001
0000
0301
0001
0010
0020
,
0001
0000
0001
0000
0031
0001
0100
0010
,
0020
0000
1000
0000
1030
1000
0010
0020
,
0100
0000
0100
0000
0130
0001
0100
0002
,
0100
0000
0100
0000
0103
0000
0100
0001
,
0010
0010
1000
1001
,
0001
0000
0001
0100
0000
0100
1000
0000
1000
0100
0000
0100
,
0001
0000
0001
0100
0000
0100
1000
0000
1000
0100
0000
0100
,
0001
0000
0001
0010
0000
0010
1000
0000
1000
0010
0000
0010
,
0001
0000
0001
0010
0000
0010
1000
0000
1000
0010
0000
0010
,
0001
0000
0001
0010
0000
0010
0100
0000
0100
1000
0000
1000
,
0001
0000
0001
0100
0000
0100
0001
0000
0001
1000
0000
0001
,
1000
0000
1000
0100
0000
0100
0010
0000
0010
0001
0000
0001
,
0010
0000
0010
0100
0000
0100
1000
0000
1000
0001
0000
0001
,
0100
0000
0100
0001
0000
0001
0010
0000
0000
0110
0000
0000
,
0100
0000
0100
0001
0000
0001
0010
0000
0000
0011
0000
0000
,
0001
0000
0000
0010
0000
0000
0200
0000
0000
0000
0000
0000
0300
0000
0000
0000
,
1000
0000
0000
0010
0000
0000
0200
0000
0000
0000
0000
0000
0300
0000
0000
0000
,
0010
0000
0000
0001
0000
0000
0200
0000
0000
0000
0000
0000
0310
0000
0000
0000
,
2000
0000
0000
0000
0000
0000
3200
0000
0000
0000
0000
0000
0301
0000
0001
1000
0000
1000
0010
0000
0010
0100
0000
0000
,
0100
0010
0100
0001
0010
0001
0010
0001
,
0010
0001
0100
0001
1000
0010
1000
0010
,
1000
0100
1000
0010
0100
0010
0100
0001
,
0100
0001
0100
0001
1000
0100
1000
0100
,
1000
0001
1000
0001
0100
0001
0100
0001
,
0100
0001
0010
0001
0100
0001
1000
0010
,
1010
0000
0000
0000
0000
0022
0000
0033
,
1001
0000
0000
0000
0000
2200
0000
3300
,
1001
0000
0000
0000
0000
0022
0000
0033
,
1001
0000
0000
0000
0000
2200
0000
3300
,
1001
0100
1000
0010
,
0001
0100
0010
1000
,
1000
0100
1000
0001
,
0010
0000
1000
0000
0001
0100
0101
0000
,
0100
0010
0100
0010
1000
0001
1000
0001
,
0010
0001
0010
0001
0010
0000
0001
0100
,
1000
0100
1000
0100
0001
0100
0001
0100
,
0002
0010
0100
1003
,
0001
1000
0001
0100
0001
0010
0001
0100
,
0001
1000
0010
1000
0100
1000
0010
1000
,
0001
1000
0001
1000
0010
0100
0010
0100
,
0001
1000
0001
1000
0001
0000
0011
0000
,
2002
3003
0220
0330
,
2200
3300
0022
0033
,
1100
0000
0010
1000
0100
0001
1000
0100
,
0020
0230
2300
3010
,
0001
0010
0001
0000
0100
0010
0100
0000
,
1000
0001
0100
0010
0001
0100
1000
0010
,
0001
0100
0010
0100
1000
0001
0100
0010
,
1000
0000
0000
0000
0010
1000
0010
1000
0010
0000
0000
0000
0001
0000
0000
0000
,
1000
0010
1000
0010
1000
0000
0000
0000
0101
0000
0000
0000
1010
0000
0000
0000
,
0101
0000
0000
0000
0010
1000
0010
1000
0010
0000
0000
0000
0101
0000
0000
0000
,
1000
0010
1000
0010
1000
0000
0000
0000
0101
0000
0000
0000
1010
0000
0000
0000
,
1001
2000
3200
0320
,
0031
0100
0001
0100
0000
0000
1000
0010
1000
0010
0000
0000
,
0001
0010
0001
0010
0000
0000
1000
0100
1000
0100
0000
0000
,
1010
0000
0000
0110
0000
0010
0100
0000
0000
1010
0000
0010
,
1000
0000
0000
1100
0000
1000
0100
0000
0000
0101
0000
0001
,
0100
0000
0000
0011
0000
0001
0100
0000
0000
1100
0000
0100
,
0010
0000
0000
1010
0000
0010
0001
0000
0000
1001
0000
1000
,
0001
0000
0000
0000
;

//---------------dance-double - ----------------
#NOTES:
     dance-double:
     :
     Medium:
     9:
     0.481980,0.624912,0.573390,0.265920,0.012465,406.000000,337.000000,69.000000,32.000000,0.000000,0.000000,0.481980,0.624912,0.573390,0.265920,0.012465,406.000000,337.000000,69.000000,32.000000,0.000000,0.000000:
00000000
00000000
00000000
00000000
,
00000000
00000000
00000000
00000000
,
00000000
00000000
00000000
00000000
,
00000000
00000000
00000000
00000000
,
00011000
00000000
00000000
00000000
00000000
00100000
00000000
00000000
,
01100000
00000000
00000000
00000000
00000000
00010000
00000000
00000000
,
00011000
00000000
00000000
00000000
00000000
00000010
00000000
00000000
,
00000110
00000001
00000100
00001000
,
00000010
00000100
00010000
00001000
,
01000000
00100000
00010000
10000000
,
00100000
01000000
00001000
00010000
,
00000010
00000100
00000001
00001000
,
00000010
00001000
00000100
00010000
,
00001000
00000000
01000000
00010000
00000000
10000000
00100000
00000000
,
10000000
01000000
00100000
00010000
,
00001000
00000000
00010000
00000100
00000000
00000000
00000000
00000000
,
00022000
00000000
00033000
00000000
00010000
00000100
00010000
00000100
,
00010000
00000000
00000000
00000000
,
00002002
00000000
00003003
00000000
00000010
00000100
00000010
00000100
,
00000010
00000000
00000000
00000000
,
00002200
00000000
00003300
00000000
00010000
00001000
00010000
00001000
,
00010000
00000000
00000000
00000000
,
02200000
00000000
03300000
00000000
01000000
00100000
01000000
00100000
,
01000000
00100000
00001000
00010000
,
00001000
00000000
00010000
00000100
00010000
00000000
00000100
00000000
,
00001000
00000010
00001000
00000000
00000001
00000100
00000001
00000000
,
00000010
00000000
00000001
00001000
00000001
00000000
00000100
00000000
,
00000010
00001000
00000010
00000000
00001000
00000100
00001000
00000000
,
00000100
00000000
00010000
00000100
00010000
00000000
00001000
00000000
,
00100000
00010000
00100000
00000000
01000000
00010000
01000000
00000000
,
00100000
00000000
10000000
01000000
10000000
00000000
00100000
00000000
,
01000000
00001000
00010000
00011000
,
00020000
00000000
00000000
00000000
00030000
00000100
00001000
00000200
,
00000000
00000000
00000000
00000000
00000000
00000301
00000100
00000002
,
00000000
00000000
00000000
00000000
00000000
00001003
00000001
00002000
,
00000000
00000000
00000000
00000000
00000000
00003100
00010000
00000200
,
00000000
00000000
00000000
00000000
00000000
00010300
00001000
00020000
,
00000000
00000000
00000000
00000000
00000000
00031000
00100000
00002000
,
00000000
00000000
00000000
00203000
00000000
00000000
00000000
00320000
,
00000000
00000000
02030000
03200000
,
10300000
11000000
01100000
01000000
,
01100000
00101000
00010000
00011000
,
00010100
00001000
00001010
00000101
,
00000001
00000011
00000110
00001100
,
00000010
00001010
00001100
00000100
,
00010100
00011000
00010000
00011000
,
01001000
01000000
01100000
10010000
,
10000000
11000000
01100000
00110000
,
00200000
00302000
00023000
00030200
,
00002300
00000010
00003010
00000000
,
00000001
00000000
00000000
00000001
00000000
00000000
00000001
00000000
00000000
00000000
00000000
00000000
00000000
00000000
00000000
00000000
,
00001000
00000000
00000000
00001000
00000000
00000000
00001000
00000000
00000000
00000000
00000000
00000000
00000000
00000000
00000000
00000000
,
01000000
00000000
00000000
01000000
00000000
00000000
01000000
00000000
00000000
00000000
00000000
00000000
00000000
00000000
00000000
00000000
,
00100000
10000000
01000000
00010000
,
00100000
00000000
01000000
00100000
00000000
01000000
00100000
00000000
,
10000000
01000000
00100000
00001000
,
00010000
00000000
00001000
00010000
00000000
00001000
00010000
00000000
,
00000100
00001000
00000010
00000100
,
00000001
00000000
00000100
00000001
00000000
00000100
00000001
00000000
,
00001000
00000100
00010000
00001000
,
00011000
00000000
00000000
00000000
00000000
00100000
00000000
00000000
,
01100000
00000000
00000000
00000000
00000000
00010000
00000000
00000000
,
00011000
00000000
00000000
00000000
00000000
00000010
00000000
00000000
,
00000110
00000000
00000000
00000000
00000000
00000001
00000000
00000000
,
00001001
00000000
00000000
00000000
,
00000000
00000000
00000000
00000000
,
00000000
00000000
00000000
00000000
,
00000000
00000000
00000000
00000000
00000000
00010000
00001000
00000000
,
00010000
00001000
00010000
00000000
00001000
00000000
00100000
00000000
,
00010000
00000000
01000000
00000000
00100000
00000000
10000000
01000000
,
10000000
00000000
00100000
00001000
00100000
00000000
00001000
00010000
,
00002000
00010000
00013000
00011000
,
00010000
00000000
00010000
00000100
00010000
00000000
00000100
00001000
,
00000100
00000000
00001000
00000010
00001000
00000000
00000010
00000001
,
00000010
00000000
00000001
00000100
00000001
00000000
00001001
00000000
,
00000110
00000110
00001001
00000000
,
00001100
00000000
00110000
00000000
,
00001100
00000000
00110000
00000000
,
00010000
00000000
10000000
00100000
10000000
00000000
01000000
00000000
,
00020000
10000000
10000000
10030000
,
11000000
00100000
01010000
00100000
,
00011000
00010000
00001100
00001000
,
00000011
00000100
00001000
00001100
,
00001000
00000100
00001000
00000100
00001000
00000000
00010000
00001000
,
00010000
00001000
00010000
00000000
00110000
00000000
01010000
00000000
,
10000000
01000000
10000000
01000000
10000000
00000000
00010000
00100000
,
00010000
00100000
00010000
00000000
00110000
00000000
00011000
00000000
,
00001100
00000010
00000001
00000100
,
00002020
00000000
00000000
00003030
,
00022000
00033000
00220000
00330000
,
10000000
10010000
01000000
01010000
,
00100000
00101000
00010000
00011000
,
00000100
00001100
00000010
00001010
,
00000001
00000101
00001010
00001100
,
00011000
00000000
00000000
00000000
;

//---------------dance-single - ----------------
#NOTES:
     dance-single:
     :
     Medium:
     9:
     0.481980,0.624912,0.581700,0.282540,0.012465,406.000000,336.000000,70.000000,34.000000,0.000000,0.000000,0.481980,0.624912,0.581700,0.282540,0.012465,406.000000,336.000000,70.000000,34.000000,0.000000,0.000000:
0000
0000
0000
0000
,
0000
0000
0000
0000
,
0000
0000
0000
0000
,
0000
0000
0000
0000
,
1001
0000
0000
0000
0000
0010
0000
0000
,
0110
0000
0000
0000
0000
1000
0000
0000
,
1001
0000
0000
0000
0000
0001
0000
0000
,
1001
0001
0100
1000
,
0010
0100
0001
1000
,
0100
0010
0001
1000
,
0010
0100
1000
0001
,
0010
0100
0001
1000
,
0010
1000
0100
0001
,
1000
0000
0100
0001
0000
1000
0010
0000
,
2000
3001
0002
1003
,
0110
0000
1000
0001
0000
0000
0000
0000
,
2002
0000
3003
0000
0001
0100
0001
0100
,
0001
0000
0000
0000
,
2002
0000
3003
0000
0010
0100
0010
0100
,
0010
0000
0000
0000
,
2200
0000
3300
0000
0001
1000
0001
1000
,
0001
0000
0000
0000
,
0022
0000
0033
0000
1000
0001
1000
0001
,
1000
0100
0010
0001
,
1000
0000
0001
0100
0001
0000
0100
0000
,
1000
0010
1000
0000
0001
0100
0001
0000
,
0010
0000
0001
1000
0001
0000
0100
0000
,
0010
1000
0010
0000
1000
0100
1000
0000
,
0100
0000
0001
0100
0001
0000
1000
0000
,
0010
0001
0010
0000
0100
0001
0100
0000
,
0010
0000
1000
0100
1000
0000
0010
0000
,
0100
1000
0001
1001
,
0002
0000
0000
0000
0003
0100
1000
0200
,
0000
0000
0000
0000
0000
0301
0100
0002
,
0000
0000
0000
0000
0000
1003
0001
2000
,
0000
0000
0000
0000
0000
3100
0001
0200
,
0000
0000
0000
0000
0000
0301
1000
0002
,
0000
0000
0000
0000
0000
1003
0010
2000
,
0000
0000
0000
3020
0000
0000
0000
0032
,
0000
0000
0203
0320
,
1030
1100
0110
0100
,
0110
1010
0001
1001
,
0101
1000
1010
0101
,
0001
0011
0110
1100
,
0010
1010
1100
0100
,
0101
1001
0001
1001
,
1100
0100
0110
1001
,
1000
1100
0110
0011
,
0020
2030
3002
0203
,
2300
0010
3010
0000
,
0001
0000
0000
0001
0000
0000
0001
0000
0000
0000
0000
0000
0000
0000
0000
0000
,
1000
0000
0000
1000
0000
0000
1000
0000
0000
0000
0000
0000
0000
0000
0000
0000
,
0100
0000
0000
0100
0000
0000
0100
0000
0000
0000
0000
0000
0000
0000
0000
0000
,
0010
1000
0100
0001
,
0010
0000
0100
0010
0000
0100
0010
0000
,
1000
0100
0010
1000
,
0001
0000
1000
0001
0000
1000
0001
0000
,
0100
1000
0010
0100
,
0001
0000
0100
0001
0000
0100
0001
0000
,
1000
0100
0001
1000
,
1001
0000
0000
0000
0000
0010
0000
0000
,
0110
0000
0000
0000
0000
0001
0000
0000
,
1001
0000
0000
0000
0000
0100
0000
0000
,
0110
0000
0000
0000
0000
1000
0000
0000
,
1001
0000
0000
0000
,
0000
0000
0000
0000
,
0000
0000
0000
0000
,
0000
0000
0000
0000
0000
0100
0010
0000
,
0100
0010
0100
0000
0010
0000
0001
0000
,
0100
0000
1000
0000
0001
0000
0010
1000
,
0010
0000
0001
0010
0001
0000
0100
0010
,
0200
0010
0310
0110
,
0100
0000
0100
0001
0100
0000
1000
0010
,
1000
0000
0100
0001
0100
0000
0001
0100
,
0001
0100
1000
0110
,
1001
1001
0110
0000
,
1010
0000
0101
0000
,
1010
0000
0101
0000
,
0100
0000
0010
0001
0010
0000
1000
0000
,
0200
0010
0010
0310
,
1010
0001
1100
0001
,
0110
0100
1010
0010
,
0101
1000
0010
1010
,
0010
1000
0010
1000
0010
0000
0100
0010
,
0100
0010
0100
0000
0101
0000
1100
0000
,
0010
1000
0010
1000
0010
0000
0100
0001
,
0100
0001
0100
0000
0101
0000
0110
0000
,
1010
0001
0100
1000
,
0022
0000
0000
0033
,
0220
0330
0202
0303
,
0010
0110
1000
1100
,
0001
0011
0100
0110
,
1000
1010
0001
0011
,
0100
1100
0011
1010
,
0110
0000
0000
0000
;

//---------------dance-single - ----------------
#NOTES:
     dance-single:
     :
     Beginner:
     5:
     0.217247,0.389531,0.232680,0.066480,0.000000,183.000000,155.000000,28.000000,8.000000,0.000000,0.000000,0.217247,0.389531,0.232680,0.066480,0.000000,183.000000,155.000000,28.000000,8.000000,0.000000,0.000000:
0000
0000
0000
0000
,
0000
0000
0000
0000
,
0000
0000
0000
0000
,
0000
0000
0000
0000
,
1001
0000
0000
0000
,
1001
0000
0000
0000
,
1001
0000
0000
0000
,
0010
0010
0010
0010
,
0010
0000
0100
0000
,
0010
0000
0100
0000
,
0001
0000
1000
0000
,
0001
0000
1000
0000
,
0010
0000
0100
0000
,
0010
0000
0100
0000
,
0001
0000
1000
0000
,
0001
0000
1000
0000
,
1001
0000
0000
0000
,
0110
0000
0000
0000
,
0110
0000
0000
0000
,
1001
0000
0000
0000
,
1001
0000
0000
0000
,
0110
0000
0000
0000
,
0110
0000
0000
0000
,
1001
0000
0000
0000
,
1000
1000
1000
1000
,
1000
0000
0000
0000
,
0001
0001
0001
0001
,
0001
0000
0000
0000
,
0010
0010
0010
0010
,
0010
0000
0000
0000
,
0100
0100
0100
0100
,
0100
0000
0000
0000
,
2000
0000
3000
0000
,
0002
0000
0003
0000
,
0200
0000
0300
0000
,
0020
0000
0030
0000
,
2000
0000
3000
0000
,
0200
0000
0300
0000
,
0020
0000
0030
0000
,
0002
0000
0003
0000
,
0100
0000
0000
0001
,
0000
0000
1000
0000
,
0000
0010
0000
0000
,
0100
0000
0100
0000
,
0100
0000
0000
0001
,
0000
0000
1000
0000
,
0000
0010
0000
0000
,
0100
0000
0100
0000
,
1001
0000
0000
0000
,
0110
0000
0000
0000
,
0100
0000
0000
0000
,
0100
0000
0000
0000
,
0100
0000
0000
0000
,
0100
0000
0100
0000
,
0100
0000
0000
0010
0000
0000
0100
0000
,
0000
0000
0000
0000
,
0010
0000
0000
0100
0000
0000
0010
0000
,
0000
0000
0000
0000
,
0100
0000
0000
0010
0000
0000
0100
0000
,
0000
0000
0000
0000
,
1001
0000
0000
0000
,
0110
0000
0000
0000
,
1001
0000
0000
0000
,
0110
0000
0000
0000
,
1001
0000
0000
0000
,
0000
0000
0000
0000
,
0000
0000
0000
0000
,
0000
0000
0000
0000
,
0010
0000
0010
0000
,
1000
0000
1000
0000
,
0100
0000
0100
0000
,
0001
0001
0001
0001
,
0001
0000
0100
0000
,
0001
0000
1000
0000
,
0001
0000
0010
0000
,
0100
0100
0100
0000
,
1001
0000
1001
0000
,
0110
0000
0110
0000
,
1000
0000
0001
0000
,
1000
1000
1000
0000
,
0001
0000
0100
0000
,
0010
0000
1000
0000
,
0100
0100
0100
0000
,
0010
0000
0001
0001
,
0000
1000
1000
0000
,
0001
0000
0100
0100
,
0000
0010
0010
0000
,
1000
0000
0001
0000
,
1000
0000
1001
0000
,
0001
0000
1001
0000
,
0110
0000
1001
0000
,
0110
0000
1001
0000
,
0010
0010
0010
0010
,
0100
0100
0100
0100
;

//---------------dance-double - ----------------
#NOTES:
     dance-double:
     :
     Easy:
     7:
     0.480793,0.701156,0.963960,0.216060,0.000000,405.000000,289.000000,116.000000,26.000000,0.000000,0.000000,0.480793,0.701156,0.963960,0.216060,0.000000,405.000000,289.000000,116.000000,26.000000,0.000000,0.000000:
00000000
00000000
00000000
00000000
,
00000000
00000000
00000000
00000000
,
00000000
00000000
00000000
00000000
,
00000000
00000000
00000000
00000000
,
00011000
00000000
00000000
00000000
,
00011000
00000000
00000000
00000000
,
00011000
00000000
00000000
00000000
,
00001000
00010000
00001000
00010000
,
00001000
00000000
00100000
00000000
,
01000000
00100000
01000000
00100000
,
10000000
00000000
01000000
00000000
,
00100000
00001000
00100000
00001000
,
00010000
00000000
00000010
00000000
,
00001000
00000001
00001000
00000001
,
00001000
00000000
00000100
00000000
,
00010000
00001000
00010000
00000000
,
00012000
00010000
00010000
00103000
,
00110000
00000000
00000000
00000000
,
10020000
10000000
10000000
00130000
,
00110000
00000000
00000000
00000000
,
00021000
00001000
00031000
00001100
,
00001001
00000000
00000000
00000000
,
00000102
00000100
00000100
00001003
,
00001001
00001100
00011000
00110000
,
01010000
01010000
10000000
01000000
,
00110000
00110000
00100000
00001000
,
00011000
00011000
00010000
00000010
,
00001010
00001010
00001000
00000001
,
00000101
00000101
00000010
00001000
,
00001100
00001100
00000100
00010000
,
00011000
00011000
00001000
01000000
,
01010000
01010000
00100000
10000000
,
20020000
00000000
30030000
00000000
00000000
00100000
01000000
00200000
,
00000000
00000000
00000000
00300000
00000000
00001000
00010000
00002000
,
00000000
00000000
00000000
00003000
00000000
00010000
00000100
00020000
,
00000000
00000000
00000000
00000000
00030000
00000010
00000100
00000020
,
00000000
00000000
00000000
00000030
00000000
00000100
00000001
00000200
,
00000000
00000000
00000000
00000300
00000000
00001000
00000010
00002000
,
00000000
00000000
00000000
00003200
00000000
00000000
00000000
00020300
,
00000000
00000000
00001000
00031000
,
00011000
00101000
01001000
00011000
,
00010100
00010010
00001010
00001001
,
00000101
00001001
00001010
00010010
,
00011000
00101000
00110000
01010000
,
10010000
11000000
10010000
01010000
,
01001000
00011000
00010100
00011000
,
00101000
00011000
00010010
00001010
,
00001001
00000101
00000011
00000101
,
00001001
00000010
00000100
00010000
,
00001000
01000000
00100000
10000000
,
00020000
00000000
00230000
00000000
,
00302000
00000000
00023000
00000000
,
00030020
00000000
00000230
00000000
,
00000302
00000203
00000320
00020030
,
00031000
00010000
00001000
00110000
,
01000000
00010000
01000000
10010000
,
00100000
10000000
00100000
10010000
,
01000000
00001000
00010000
00000100
,
00001000
00000001
00001000
00001001
,
00001000
00000100
00010000
00011000
,
00011000
00000000
00000000
00000000
00000000
00100000
00000000
00000000
,
01100000
00000000
00000000
00000000
00000000
00010000
00000000
00000000
,
00011000
00000000
00000000
00000000
00000000
00000100
00000000
00000000
,
00000110
00000000
00000000
00000000
00000000
00000010
00000000
00000000
,
00001001
00000000
00000000
00000000
,
00000000
00000000
00000000
00000000
,
00000000
00000000
00000000
00000000
,
00000000
00000000
00000000
00011000
,
00001000
00100000
00010000
01000000
,
00100000
10000000
01000000
00000000
,
01000000
00001000
00100000
00001000
,
00020000
00001000
00001000
00031000
,
00010000
00000010
00001000
00000010
,
00000100
00000001
00000010
00000001
,
00001000
00000100
00001000
00000010
,
00010000
00000100
00010000
00000000
,
00011000
00000000
00110000
00000000
,
00011000
00000000
00001100
00000000
,
00001000
00100000
00010000
01000000
,
00200000
10000000
10300000
00000000
,
10000000
00100000
01000000
00001000
,
00010000
00001000
00010000
00000010
,
00001000
00000001
00000100
00000010
,
00001001
00001001
00001001
00001100
,
00001100
00001100
00000100
00010000
,
00011000
00011000
00011000
01001000
,
01001000
01001000
00010000
01000000
,
10000000
00100000
01000000
00001000
,
00011000
00011000
00011000
00011000
,
00001010
00001010
00000011
00000011
,
00000101
00000101
00001100
00001100
,
00001010
00001010
00011000
00011000
,
00101000
00101000
00110000
00110000
,
11000000
01100000
00110000
10010000
;

//---------------dance-single - ----------------
#NOTES:
     dance-single:
     :
     Easy:
     7:
     0.476044,0.701156,0.972270,0.282540,0.000000,401.000000,284.000000,117.000000,34.000000,0.000000,0.000000,0.476044,0.701156,0.972270,0.282540,0.000000,401.000000,284.000000,117.000000,34.000000,0.000000,0.000000:
0000
0000
0000
0000
,
0000
0000
0000
0000
,
0000
0000
0000
0000
,
0000
0000
0000
0000
,
1001
0000
0000
0000
,
1001
0000
0000
0000
,
1001
0000
0000
0000
,
1000
0001
1000
0001
,
1000
0000
0001
0000
,
0100
0010
0100
0010
,
0100
0000
0001
0000
,
0010
1000
0010
1000
,
0010
0000
0100
0000
,
1000
0001
1000
0001
,
1000
0000
0100
0000
,
0001
1000
0001
0000
,
0210
0010
0010
0310
,
1001
0000
0000
0000
,
0120
0100
0100
0130
,
1001
0000
0000
0000
,
1002
1000
1000
1003
,
0110
0000
0000
0000
,
2001
0001
0001
3001
,
0110
1001
0110
1001
,
0101
0101
1000
0001
,
1001
1001
1000
0010
,
1010
1010
0100
0001
,
0101
0101
0001
1000
,
1001
1001
0100
0010
,
0110
0110
0100
0001
,
1000
0001
1000
0001
,
1001
1001
1001
0000
,
2002
0000
3003
0000
0000
0010
0100
0020
,
0000
0000
0000
0030
0000
1000
0001
2000
,
0000
0000
0000
3000
0000
0001
0100
0002
,
0000
0000
0000
0000
0003
0010
0100
0020
,
0000
0000
0000
0030
0000
0100
0001
0200
,
0000
0000
0000
0300
0000
1000
0010
2000
,
0000
0000
0000
3200
0000
0000
0000
0302
,
0000
0000
1000
1003
,
1010
1010
1010
0101
,
0101
0101
0011
0011
,
0011
1100
1100
1100
,
0110
0000
1001
0000
,
0011
0011
0011
1100
,
1100
1100
0110
0110
,
0110
1001
1001
1001
,
1010
0000
0101
0000
,
1001
0010
0100
0001
,
1000
0100
0010
1000
,
0002
0000
0023
0000
,
2030
0000
3002
0000
,
0023
0000
0230
0000
,
0302
0203
0320
2030
,
3001
0001
0010
0110
,
1000
1000
0010
0110
,
0001
0010
0100
1001
,
1000
0100
0010
1001
,
0001
0001
1000
1001
,
1000
1000
0001
1001
,
1001
0000
0000
0000
0000
0010
0000
0000
,
0110
0000
0000
0000
0000
0001
0000
0000
,
1001
0000
0000
0000
0000
0100
0000
0000
,
0110
0000
0000
0000
0000
1001
0000
0000
,
0110
0000
0000
0000
,
0000
0000
0000
0000
,
0000
0000
0000
0000
,
0000
0000
0000
1001
,
0100
0010
0001
0100
,
0010
1000
0100
0000
,
0100
1000
0010
0100
,
0002
1000
1000
1003
,
0001
0010
0100
1000
,
0100
0010
0001
0100
,
0010
0100
0010
0100
,
1001
1001
1001
0000
,
0220
0330
2200
3300
,
0022
0033
2002
3003
,
1000
0010
0001
0100
,
0020
1000
1030
0000
,
1000
0010
0100
1001
,
0001
0100
0010
1001
,
1000
0001
0100
0010
,
1001
1001
1001
1100
,
1100
1100
0010
0001
,
1001
1001
1001
0101
,
0101
0101
0001
0100
,
1000
0010
0100
0001
,
1001
1001
1001
1001
,
1010
1010
0101
0101
,
0011
0011
1100
1100
,
0110
0110
1001
1001
,
1010
1010
0110
0110
,
0101
0101
0101
1001
;
