#TITLE:#Endroll;
#SUBTITLE:;
#ARTIST:uno & D. Watt (IOSYS TRAX);
#TITLETRANSLIT:Endroll;
#SUBTITLETRANSLIT:;
#ARTISTTRANSLIT:;
#GENRE:;
#CREDIT:;
#MENUCOLOR:;
#METERTYPE:DDR;
#BANNER:#Endroll.png;
#BACKGROUND:#Endroll-jacket.png;
#LYRICSPATH:;
#CDTITLE:;
#MUSIC:#Endroll.ogg;
#OFFSET:0.001;
#SAMPLESTART:11.300;
#SAMPLELENGTH:12.430;
#SELECTABLE:YES;
#LISTSORT:;
#DISPLAYBPM:170.000;
#BPMS:0.000=170.000;
#STOPS:;
#BGCHANGES:;
#ATTACKS:;

//---------------dance-single - ----------------
#NOTES:
     dance-single:
     :
     Hard:
     16:
     0.905,1.000,0.488,0.126,0.998:
0000
0000
0000
0000
,
0000
0000
0000
0000
,
0000
0000
0000
0000
,
0000
0000
0000
0000
,
0000
0000
0000
0000
,
0000
0000
0000
0000
,
0000
0000
0000
0000
,
0000
0000
0000
0000
,
0001
1001
1001
0000
,
0100
0000
0000
0110
0000
0000
1000
0000
0000
1010
0000
0000
0101
0000
0000
0000
,
0010
0110
0110
0000
,
0001
0000
0000
0101
0000
0000
0100
0000
0000
0000
1001
0000
1001
0000
0000
0000
,
1000
0000
0000
1000
0100
0000
0000
0100
0010
0000
0000
0010
0001
0000
0000
0001
,
0100
0001
0100
0001
1000
0010
1000
0010
,
1000
0100
1000
0100
1000
0010
0100
0010
0100
0001
0100
0001
0010
0001
0010
0001
,
0000
0001
0100
0001
0010
0010
0100
1000
,
1001
0000
0000
0001
1000
0000
0010
0000
0100
0000
0000
1000
0001
0000
0100
0000
,
0010
0000
0000
0001
1000
0000
0010
0000
0100
0000
0010
1000
0010
0000
0100
0001
,
0100
0000
0000
1000
0100
0000
0010
0000
0001
0000
0000
0001
0010
0000
0100
0000
,
1000
0000
0000
1000
0010
0000
0100
0000
1000
0001
1000
0010
1000
0000
0001
0010
,
0001
0000
0000
0100
0001
0000
1000
0000
1001
0000
0000
0010
1000
0000
0100
0000
,
0110
0000
0000
0001
0010
0000
0100
0000
0010
0000
0000
0100
0001
0100
0001
0100
,
0001
0000
0000
1000
0001
0000
1000
0000
0100
0000
0000
0001
1000
0000
0001
0000
,
0001
0100
0001
0100
0010
1000
0010
1000
0200
0000
0000
0000
0310
0000
0001
1000
,
0002
0000
0000
0103
0010
0000
1000
0000
0001
0000
0100
0010
0100
0000
1000
0000
,
0100
0000
0001
0010
0001
0000
0100
0000
1000
0010
0100
0001
0100
0000
0010
1000
,
0010
0000
0001
0100
0001
0000
0100
0000
0010
0000
1000
0100
1000
0000
0001
0000
,
0100
0000
0010
0001
0010
0000
0100
0010
0100
0010
1000
0010
1000
0100
1000
0010
,
2000
0000
0000
0000
3010
0000
0010
0000
0110
0000
0000
1000
0100
0000
1000
0010
,
0100
0000
0000
0001
0010
0000
0001
0000
0100
0000
0010
1000
0100
1000
0010
1000
,
0010
0000
0100
0001
0100
0000
0010
0000
1000
0000
0100
0010
0100
0000
0001
0000
,
0010
0100
0010
0100
1000
0010
1000
0010
0100
0001
0100
0001
0010
1000
0010
1000
,
0010
0000
0000
0000
1000
0010
1000
0010
0100
0001
0100
0001
0010
0001
0010
0001
,
0010
0000
0000
0000
0001
0100
0001
0100
0010
0100
0010
0100
0010
1000
0010
1000
,
0010
0000
0000
0000
1000
0100
1000
0100
1000
0010
1000
0010
0100
0001
0100
0001
,
0100
0000
0100
0001
0100
0000
0010
1000
0010
0000
1000
0100
1000
0000
0001
0100
,
0001
0000
0000
1001
0000
0000
1100
0000
0000
0101
0000
0000
0110
0000
0000
1001
,
0000
0000
1100
0000
0000
0101
0000
0000
0011
0000
0000
0110
0000
0000
1001
0000
,
1100
0000
1000
0010
1000
0000
0100
0010
0100
0000
0100
0001
0100
0001
0200
0000
,
0000
0000
0301
0010
0001
0000
0100
0010
0100
0010
0100
0001
1000
0001
2000
0000
,
0001
0001
3002
0100
,
0103
0000
0010
0100
0000
1000
0100
0010
,
0001
0000
1000
0000
0101
0000
0010
0100
,
1000
0000
0001
0101
0000
1000
0100
0010
,
0001
0000
1000
0000
1001
0000
0001
0100
,
0010
0000
1000
1100
0000
0001
0010
0100
,
1000
0000
0101
0000
1001
0000
1000
0001
,
0101
0000
0000
0000
0001
0000
1001
0000
0000
0000
1100
0000
1000
0100
1000
0100
,
1000
0000
0000
0010
0000
0000
0200
0000
0020
0000
0000
0000
0330
0000
0000
0000
,
0101
0000
0000
0101
0000
0000
1001
0000
0000
1001
0000
0000
1000
0000
0100
0000
,
0010
0000
0000
1000
0000
0000
0200
0000
0020
0000
0000
0000
0330
0000
0000
0000
,
0101
0000
0000
0100
0001
0000
1000
0000
0010
1000
0000
0010
0100
0000
0100
0000
,
2001
0000
0000
0000
0002
0000
0003
0000
0002
0000
0003
0000
3001
0100
0001
0100
,
0001
0000
0000
1001
0000
0000
1000
0000
0000
0110
0000
0000
0010
0000
0100
0000
,
1001
0000
0110
0000
0110
0000
1000
0001
,
1001
0000
0000
1100
0000
0000
1100
0000
0000
1010
0000
0000
1001
0000
0100
0000
,
0101
0000
0000
0001
0100
0000
0010
1000
0010
0000
0000
1000
0100
0000
1000
0010
,
1000
0000
0000
0100
0010
0000
0100
0000
0010
0000
0100
0001
0100
0000
0010
1000
,
0010
0000
0000
0001
0100
0000
0010
0000
1000
0000
0000
0100
1000
0000
0010
0000
,
0100
0000
0000
0001
0010
0000
0001
0000
0010
1000
0010
1000
0010
0000
0001
1000
,
0001
0001
1000
1000
0010
0010
0100
0100
,
0001
0100
0001
0100
0010
1000
0010
1000
0100
1000
0100
1000
0010
0100
0010
0100
,
0001
0010
0001
0100
0010
0100
0010
1000
0100
0010
0001
1001
,
0000
0010
0100
0010
0110
0110
1001
0000
,
0100
0000
0001
0100
0000
0001
0100
0000
0010
0000
1000
0100
0000
1000
0100
0000
,
0001
0000
0100
0010
0000
0100
0010
0000
1000
0100
1000
0100
1000
0010
0100
0010
,
0100
0000
0001
0100
0000
0001
0100
0000
0010
0000
1000
0100
0000
1000
0100
0000
,
0010
0000
0001
0100
0000
0001
0100
0000
0001
0010
0001
0100
0010
0100
0010
1000
,
0100
0000
0001
0100
0000
0001
0100
0000
0010
0000
1000
0100
0000
1000
0100
0000
,
0010
0000
0100
0001
0000
0100
0001
0000
1000
0010
1000
0010
0100
0001
0100
0001
,
0010
0000
0001
0100
0000
0010
0100
0010
0100
0000
1000
0100
0000
1000
0100
0000
,
0001
0100
0001
0100
0010
1000
0010
1000
0010
0100
0010
0100
0001
0100
0001
0010
,
0001
0000
0100
0001
0000
0100
0010
0000
1010
0000
0100
0001
0000
0100
0010
0000
,
1100
0000
0010
0001
0000
0100
0010
0000
0001
0010
0001
0100
0010
1000
0100
0010
,
0001
0000
0100
0010
0000
0100
0010
0000
0001
0000
1000
0100
0000
1000
0100
0000
,
0001
0000
0100
0010
0000
0100
0001
0100
0010
1000
0100
1000
0001
0100
0001
0010
,
0001
0000
0100
0010
1000
0010
0100
0000
0001
0000
0100
0010
0100
0001
0100
0000
,
0010
0000
1000
0100
1000
0010
1000
0000
0001
0100
0010
0100
0001
1000
0010
0100
,
0001
1000
0100
1000
0010
0100
0001
0000
1000
0010
0100
0010
1000
0100
0010
0000
,
0001
0100
0001
0100
0010
1000
0010
1000
0100
0001
0100
0010
0100
0001
1000
0001
,
0000
2002
0000
0000
,
0000
0000
0000
0000
,
3003
0000
0000
0000
;

//---------------dance-double - Copied from----------------
#NOTES:
     dance-double:
     Copied from:
     Hard:
     16:
     0.830,0.967,0.362,0.126,0.897:
00000000
00000000
00000000
00000000
,
00000000
00000000
00000000
00000000
,
00000000
00000000
00000000
00000000
,
00000000
00000000
00000000
00000000
,
00000000
00000000
00000000
00000000
,
00000000
00000000
00000000
00000000
,
00000000
00000000
00000000
00000000
,
00000000
00000000
00000000
00000000
,
00010000
00011000
00011000
00000000
,
00000100
00000000
00000000
00000110
00000000
00000000
00001000
00000000
00000000
00001010
00000000
00000000
00000101
00000000
00000000
00000000
,
00000010
00000110
00000110
00000000
,
00001000
00000000
00000000
00001100
00000000
00000000
00010000
00000000
00000000
00000000
00011000
00000000
00011000
00000000
00000000
00000000
,
00001000
00000000
00000000
00001000
01000000
00000000
00000000
01000000
00010000
00000000
00000000
00010000
01000000
00000000
00000000
01000000
,
00010000
01000000
00010000
01000000
00100000
10000000
00100000
10000000
,
00100000
01000000
00100000
01000000
00100000
01000000
00010000
01000000
00010000
00100000
00010000
00100000
00001000
00100000
00001000
00100000
,
00000000
00010000
00000100
00001000
00000100
00000100
00000100
00000000
,
00001001
00000000
00000000
00001000
00000001
00000000
00000100
00000000
00000010
00000000
00000000
00000001
00001000
00000000
00000010
00000000
,
00000100
00000000
00000000
00001000
00000001
00000000
00000100
00000000
00000010
00000000
00000100
00000001
00000100
00000000
00000010
00001000
,
00000010
00000000
00000000
00001000
00000010
00000000
00000100
00000000
00000010
00000000
00000000
00010000
00000100
00000000
00010000
00000000
,
00001000
00000000
00000000
00001000
00100000
00000000
00010000
00000000
01000000
00010000
01000000
00010000
01000000
00000000
00010000
01000000
,
00010000
00000000
00000000
01000000
00010000
00000000
10000000
00000000
10010000
00000000
00000000
00100000
10000000
00000000
01000000
00000000
,
01100000
00000000
00000000
00010000
00100000
00000000
01000000
00000000
00010000
00000000
00000000
00100000
00001000
00100000
00001000
00100000
,
00001000
00000000
00000000
00010000
00001000
00000000
00010000
00000000
00000100
00000000
00000000
00001000
00000001
00000000
00001000
00000000
,
00000001
00000100
00000001
00000100
00000010
00001000
00000010
00001000
00000200
00000000
00000000
00000000
00000310
00000000
00000001
00001000
,
00000002
00000000
00000000
00000103
00000010
00000000
00001000
00000000
00000100
00000000
00000000
00000100
00010000
00000000
00001000
00000000
,
00100000
00000000
00000000
00100000
00010000
00000000
00100000
00000000
01000000
00010000
01000000
00010000
01000000
00000000
00100000
10000000
,
00100000
00000000
00000000
01000000
00010000
00000000
00100000
00000000
00001000
00000000
00000000
00001000
00010000
00000000
00000100
00000000
,
00001000
00000000
00000000
00001000
00000010
00000000
00010000
00000000
00001000
00010000
00001000
00010000
00001000
00000000
00001000
00000000
,
00020000
00000000
00000000
00000000
00031000
00000000
00001000
00000000
01000000
00000000
00000000
00010000
01000000
00000000
00100000
00000000
,
01000000
00000000
00000000
10000000
00100000
00000000
00010000
00000000
01000000
00000000
00100000
10000000
00100000
10000000
00100000
10000000
,
00100000
00000000
01000000
00010000
01000000
00000000
00100000
00000000
00001000
00000000
00010000
00001000
00010000
00000000
00000100
00000000
,
00010000
00000100
00010000
00000100
00001000
00000100
00001000
00000010
00000100
00000010
00000100
00000001
00000010
00000001
00000010
00000001
,
00000010
00000000
00000000
00000000
00000010
00001000
00000010
00001000
00000100
00010000
00000100
00010000
00001000
00010000
00001000
00010000
,
00001000
00000000
00000000
00000000
01000000
00010000
01000000
00010000
10000000
00100000
10000000
00100000
01000000
00100000
01000000
00100000
,
01000000
00000000
00000000
00000000
00100000
00001000
00100000
00001000
00010000
00001000
00010000
00000100
00001000
00000100
00010000
00000000
,
00001000
00000000
00100000
00001000
00100000
00000000
00010000
10000000
00010000
00000000
10000000
01000000
10000000
00000000
00010000
01000000
,
00010000
00000000
00000000
01010000
00000000
00000000
01000000
00000000
00000000
01010000
00000000
00000000
00010000
00000000
00000000
00011000
,
00000000
00000000
00001100
00000000
00000000
00001010
00000000
00000000
00001001
00000000
00000000
00001100
00000000
00000000
00010100
00000000
,
00000100
00000000
00010000
00000100
00010000
00000000
00001000
00100000
00001000
00000000
00100000
00010000
00100000
00010000
00200000
00000000
,
00000000
00000000
00310000
01000000
00010000
00000000
01000000
00100000
01000000
00100000
01000000
00010000
10000000
00010000
20000000
00000000
,
00010000
00010000
30020000
01000000
,
01030000
00000000
01000000
00100000
00000000
10000000
01000000
00000000
,
00010000
00100000
00010000
00000100
,
00001000
00000000
00000001
00000010
00000000
00000100
00001000
00000000
,
00000010
00000000
00010000
00001000
00010000
00000000
00010000
00001000
,
00100000
00000000
01000000
00010000
00000000
10000000
00010000
00000000
,
00100000
00000000
00100000
00001000
00010000
00000100
00001000
00000000
,
00000001
00000010
00000100
00001000
00000100
00010000
00001000
01000000
,
00010000
00000000
00000000
01000000
00000000
00000000
00200000
00000000
02000000
00000000
00000000
00000000
03300000
00000000
00000000
00000000
,
00011000
00000000
00000000
00011000
00000000
00000000
00010100
00000000
00000000
00010100
00000000
00000000
00001000
00000000
00000010
00000000
,
00000100
00000000
00000000
00000001
00000000
00000000
00000020
00000000
00000200
00000000
00000000
00000000
00000330
00000000
00000000
00000000
,
00001010
00000000
00000000
00000010
00001000
00000000
00000001
00000000
00000100
00000001
00000000
00000100
00000010
00000000
00000010
00000000
,
00001002
00000000
00000000
00000000
00002000
00000000
00003000
00000000
00002000
00000000
00003000
00000000
00001003
00000010
00001000
00000010
,
00001000
00000000
00000000
00001100
00000000
00000000
00000100
00000000
00000000
00010100
00000000
00000000
00011000
00000000
00000000
00000000
,
00101000
00000000
00110000
00000000
00110000
00000000
00010000
10000000
,
10010000
00000000
00000000
00110000
00000000
00000000
00110000
00000000
00000000
01010000
00000000
00000000
10010000
00000000
00100000
00000000
,
10100000
00000000
00000000
00000000
00100000
00000000
01000000
00000000
01000000
00000000
00000000
00010000
00000000
00000000
00100000
00000000
,
00001000
00000000
00000000
00010000
00000000
00000000
00000100
00000000
00001000
00000000
00000000
00000010
00000000
00000000
00000100
00000010
,
00000100
00000000
00000000
00000010
00000000
00000000
00001000
00000000
00000100
00000000
00000000
00010000
00000000
00000000
00001000
00000000
,
00010000
00000000
00000000
00100000
00000000
00000000
00010000
00000000
00100000
01000000
00100000
01000000
00000000
00000000
00100000
10000000
,
00100000
00100000
00010000
00010000
01000000
01000000
00001000
00001000
,
00010000
00010000
00000100
00000100
00001000
00001000
00000010
00000010
,
00000001
00000100
00000010
00001000
00000100
00010000
00001000
01000000
00010000
00100000
01000000
10000000
,
00000000
10000000
00100000
01000000
00001000
00001000
00011000
00000000
,
00010000
00000000
00000010
00010000
00000000
00000010
00010000
00000000
00000100
00000000
00001000
00000010
00000000
00001000
00000010
00000000
,
00001000
00000000
00000010
00000100
00000000
00000010
00000100
00000000
00000001
00000010
00000001
00000010
00000001
00000100
00000010
00000100
,
00000010
00000000
00001000
00000010
00000000
00001000
00000010
00000000
00010000
00000000
00000100
00010000
00000000
00000100
00010000
00000000
,
00001000
00000000
01000000
00010000
00000000
01000000
00100000
00000000
10000000
01000000
10000000
00100000
01000000
00100000
01000000
00010000
,
00100000
00000000
10000000
00100000
00000000
10000000
00100000
00000000
01000000
00000000
00010000
00100000
00000000
00010000
00100000
00000000
,
00001000
00000000
00010000
00000100
00000000
00010000
00000100
00000000
00001000
00000100
00001000
00000100
00000010
00000001
00000010
00000001
,
00000100
00000000
00001000
00000010
00000000
00000100
00000010
00000100
00000010
00000000
00000001
00000010
00000000
00000001
00000010
00000000
,
00001000
00000010
00001000
00000010
00000100
00000001
00000100
00000001
00000100
00000010
00000100
00000010
00001000
00000010
00001000
00000100
,
00001000
00000000
00000100
00010000
00000000
00000100
00010000
00000000
00001000
00000000
00000000
01000000
00010000
00000000
01000000
00010000
,
00100000
00000000
00001000
00100000
00000000
00001000
00010000
00000000
00000100
00001000
00000100
00000010
00000100
00000010
00000001
00000100
,
00000001
00000000
00000010
00000100
00000000
00000010
00000100
00000000
00001000
00000000
00000100
00010000
00000000
00000100
00010000
00000000
,
00001000
00000000
00000000
01000000
00000000
00000000
00100000
00000000
01000000
00010000
00100000
00010000
10000000
00100000
10000000
01000000
,
10000000
00000000
10000000
00100000
00000000
00100000
01000000
00000000
10010000
00000000
01000000
00010000
00000000
00010000
00100000
00000000
,
00101000
00000000
00010000
00000100
00000000
00000100
00001000
00000000
00000010
00001000
00000010
00000100
00000001
00000010
00000001
00000100
,
00000010
00000000
00001000
00000100
00000000
00010000
00001000
00010000
00001000
00000000
00100000
00010000
00000000
01000000
00100000
01000000
,
00100000
00000000
10000000
01000000
00000000
00100000
00010000
00000000
00100000
00000000
00001000
00010000
00000000
00000100
00010000
00000000
,
00000000
00022000
00000000
00000000
,
00000000
00000000
00000000
00000000
,
00033000
00000000
00000000
00000000
;

//---------------dance-single - ----------------
#NOTES:
     dance-single:
     :
     Beginner:
     3:
     0.219,0.242,0.017,0.143,0.000:
0000
0000
0000
0000
,
0000
0000
0000
0000
,
0000
0000
0000
0000
,
0000
0000
0000
0000
,
0000
0000
0000
0000
,
0000
0000
0000
0000
,
0000
0000
0000
0000
,
0000
0000
0000
0000
,
0000
0010
0010
0000
,
0001
0000
0000
0001
0000
0000
0001
0000
,
0000
0100
0100
0000
,
1000
0000
0000
1000
0000
0000
1000
0000
,
2000
0000
3000
0000
,
0002
0000
0003
0000
,
0020
0000
0030
0000
,
0000
0010
0010
0010
,
0010
0000
0100
0000
,
0010
0000
0100
0100
,
0100
0000
0001
0000
,
1000
0000
0001
0001
,
0001
0000
1000
0000
,
0010
0000
0100
0100
,
0100
0000
0010
0000
,
0100
0100
0100
0000
,
0001
0001
0001
0000
,
1000
1000
1000
0000
,
0001
0001
0001
0000
,
0010
0010
0010
0000
,
1000
1000
1000
0000
,
0001
0001
0001
0000
,
1000
1000
1000
0000
,
0001
0001
0001
0000
,
0010
0020
0030
0000
,
0100
0200
0300
0000
,
0010
0020
0030
0000
,
2000
3000
1000
0000
,
0001
0002
0003
0000
,
0010
0020
0030
0000
,
0100
0200
0300
0000
,
1000
0000
1000
0000
,
1000
0000
0000
0001
,
0001
0000
0000
1000
,
1000
0000
0000
0000
,
0100
0000
0010
0000
,
0100
0000
0000
0010
,
0010
0000
0000
0100
,
0100
0000
0000
0000
,
0001
0000
1000
0000
,
0001
0000
0001
0000
,
0010
0010
0010
0000
,
1000
0000
1000
0000
,
0100
0100
0100
0000
,
0020
0000
0000
0030
,
0010
0000
0100
0000
,
0010
0010
0010
0000
,
1000
0000
0001
0000
,
2000
0000
3000
0000
,
0002
0000
0003
0000
,
2000
0000
3000
0000
,
0002
0000
0003
0000
,
1000
1000
1000
0000
,
0001
0001
0001
0000
,
0010
0000
0010
0000
,
0000
0100
0100
0000
,
0010
0000
0001
0000
,
0100
0000
1000
1000
,
1000
0000
0100
0000
,
0001
0000
0010
0010
,
0010
0000
0100
0000
,
1000
0000
0001
0001
,
0001
0000
1000
0000
,
0100
0000
1001
0000
,
0010
0000
0010
0000
,
0100
0000
0010
0010
,
0010
0000
1000
0000
,
0100
0000
0001
0001
,
0001
0000
0010
0000
,
0100
0000
1000
1000
,
1000
0000
0010
0000
,
0100
0100
0100
0100
,
0000
2002
0000
0000
,
0000
0000
0000
0000
,
3003
0000
0000
0000
;

//---------------dance-double - ----------------
#NOTES:
     dance-double:
     :
     Medium:
     12:
     0.530,0.656,0.370,0.185,0.337: // measure 1
00000000
00000000
00000000
00000000
,  // measure 2
00000000
00000000
00000000
00000000
,  // measure 3
00000000
00000000
00000000
00000000
,  // measure 4
00000000
00000000
00000000
00000000
,  // measure 5
00000000
00000000
00000000
00000000
,  // measure 6
00000000
00000000
00000000
00000000
,  // measure 7
00000000
00000000
00000000
00000000
,  // measure 8
00000000
00000000
00000000
00000000
,  // measure 9
00000000
00101000
00101000
00000000
,  // measure 10
00010000
00000000
00000000
00000100
00000000
00000000
00001000
00000000
00000000
00000010
00000000
00000000
00000100
00000000
00000000
00000000
,  // measure 11
00000000
00001001
00001001
00000000
,  // measure 12
00000100
00000000
00000000
00010000
00000000
00000000
00001000
00000000
00000000
00100000
00000000
00000000
00010000
00000000
00000000
00000000
,  // measure 13
10000000
10000000
00100000
00100000
,  // measure 14
01000000
01000000
00001000
00001000
,  // measure 15
00010000
00000100
00010000
00000100
00001000
00000001
00001000
00000001
,  // measure 16
00000000
00001000
00000010
00001000
00000010
00000000
00001001
00000000
,  // measure 17
00000010
00000000
00000000
00000010
00000000
00000000
00000100
00000000
00000010
00000000
00000000
00000010
00000000
00000000
00010000
00000000
,  // measure 18
00000100
00000000
00000000
00000100
00000000
00000000
00010000
00000000
00001000
00000000
00000000
00001000
00000000
00000000
00100000
00010000
,  // measure 19
00100000
00000000
00000000
00100000
00000000
00000000
00010000
00000000
01000000
00000000
00000000
01000000
00000000
00000000
00010000
00000000
,  // measure 20
10000000
00000000
00000000
10000000
00000000
00000000
00010000
00000000
01000000
00100000
00000000
01000000
00100000
00000000
01000000
00000000
,  // measure 21
00001000
00000000
00000000
00001000
00000000
00000000
00010000
00000000
00000010
00000000
00000000
00000010
00000000
00000000
00000100
00000000
,  // measure 22
00000001
00000000
00000000
00000001
00000000
00000000
00000100
00000000
00000010
00000000
00000000
00000010
00000000
00000000
00001000
00000000
,  // measure 23
00000100
00000000
00000000
00000100
00000000
00000000
00010000
00000000
00001000
00000000
00000000
00001000
00000000
00000000
00100000
00000000
,  // measure 24
00010000
00010000
10000000
10000000
01000000
01000000
01000000
00000000
,  // measure 25
20000000
00000000
00000000
00000000
30010000
00000000
10000000
00000000
00010000
00000000
00000000
00010000
00000000
00000000
00010000
00000000
,  // measure 26
00100000
00000000
00000000
00100000
00000000
00000000
00001000
00000000
00010000
00000000
00000000
00010000
00000000
00000000
00000010
00000000
,  // measure 27
00000100
00000000
00000000
00000100
00000000
00000000
00000100
00000000
00000001
00000000
00000000
00000001
00000000
00000000
00001000
00000000
,  // measure 28
00000100
00000000
00000000
00000100
00000000
00000000
00010000
00000000
00001000
00000000
00010000
00000000
00001000
00000000
00000000
00000000
,  // measure 29
00200000
00000000
00000000
00000000
00310000
00000000
00010000
00000000
00010000
00000000
00000000
01000000
00000000
00000000
10000000
00000000
,  // measure 30
10000000
00000000
00000000
01000000
00000000
00000000
01000000
00000000
00010000
00000000
00000000
00010000
00000000
00000000
00100000
00000000
,  // measure 31
00001000
00000000
00000000
00011000
00000000
00000000
00000000
00000000
00010000
00000000
00000000
00011000
00000000
00000000
00000000
00000000
,  // measure 32
00010000
00010000
00010000
00010000
00000100
00000100
00000100
00000000
,  // measure 33
00001001
00000000
00000001
00000010
00000100
00001000
00000100
00000000
,  // measure 34
00011000
00000000
00100000
00010000
00100000
01000000
10000000
00000000
,  // measure 35
10010000
00000000
01000000
10000000
00100000
01000000
00010000
00000000
,  // measure 36
00100000
00001000
00100000
00001000
00010000
00000100
00010000
00000000
,  // measure 37
00011000
00000000
00001000
00000100
00000010
00000001
00000100
00000000
,  // measure 38
00001001
00000000
00000001
00000010
00000100
00001000
00000100
00000000
,  // measure 39
00000110
00000000
00000100
00010000
00001000
00100000
00010000
01000000
,  // measure 40
00000000
00100000
10000000
00000000
10000000
01000000
00100000
00020000
,  // measure 41
00000000
01030000
02000000
00100000
,  // measure 42
03200000
00000000
00301000
00010000
,  // measure 43
00020000
00000000
00031000
00000000
,  // measure 44
00020000
00000000
00030200
00000000
,  // measure 45
00002300
00000000
00003010
00000100
,  // measure 46
00000200
00000000
00000301
00000010
,  // measure 47
00000020
00000000
00001030
00000000
,  // measure 48
00000200
00000000
00020300
00000000
,  // measure 49
00031000
00000000
00000000
00001000
00000000
00000000
00001000
00000000
00000000
00000000
00000000
00000000
00000000
00000000
00000000
00000000
,  // measure 50
00011000
00000000
00000000
00101000
00000000
00000000
01010000
00000000
,  // measure 51
00100000
00000000
00000000
00100000
00000000
00000000
00100000
00000000
00000000
00000000
00000000
00000000
00000000
00000000
00000000
00000000
,  // measure 52
11000000
00000000
00000000
01010000
00000000
00000000
00101000
00000000
,  // measure 53
00020000
00001000
00031000
00000000
,  // measure 54
00010000
00000000
00000000
00000010
00000000
00000000
00000100
00000000
00000001
00000000
00000000
00001001
00000000
00000000
00000000
00000000
,  // measure 55
00000010
00001010
00001010
00000100
,  // measure 56
00010000
00000000
00000000
00001000
00000000
00000000
00010000
00000000
00000000
00001000
00000000
00000000
00010000
00000000
00000000
00000000
,  // measure 57
00011000
00000000
00000000
00000000
00010000
00000000
01000000
00000000
00010000
00000000
00000000
00100000
00000000
00000000
00000000
00000000
,  // measure 58
10000000
00000000
00000000
00100000
00000000
00000000
00000000
00000000
00010000
00000000
00000000
00100000
00000000
00000000
00000000
00000000
,  // measure 59
00001000
00000000
00000000
00010000
00000000
00000000
00000000
00000000
00010000
00000000
00000000
00001000
00000000
00000000
00000000
00000000
,  // measure 60
00000010
00000000
00000000
00000100
00000000
00000000
00000000
00000000
00000100
00000000
00000000
00000010
00000000
00000000
00000000
00000000
,  // measure 61
00000001
00000100
00000001
00000100
00000001
00000100
00000001
00001000
,  // measure 62
00000100
00001000
00000100
00001000
00000100
00001000
00000100
00010000
,  // measure 63
00001000
00010000
00001000
00010000
00001000
00010000
00001000
00010000
00001000
00010000
00001000
00010000
,  // measure 64
00000000
00001000
00100000
00010000
01000000
01000000
01000000
00000000
,  // measure 65
00100000
00000000
00000000
10000000
00000000
00000000
01000000
00000000
00100000
00000000
00000000
00010000
00000000
00000000
01000000
00000000
,  // measure 66
00010000
00000000
00000000
00100000
00000000
00000000
00001000
00000000
00020000
00000000
00000000
00000000
00030020
00000000
00000000
00000000
,  // measure 67
00000130
00000000
00000000
00000001
00000000
00000000
00000010
00000000
00000001
00000000
00000000
00000100
00000000
00000000
00001000
00000000
,  // measure 68
00000010
00000000
00000000
00001000
00000000
00000000
00000100
00000000
00020000
00000000
00000000
00000000
00032000
00000000
00000000
00000000
,  // measure 69
00103000
00000000
00000000
00010000
00000000
00000000
10000000
00000000
01000000
00000000
00000000
00100000
00000000
00000000
01000000
00000000
,  // measure 70
00010000
00000000
00000000
00100000
00000000
00000000
00001000
00000000
00020000
00000000
00000000
00000000
00030200
00000000
00000000
00000000
,  // measure 71
00001300
00000000
00000000
00000010
00000000
00000000
00000001
00000000
00000100
00000000
00000000
00000010
00000000
00000000
00001000
00000000
,  // measure 72
00000100
00000000
00000000
00010000
00000000
00000000
00001000
00000000
00100000
00000000
00010000
00000000
01000000
00000000
10000000
00000000
,  // measure 73
10010000
00000000
00000000
10010000
00000000
00000000
00000000
00000000
01100000
00000000
00000000
01100000
00000000
00000000
00000000
00000000
,  // measure 74
00110000
00000000
00000000
00101000
00000000
00000000
00000000
00000000
00011000
00000000
00000000
00000000
00001010
00000000
00000000
00000000
,  // measure 75
00000101
00000000
00000000
00000101
00000000
00000000
00000000
00000000
00001010
00000000
00000000
00001010
00000000
00000000
00000000
00000000
,  // measure 76
00000110
00000000
00000000
00000110
00000000
00000000
00000000
00000000
00001100
00000000
00000000
00000000
00011000
00000000
00000000
00000000
,  // measure 77
00110000
00000000
00000000
00010000
00000000
00000000
01000000
00000000
10100000
00000000
00000000
10000000
00000000
00000000
01000000
00000000
,  // measure 78
00110000
00000000
00000000
00001000
00000000
00000000
00010000
00000000
00010100
00000000
00000000
00001000
00000000
00000000
00000100
00000000
,  // measure 79
00000010
00000000
00000001
00000100
00000000
00000001
00000100
00000000
00000010
00000000
00001000
00000100
00000000
00001000
00000100
00000000
,  // measure 80
00010000
00000000
00000000
00001000
00000000
00000000
00100000
00000000
00010000
00000000
00000000
10000000
00000000
00000000
00010000
00000000
,  // measure 81
00000000
20020000
00000000
00000000
,  // measure 82
00000000
00000000
00000000
00000000
,  // measure 83
30030000
00000000
00000000
00000000
;

//---------------dance-single - ----------------
#NOTES:
     dance-single:
     :
     Medium:
     11:
     0.528,0.656,0.370,0.185,0.337:
0000
0000
0000
0000
,
0000
0000
0000
0000
,
0000
0000
0000
0000
,
0000
0000
0000
0000
,
0000
0000
0000
0000
,
0000
0000
0000
0000
,
0000
0000
0000
0000
,
0000
0000
0000
0000
,
0000
1001
1001
0000
,
0100
0000
0000
0100
0000
0000
0010
0000
0000
0010
0000
0000
0100
0000
0000
0000
,
0000
1001
1001
0000
,
0001
0000
0000
0001
0000
0000
1000
0000
0000
1000
0000
0000
0001
0000
0000
0000
,
1000
1000
0010
0010
,
0100
0100
0001
0001
,
1000
0100
1000
0000
0001
0100
0001
0000
,
0000
1000
0010
1000
0010
0000
1001
0000
,
0010
0000
0000
0010
0000
0000
0001
0000
0010
0000
0000
0010
0000
0000
1000
0000
,
0100
0000
0000
0100
0000
0000
0001
0000
1000
0000
0000
1000
0000
0000
0010
0001
,
0010
0000
0000
0010
0000
0000
1000
0000
0100
0000
0000
0100
0000
0000
0001
0000
,
1000
0000
0000
1000
0000
0000
0001
0000
0100
0010
0000
0100
0010
0000
0100
0000
,
1000
0000
0000
1000
0000
0000
0001
0000
0010
0000
0000
0010
0000
0000
0100
0000
,
0001
0000
0000
0001
0000
0000
0100
0000
0010
0000
0000
0010
0000
0000
1000
0000
,
0100
0000
0000
0100
0000
0000
0001
0000
1000
0000
0000
1000
0000
0000
0010
0000
,
0001
0001
1000
1000
0100
0100
0100
0000
,
2000
0000
0000
0000
3001
0000
1000
0000
0001
0000
0000
0001
0000
0000
0001
0000
,
0010
0000
0000
0010
0000
0000
0010
0000
0001
0000
0000
0001
0000
0000
0001
0000
,
0100
0000
0000
0100
0000
0000
0100
0000
1000
0000
0000
1000
0000
0000
1000
0000
,
0100
0000
0000
0100
0000
0000
0001
0000
1000
0000
0001
0000
1000
0000
0000
0000
,
0020
0000
0000
0000
0031
0000
0001
0000
0001
0000
0000
0100
0000
0000
1000
0000
,
0100
0000
0000
0100
0000
0000
0100
0000
0001
0000
0000
0001
0000
0000
0001
0000
,
1000
0000
0000
1001
0000
0000
0000
0000
0001
0000
0000
1001
0000
0000
0000
0000
,
0001
0001
0001
0001
0100
0100
0100
0000
,
1001
0000
0001
0010
0100
1000
0100
0000
,
1001
0000
0010
0001
0010
0100
1000
0000
,
1001
0000
0100
1000
0010
0100
0001
0000
,
0010
1000
0010
1000
0001
0100
0001
0000
,
1001
0000
1000
0100
0010
0001
0100
0000
,
1001
0000
0001
0010
0100
1000
0100
0000
,
0110
0000
0100
0001
1000
0010
0001
0100
,
0000
0010
1000
0000
1000
0100
0010
0002
,
0000
0103
0200
0010
,
0320
0000
1030
0001
,
0002
0000
1003
0000
,
0002
0000
0203
0000
,
2300
0000
3010
0100
,
0200
0000
0301
0010
,
0020
0000
1030
0000
,
0200
0000
0302
0000
,
1003
0000
0000
1000
0000
0000
1000
0000
0000
0000
0000
0000
0000
0000
0000
0000
,
1001
0000
0000
1001
0000
0000
1001
0000
,
0010
0000
0000
0010
0000
0000
0010
0000
0000
0000
0000
0000
0000
0000
0000
0000
,
0110
0000
0000
0110
0000
0000
0110
0000
,
0002
1000
1003
0000
,
0001
0000
0000
0010
0000
0000
0100
0000
1000
0000
0000
1001
0000
0000
0000
0000
,
0010
1010
1010
0100
,
0001
0000
0000
1000
0000
0000
0001
0000
0000
1000
0000
0000
0001
0000
0000
0000
,
1001
0000
0000
0000
0001
0000
0100
0000
0001
0000
0000
0010
0000
0000
0000
0000
,
1000
0000
0000
0010
0000
0000
0000
0000
0001
0000
0000
0010
0000
0000
0000
0000
,
1000
0000
0000
0001
0000
0000
0000
0000
0001
0000
0000
1000
0000
0000
0000
0000
,
0010
0000
0000
0100
0000
0000
0000
0000
0100
0000
0000
0010
0000
0000
0000
0000
,
0001
0100
0001
0100
0001
0100
0001
1000
,
0100
1000
0100
1000
0100
1000
0100
0001
,
1000
0001
1000
0001
1000
0001
1000
0001
1000
0001
1000
0001
,
0000
1000
0001
1000
0100
0100
0100
0000
,
0010
0000
0000
0100
0000
0000
0010
0000
1000
0000
0000
0001
0000
0000
1000
0000
,
0001
0000
0000
0010
0000
0000
0100
0000
2000
0000
0000
0000
3020
0000
0000
0000
,
0130
0000
0000
0001
0000
0000
0010
0000
0001
0000
0000
0100
0000
0000
1000
0000
,
0010
0000
0000
1000
0000
0000
0100
0000
0002
0000
0000
0000
2003
0000
0000
0000
,
3010
0000
0000
0001
0000
0000
1000
0000
0100
0000
0000
0010
0000
0000
0100
0000
,
0001
0000
0000
0010
0000
0000
1000
0000
0002
0000
0000
0000
0203
0000
0000
0000
,
1300
0000
0000
0010
0000
0000
0001
0000
0100
0000
0000
0010
0000
0000
1000
0000
,
0100
0000
0000
0001
0000
0000
1000
0000
0010
0000
0001
0000
0100
0000
1000
0000
,
1001
0000
0000
1001
0000
0000
0000
0000
0110
0000
0000
0110
0000
0000
0000
0000
,
0011
0000
0000
1010
0000
0000
0000
0000
1001
0000
0000
0000
1010
0000
0000
0000
,
0101
0000
0000
0101
0000
0000
0000
0000
1010
0000
0000
1010
0000
0000
0000
0000
,
0110
0000
0000
0110
0000
0000
0000
0000
1100
0000
0000
0000
1001
0000
0000
0000
,
0011
0000
0000
0001
0000
0000
0001
0000
0101
0000
0000
0100
0000
0000
0100
0000
,
1100
0000
0000
1000
0000
0000
1000
0000
1010
0000
0000
0010
0000
0000
0010
0000
,
0010
0000
0001
0100
0000
0001
0100
0000
0010
0000
1000
0100
0000
1000
0100
0000
,
0001
0000
0000
1000
0000
0000
0010
0000
0001
0000
0000
1000
0000
0000
0001
0000
,
0000
2002
0000
0000
,
0000
0000
0000
0000
,
3003
0000
0000
0000
;

//---------------dance-single - ----------------
#NOTES:
     dance-single:
     :
     Easy:
     5:
     0.403,0.552,0.337,0.413,0.000:
0000
0000
0000
0000
,
0000
0000
0000
0000
,
0000
0000
0000
0000
,
0000
0000
0000
0000
,
0000
0000
0000
0000
,
0000
0000
0000
0000
,
0000
0000
0000
0000
,
0000
0000
0000
0000
,
0000
1001
1001
0000
,
0110
0000
0000
1001
0000
0000
0110
0000
,
0000
0110
0110
0000
,
1001
0000
0000
0110
0000
0000
1001
0000
,
1000
1000
1000
1000
,
0001
0000
0001
0000
0001
0000
0001
0100
,
0001
0010
0100
1000
,
0000
0010
0100
0000
0100
0000
1001
0000
,
0010
1000
0010
1000
,
0100
0001
0100
1001
,
0010
0001
0010
0001
,
1000
0100
0010
1001
,
0010
0100
0010
0100
,
1000
0001
1000
1001
,
0010
0100
0010
0100
,
1000
0100
0010
0001
,
1000
1000
0001
0001
,
1000
1000
0010
1001
,
0001
0001
1000
1000
,
0001
0001
0100
1001
,
0010
0100
0010
0100
,
0001
0010
0100
1001
,
0100
0010
0100
0010
,
1000
0100
0010
0001
,
1001
0020
0230
0320
,
0130
0002
2003
3002
,
1003
0020
0230
0320
,
0032
0203
0320
2030
,
3100
0002
2003
3002
,
0103
2000
3002
2003
,
3100
0020
0230
0320
,
0030
1000
0001
0200
,
0020
0330
2002
3003
,
0200
0000
0301
0001
,
0002
0000
1003
0000
,
0020
0000
0230
0000
,
0320
0000
0030
1000
,
2000
0000
3000
0001
,
0002
0000
0003
0000
,
0020
0000
0230
0000
,
0300
1001
1001
0000
,
0001
0010
0100
1000
,
0000
1001
1001
0000
,
1000
0100
0010
0001
,
0000
1001
1001
0000
,
0001
0010
0100
1000
,
0000
1001
1001
0000
,
1000
0100
0010
0001
,
0100
0100
0100
0100
,
0010
0010
0010
0010
,
0001
0001
0001
0001
,
1000
1000
1000
1000
,
0010
0010
0100
0100
,
1000
1000
0001
0001
,
0010
0100
1000
0001
,
0000
0100
0010
1001
,
0020
0030
0002
0003
,
0200
0300
0010
1000
,
0020
0030
2000
3000
,
0200
0300
0010
0001
,
0200
0300
2000
3000
,
0020
0030
0001
0010
,
0200
0300
0002
0003
,
0020
0030
1000
0100
,
1000
1000
0001
0001
,
1000
1000
0010
1001
,
0001
0001
1000
1000
,
0001
0001
0100
1001
,
0010
0010
1001
1001
,
0100
0100
1001
1001
,
0001
0011
1000
1100
,
0010
0110
1001
0110
,
0000
2002
0000
0000
,
0000
0000
0000
0000
,
3003
0000
0000
0000
;

//---------------dance-double - Copied from----------------
#NOTES:
     dance-double:
     Copied from:
     Easy:
     5:
     0.374,0.414,0.278,0.303,0.000:
00000000
00000000
00000000
00000000
,
00000000
00000000
00000000
00000000
,
00000000
00000000
00000000
00000000
,
00000000
00000000
00000000
00000000
,
00000000
00000000
00000000
00000000
,
00000000
00000000
00000000
00000000
,
00000000
00000000
00000000
00000000
,
00000000
00000000
00000000
00000000
,
00000000
10010000
10010000
00000000
,
00110000
00000000
00000000
00110000
00000000
00000000
00110000
00000000
,
00000000
00011000
00011000
00000000
,
00001010
00000000
00000000
00001010
00000000
00000000
00001010
00000000
,
00001000
00001000
00001000
00001000
,
00000001
00000000
00000001
00000000
00000001
00000000
00000001
00000100
,
00000001
00000010
00000100
00001000
,
00000000
00010000
00001000
00000000
00001000
00000000
00011000
00000000
,
00100000
00010000
00100000
00010000
,
01000000
10000000
01000000
10010000
,
00100000
00010000
00100000
00010000
,
00100000
00001000
00010000
00011000
,
00000100
00000100
00000010
00000010
,
00001000
00000001
00001000
00001001
,
00000010
00000100
00000010
00000100
,
00000001
00000010
00000100
00001000
,
00010000
00010000
00001000
00001000
,
00010000
00010000
00001000
00011000
,
00100000
00100000
00010000
00010000
,
01000000
01000000
10000000
10010000
,
00100000
00100000
01000000
01000000
,
00010000
00100000
01000000
10010000
,
01000000
00100000
01000000
00100000
,
10000000
01000000
00100000
10010000
,
00100000
00002000
00010000
00010000
,
00013000
00020000
00001000
00001000
,
00031000
00000200
00001000
00001300
,
00002000
00003001
00000002
00001003
,
00000020
00000100
00000100
00000130
,
00020000
00000100
00000100
00030100
,
00002000
00100000
00103000
00200000
,
00300000
00010000
01000000
20000000
,
00200000
30300000
20020000
30030000
,
02000000
00000000
03010000
00010000
,
00200000
00000000
00301000
00000000
,
00020000
00000000
00032000
00000000
,
00023000
00000000
00030000
00001000
,
00002000
00000000
00003000
00010000
,
00020000
00000000
00030000
00000000
,
00000200
00000300
00000020
00000030
,
00000000
00001001
00001001
00000000
,
00000001
00000010
00000100
00001000
,
00000000
00011000
00011000
00000000
,
00010000
00100000
01000000
10000000
,
00000000
10010000
10010000
00000000
,
10000000
01000000
00100000
00010000
,
00000000
00011000
00011000
00000000
,
00001000
00000100
00000010
00000001
,
00000100
00000100
00000100
00000000
,
00000010
00000010
00000010
00000000
,
00001000
00001000
00001000
00000000
,
00010000
00010000
00010000
00000000
,
00100000
00100000
01000000
01000000
,
00010000
00010000
10000000
10000000
,
00100000
01000000
00001000
00010000
,
00000000
00001000
00010000
00011000
,
00200000
00300000
00020000
00030000
,
02000000
03000000
00100000
10000000
,
00200000
00300000
20000000
30000000
,
02000000
03000000
00100000
00010000
,
00002000
00003000
00020000
00030000
,
00000020
00000030
00000100
00000010
,
00000002
00000003
00002000
00003000
,
00000020
00000030
00001000
00000100
,
00010000
00010000
00001000
00001000
,
00010000
00010000
00100000
00110000
,
01000000
01000000
10000000
10000000
,
00100000
00100000
00001000
00011000
,
00000100
00000100
00001000
00001000
,
00000010
00000010
00000100
00001001
,
00000010
00000010
00000001
00000001
,
00000100
00000100
00010000
00011000
,
00000000
00022000
00000000
00000000
,
00000000
00000000
00000000
00000000
,
00033000
00000000
00000000
00000000
;
