#TITLE:stella=steLLa;
#SUBTITLE:;
#ARTIST:marasy 「チュウニズム」 より;
#TITLETRANSLIT:;
#SUBTITLETRANSLIT:;
#ARTISTTRANSLIT:marasy from "CHUNITHM";
#GENRE:;
#CREDIT:;
#BANNER:stella=steLLa.png;
#BACKGROUND:stella=steLLa-bg.png;
#LYRICSPATH:;
#CDTITLE:;
#MUSIC:stella=steLLa.ogg;
#OFFSET:1.263000;
#SAMPLESTART:63.158051;
#SAMPLELENGTH:12.631577;
#LASTBEATHINT:0.832833;
#SELECTABLE:YES;
#BPMS:0.000000=190.000000
;
#STOPS:
;
#BGCHANGES:4.000=stella=steLLa.avi=1.000=1=0=0=StretchNoLoop==CrossFade==,
99999=-nosongbg-=1.000=0=0=0 // don't automatically add -songbackground-
;
#KEYSOUNDS:;
#ATTACKS:;

//---------------dance-single - ----------------
#NOTES:
     dance-single:
     :
     Hard:
     12:
     0.509974,0.674987,0.276843,0.138421,0.032784,490.000000,452.000000,38.000000,19.000000,0.000000,0.000000,0.509974,0.674987,0.276843,0.138421,0.032784,490.000000,452.000000,38.000000,19.000000,0.000000,0.000000:
0000
0000
0000
0000
,
0000
0000
0000
0000
,
0000
0000
0000
0000
,
0000
0000
0000
0000
,
0000
0000
0000
0000
,
2000
0000
0000
0000
,
3000
0000
0000
0000
,
0002
0000
0000
0000
,
1003
0001
1000
0001
,
0200
0000
0000
0000
,
0300
0000
0000
0000
,
0001
0000
0000
0100
0000
0000
1000
0000
,
0000
0010
0000
0000
0001
0000
1000
0000
,
0002
0000
0000
0000
,
0003
0000
0000
0000
0000
0000
1000
0001
,
2000
0000
3000
0000
,
0001
0100
0010
1000
,
0001
0000
1000
0000
0001
1000
0000
0001
,
1000
0000
0001
1000
0000
0001
1000
0000
,
0010
0100
0000
0010
0100
0000
0010
0100
,
0000
0010
0100
0000
0010
0100
0000
0001
,
1000
0000
0001
1000
0000
0001
1000
0000
,
0001
1000
0000
0001
1000
0000
0000
0000
,
0002
0000
0000
0000
,
2000
0000
0000
3003
,
0010
0000
0000
1000
0000
0000
0001
0000
,
0000
0100
0000
0000
1000
0001
1000
0001
,
1000
0000
0000
0010
0000
0000
0100
0000
,
0000
0001
0000
0000
1000
0100
1000
0100
,
1000
0000
0000
0010
0000
0000
0100
0000
,
0000
0001
0000
0000
1000
0010
1000
0010
,
1000
0000
0000
0001
0000
0000
0100
0000
,
0000
0010
0000
0000
2002
0000
3003
0000
,
1010
0000
0010
1000
0000
1000
0001
0000
,
0001
0010
0000
0010
0001
0000
0100
0010
,
1000
0000
1000
0100
0000
0100
0010
0000
,
0010
0000
0000
0000
0000
0000
0001
1000
0001
0000
0000
0000
0000
0000
0000
0000
,
1000
0000
0001
1000
0000
1000
0001
0000
,
1000
0001
0000
0001
1000
0000
0001
0000
,
0110
0000
0000
1001
0000
0000
1100
0000
,
0011
0000
2002
3003
,
0020
0000
0030
1000
,
0001
1000
0100
0010
,
0001
0000
0000
0000
0000
0000
1000
0000
0001
0000
1000
0000
,
0001
0000
0000
0100
0010
0000
1000
0000
,
0001
0100
0000
0010
1000
0000
0001
0010
,
0000
0000
0100
0000
1000
0000
0000
0000
0010
0000
0000
0100
0000
0000
0001
0000
,
1000
0000
0010
1000
0000
0001
0100
0000
,
0001
0010
0000
0100
1000
0000
0001
1000
,
0020
0100
0100
0130
,
2002
0000
3003
0000
,
1010
0000
0000
0101
0000
0000
0010
0000
,
0110
0000
0000
1001
0000
0000
1000
0001
,
0100
0000
0000
0101
0000
0000
1000
0000
,
1010
0000
0000
0001
0001
0000
1000
0000
,
0110
0000
0000
1001
0000
0000
1000
0001
,
0001
0101
1010
1001
,
1000
0000
0000
0101
0000
0000
1000
0000
,
0001
0010
0100
1000
0001
0010
0100
1000
,
0010
0000
0000
0110
0000
0000
1000
0000
,
1001
0000
0000
0101
0000
0000
1000
0001
,
0100
0000
0000
0101
0000
0000
1000
0000
,
1010
0000
0000
0000
0000
0000
0010
0100
0010
0000
0000
0000
0000
0000
0000
0000
,
0001
0100
0001
0100
0010
1000
0010
1000
,
0001
0010
0001
1000
0100
1000
0010
0100
,
0010
1000
1000
0001
0100
0100
0010
1000
,
1000
0001
0010
0010
0001
1000
0100
0010
,
0001
0000
1000
0100
0000
0010
0001
0000
,
0100
0000
0001
0100
0000
0010
1000
0100
,
1000
0000
0001
0010
0000
0100
1000
0000
,
0110
0000
1000
0001
0100
0000
0110
0000
,
1001
0000
1000
0100
0000
0010
0001
0100
,
0010
0110
1001
0110
,
1000
0000
0001
0100
0000
0010
1000
0000
,
1000
0100
0010
0001
1000
0100
0010
0001
,
0100
0000
0001
0100
0000
0010
1000
0000
,
0110
0000
1000
0100
0000
0100
0010
0001
,
1000
0000
0001
0100
0000
0010
1000
0000
,
0110
0000
0000
0000
0000
0000
0001
1000
0001
0000
0000
0000
0000
0000
0000
0000
,
1000
0100
0010
0001
0100
0010
1000
0100
,
0010
0001
0010
0100
1000
0000
0001
0100
,
0020
1000
0100
1030
,
2002
0000
0000
3003
,
0001
0010
0001
0010
0100
1000
0100
1000
,
0001
0100
0001
0100
0010
1000
0010
1000
,
0001
0000
1000
0001
0000
1000
0010
0000
,
0110
0000
1000
0001
0100
0000
0110
0000
,
0001
0000
0100
0001
0000
1000
0100
0010
,
0001
0000
0000
0100
0000
0000
0001
0000
1000
0000
0010
0000
,
0100
0000
0001
1000
0000
0010
0100
0000
,
0001
0010
0100
1000
0001
1000
0100
0010
,
0001
0000
1000
0100
0000
0010
0001
0100
,
0010
0000
0010
1000
0000
0001
0100
0010
,
1000
0000
0100
0010
0000
0001
1000
0000
,
0101
0000
0000
0000
0000
0000
1000
0001
1000
0000
0000
0000
0000
0000
0000
0000
,
0001
0100
0010
1000
0010
0100
0001
0100
,
0010
1000
0010
0100
0001
1000
0100
0010
,
0001
0000
1001
0000
1000
0001
1000
0001
,
0100
0010
0100
0010
1000
0000
0001
0000
,
0100
0000
0000
0010
0000
0000
1000
0000
,
0000
0001
0000
0000
1000
0100
0010
0001
,
0100
0000
0000
0010
0000
0000
1000
0000
,
0000
0001
0000
0000
0100
0100
0010
1000
,
0001
0000
0000
0010
0000
0000
0100
0000
,
0000
1000
0000
0000
0001
0010
0100
1000
,
0010
0000
0000
1000
0000
0000
0001
0000
,
0000
0100
0000
0000
0001
1000
0100
0020
,
0000
0000
0000
0000
,
0000
0000
0000
0000
,
0030
0000
0000
0000
;

//---------------dance-double - ----------------
#NOTES:
     dance-double:
     :
     Hard:
     12:
     0.433998,0.674987,0.072853,0.087424,0.018213,417.000000,407.000000,10.000000,12.000000,0.000000,0.000000,0.433998,0.674987,0.072853,0.087424,0.018213,417.000000,407.000000,10.000000,12.000000,0.000000,0.000000:
00000000
00000000
00000000
00000000
,
00000000
00000000
00000000
00000000
,
00000000
00000000
00000000
00000000
,
00000000
00000000
00000000
00000000
,
00000000
00000000
00000000
00000000
,
00200000
00000000
00000000
00000000
,
00300000
00000000
00000000
00000000
,
00002000
00000000
00000000
00000000
,
00003000
00010000
00000100
00001000
,
00000002
00000000
00000000
00000000
,
00000003
00000000
00000000
00000000
,
00001000
00000000
00000000
00000100
00000000
00000000
00010000
00000000
,
00000000
00001000
00000000
00000000
00100000
00000000
00010000
00000000
,
02000000
00000000
00000000
00000000
,
03000000
00000000
00000000
00000000
00000000
00000000
00010000
10000000
,
00020000
00000000
00000000
00000000
,
00130000
00001000
00010000
00000010
,
00002000
00000000
00000000
00000000
,
00000000
00000000
00003000
00000000
,
00000002
00000000
00000000
00000000
,
00000000
00000000
00000003
00000000
,
00000200
00000000
00000000
00000000
,
00000000
00000000
00000300
00000000
,
00000010
00000000
00000000
00000000
,
00001001
00000000
00000000
00000000
,
00000010
00000000
00000000
00000010
00000000
00000000
00001000
00000000
,
00000000
00000100
00000000
00000000
00010000
00000000
00001000
00000000
,
00100000
00000000
00000000
00010000
00000000
00000000
01000000
00000000
,
00000000
00100000
00000000
00000000
10000000
00000000
00010000
00000000
,
00100000
00000000
00000000
00001000
00000000
00000000
00010000
00000000
,
00000000
00000010
00000000
00000000
00001000
00000000
00000100
00000000
,
00000010
00000000
00000000
00000001
00000000
00000000
00000100
00000000
,
00000000
00000010
00000000
00000000
00001000
00000000
00000000
00000000
,
00000001
00000000
00001000
00000100
00000000
00000100
00001000
00000000
,
00000010
00001000
00000000
00001000
00000100
00000000
00010000
00000000
,
00001000
00000000
00100000
00010000
00000000
00010000
00100000
00000000
,
00010000
00000000
01000000
00100000
01000000
00000000
00010000
00000000
,
10000000
00000000
01000000
10000000
00000000
10000000
00100000
00000000
,
00100000
01000000
00000000
01000000
00010000
00000000
00100000
00000000
,
00001000
00000000
00010000
00001000
00000000
00001000
00010000
00000000
,
00000100
00001000
00000010
00000001
,
00000100
00000000
00000000
00000010
,
00001000
00000100
00010000
00001000
,
00100000
00000000
00000000
00000000
00000000
00000000
00000000
00000000
00010000
00000000
00000000
10000000
00000000
00000000
00100000
00000000
,
01000000
00000000
00000000
00010000
00100000
00000000
00000000
00000000
,
00001000
00000000
00010000
00000100
00000000
00001000
00000100
00000000
,
00001000
00000000
00000000
00000010
00000000
00000000
00000000
00000000
00000000
00000100
00000000
00000000
00000001
00000000
00000000
00000000
00001000
00000000
00000000
00000000
00000100
00000000
00000000
00000000
,
00000010
00000000
00000100
00000001
00000000
00001000
00000100
00000000
,
00010000
00001000
00000000
00001000
00100000
00000000
00100000
00010000
,
01000000
10000000
00010000
00100000
,
00002000
00000000
00000000
00013000
,
00000100
00000000
00001000
00000010
00000000
00000100
00000001
00000000
,
00001000
00000000
00000100
00010000
00000000
00001000
00010000
00001000
,
00010000
00000000
00000100
00010000
00000000
00001000
00010000
00000000
,
00100000
00000000
00010000
01000000
00100000
00000000
10000000
00000000
,
00010000
00000000
00100000
00001000
00000000
00010000
00001000
00000000
,
00010000
00000100
00001000
00000001
,
00001000
00000000
00000010
00001000
00000000
00000100
00001000
00000000
,
00000001
00000010
00000100
00001000
00000001
00000010
00000100
00001000
,
00000010
00000000
00001000
00000100
00000000
00010000
00001000
00000000
,
00100000
00000000
00010000
01000000
00000000
00100000
10000000
01000000
,
00100000
00000000
00010000
00100000
00000000
00001000
00010000
00000000
,
00000100
00000000
00000010
00001000
00000100
00000000
00000010
00000000
,
00000001
00000000
00001000
00000100
00000000
00010000
00001000
00000000
,
00100000
00010000
00000000
01000000
00100000
00000000
10000000
00000000
,
00010000
00000000
00000000
00101000
00000000
00000000
00010100
00000000
,
00000000
00001010
00000000
00000000
00000001
00000100
00000010
00001000
,
00000100
00000000
00010000
00000100
00000000
00000000
00010000
00000000
,
00001000
00000000
00010000
00001000
00000000
00000000
00100000
00010000
,
01000000
00000000
00100000
10000000
00000000
10000000
00010000
00000000
,
10100000
00000000
00000000
00100000
01000000
00000000
00001000
00000000
,
00010000
00000000
00000100
00001000
00000000
00000000
00000010
00000100
,
00000001
00000101
00001010
00001001
,
00000100
00000000
00010000
00001000
00000000
00100000
00001000
00000000
,
00100000
00010000
01000000
00100000
,
10000000
01000000
00100000
00010000
00000000
00000000
00100000
00000000
,
00001000
00010000
00000100
00001000
00000000
00000000
00000010
00000100
,
00000001
00001000
00000100
00000010
00000000
00000001
00000100
00000000
,
00000010
00000000
00000000
00001000
00001000
00000000
00000000
00000000
,
00000100
00000000
00010000
00001000
00000000
00100000
00010000
00000000
,
01000000
00100000
00000000
10000000
01000000
00000000
00100000
00010000
,
00000000
00100000
00001000
00010000
,
00000010
00001000
00000100
00000010
,
00000001
00000100
00000001
00000100
00000010
00001000
00000010
00001000
,
00000100
00001000
00000100
00001000
00000100
00010000
00001000
00010000
,
00001000
00000000
00100000
00010000
00000000
01000000
00100000
00000000
,
10010000
00000000
00100000
00001000
00010000
00000000
00000100
00000000
,
00001000
00000000
00000010
00000100
00000000
00000001
00001000
00000000
,
00000100
00000000
00000000
00000000
00000000
00000000
00010000
00000000
00000000
00001000
00000000
00000000
00010000
00000000
00000000
00000000
00001000
00000000
00000000
00000000
00100000
00000000
00000000
00000000
,
00010000
00000000
01000000
00100000
10000000
00000000
00010000
00000000
,
10000000
01000000
00100000
00010000
10000000
01000000
00100000
00010000
,
10000000
00000000
00100000
01000000
00000000
00010000
00100000
00000000
,
00001000
00000000
00010000
00001000
00000000
00010000
00000100
00000000
,
00001000
00000000
00000010
00000100
00000000
00000001
00001000
00000000
,
00000110
00000000
00001000
00000001
00000100
00000000
00000010
00000000
,
00001000
00000100
00001000
00000001
00000010
00000001
00001000
00000100
,
00001000
00000001
00000010
00000001
00001000
00000000
00000100
00010000
,
00001000
00100000
01000000
00100000
,
20000000
00000000
00020000
30030000
,
00100000
00000000
00000000
00001000
00000000
00000000
00010000
00000000
,
00000000
00000100
00000000
00000000
00001000
00000100
00000010
00000001
,
00001000
00000000
00000000
00000100
00000000
00000000
00010000
00000000
,
00000000
00001000
00000000
00000000
00100000
00010000
10000000
01000000
,
00100000
00000000
00000000
00001000
00000000
00000000
00010000
00000000
,
00000000
00000010
00000000
00000000
00001000
00000100
00000010
00000001
,
00001000
00000000
00000000
00000100
00000000
00000000
00010000
00000000
,
00000000
00001000
00000000
00000000
10000000
01000000
00100000
00020000
,
00000000
00000000
00000000
00000000
,
00000000
00000000
00000000
00000000
,
00030000
00000000
00000000
00000000
;

//---------------dance-double - ----------------
#NOTES:
     dance-double:
     :
     Medium:
     8:
     0.268517,0.436756,0.101995,0.160277,0.000000,258.000000,244.000000,14.000000,22.000000,0.000000,0.000000,0.268517,0.436756,0.101995,0.160277,0.000000,258.000000,244.000000,14.000000,22.000000,0.000000,0.000000:
00000000
00000000
00000000
00000000
,
00000000
00000000
00000000
00000000
,
00000000
00000000
00000000
00000000
,
00000000
00000000
00000000
00000000
,
00000000
00000000
00000000
00000000
,
00002000
00000000
00000000
00000000
,
00003000
00000000
00000000
00000000
,
00020000
00000000
00000000
00000000
,
00030000
00000000
00000000
00000000
,
00002000
00000000
00000000
00000000
,
00003000
00000000
00000000
00000000
,
00100000
00000000
00000000
00010000
00000000
00000000
01000000
00000000
,
00000000
00000000
10000000
00000000
,
00200000
00000000
00000000
00000000
,
00300000
00000000
00000000
00000000
,
00002000
00000000
00000000
00000000
,
00003000
00000000
00000000
00000000
,
00022000
00000000
00000000
00000000
,
00033000
00000000
00000000
00000000
,
00000100
00000000
00000000
00001000
00000000
00000000
00000010
00000000
,
00000000
00000000
00000000
00000000
,
00002002
00000000
00000000
00000000
,
00003003
00000000
00000000
00000000
,
00000000
00000000
00000000
00000000
,
00000010
00000000
00000000
00000000
,
00001000
00000000
00000000
00000001
00000000
00000000
00001000
00000000
,
00000000
00000001
00000000
00000000
00000000
00000000
00000000
00000000
,
00001000
00000000
00000000
00000100
00000000
00000000
00001000
00000000
,
00000000
00000100
00000000
00000000
00000000
00000000
00000000
00000000
,
00010000
00000000
00000000
00001000
00000000
00000000
00010000
00000000
,
00000000
00001000
00000000
00000000
00000000
00000000
00000000
00000000
,
01000000
00000000
00000000
00100000
00000000
00000000
01000000
00000000
,
00000000
00100000
00000000
00000000
00000000
00000000
00000000
00000000
,
10000000
00000000
00000000
00010000
00000000
00000000
10000000
00000000
,
00000000
00010000
00000000
00000000
00100000
00000000
00000000
00000000
,
00001000
00000000
00000000
00010000
00000000
00000000
00001000
00000000
,
00010000
00000000
00000010
00000000
,
00001000
00000000
00000000
00000001
00000000
00000000
00001000
00000000
,
00000000
00000001
00000000
00000000
00001000
00000000
00000100
00000000
,
00000010
00000000
00000000
00000001
00000000
00000000
00000100
00000000
,
00002000
00003000
00020000
00000000
,
00031000
00000000
00000000
00000000
,
00100000
00000000
00010000
00000000
,
01000000
00000000
00100000
00000000
,
10000000
00000000
00010000
00000000
,
00100000
00000000
00000000
00001000
00000000
00000000
00010000
00000000
,
00000000
00000010
00000000
00000000
00001000
00000000
00000001
00000000
,
00001000
00000000
00000000
00000100
00000000
00000000
00010000
00000000
,
00000000
00001000
00000000
00000000
00100000
00000000
00010000
00000000
,
02000000
00000000
00000000
00000000
,
00200000
00000000
03300000
00000000
,
00100000
00000000
00000000
10000000
00000000
00000000
00000000
00000000
,
00100000
00000000
00000000
00010000
00000000
00000000
00100000
00000000
,
00001000
00000000
00000000
00010000
00000000
00000000
00000010
00000000
,
00000010
00000000
00001001
00000000
,
00000001
00000000
00000000
00000100
00000000
00000000
00000000
00000000
,
00000010
00001000
00000100
00010000
,
00001000
00000000
00000000
00001000
00000000
00000000
00100000
00000000
,
00020000
00000000
02000000
03030000
,
00100000
00000000
00000000
10000000
00000000
00000000
00000000
00000000
,
00010000
00000000
00000000
00100000
00000000
00000000
00001000
00010000
,
00001000
00000000
00000000
00010000
00000000
00000000
00000010
00000000
,
00001000
00000000
00000000
00000001
00000100
00000000
00000000
00000000
,
00000010
00000000
00000000
00001000
00000000
00000000
00000100
00000000
,
00000000
00010000
00000000
00000000
00001000
00000000
00100000
00000000
,
00010000
00000000
00000000
01010000
00000000
00000000
10010000
00000000
,
00000000
00110000
00000000
00000000
00100000
00000000
00001000
00000000
,
00010000
00000000
00000000
00000010
00000000
00000000
00000000
00000000
,
00001000
00000000
00000000
00000001
00000000
00000000
00001000
00000000
,
00000100
00000000
00000000
00000010
00000000
00000000
00000001
00000000
,
00001000
00000000
00001100
00000000
,
00000100
00000000
00000000
00010000
00000000
00000000
00001000
00000000
,
00100000
00010000
01000000
00100000
,
10000000
00000000
00000000
01000000
00000000
00000000
10010000
00000000
,
20000000
00000000
00020000
30030000
,
01000000
00000000
00000000
00010000
00000000
00000000
00100000
00000000
,
00001000
00000000
00000000
00010000
00000000
00000000
00000010
00000000
,
00001000
00000000
00000000
00000001
00000000
00000000
00000100
00000000
,
00000100
00000000
00000000
00000010
00001000
00000000
00000000
00000000
,
00001100
00000000
00000000
00001010
00000000
00000000
00001001
00000000
,
00000000
00001100
00000000
00000000
00000100
00000000
00010000
00001000
,
00000000
00010000
00000000
00001000
,
00200000
00000000
00020000
00330000
,
00010000
01000000
00100000
10000000
,
00010000
00000000
00100000
00000000
00001000
00010000
00001000
00000000
,
00010000
00000000
00000000
00000100
00000000
00000000
00001000
00000000
,
00001001
00000000
00000000
00000010
00000100
00000000
00000000
00000000
,
00000001
00000000
00000000
00001000
00000000
00000000
00000100
00000000
,
00010000
00000000
00022000
00033000
,
00001000
00000000
00000000
00100000
00000000
00000000
00010000
00000000
,
01000000
00100000
10000000
00010000
,
00100000
00000000
00000000
00001000
00000000
00000000
00010000
00000000
,
00000100
00000000
00000000
00000010
00000000
00000000
00000100
00000001
,
00001000
00000000
00000000
00000100
00000000
00000000
00010000
00000000
,
00001000
00000000
00000000
00010000
00010000
00000000
00000000
00000000
,
00001000
00000000
00100000
00010000
00000000
01000000
00010000
00000000
,
10000000
00010000
00000000
00100000
00010000
00000000
00100000
00001000
,
00000000
00010000
00000000
00000000
00000100
00000000
00000000
00000000
,
00001000
00000001
00000100
00000010
,
00001000
00000000
00000000
00000100
00000000
00000000
00000010
00000000
,
00000000
00000001
00000000
00000000
00001000
00000000
00000100
00000000
,
00010000
00000000
00000000
00001000
00000000
00000000
00100000
00000000
,
00000000
00010000
00000000
00000000
10000000
00000000
01000000
00000000
,
00100000
00000000
00000000
00010000
00000000
00000000
00100000
00000000
,
00000000
00001000
00000000
00000000
00010000
00000000
00000100
00000000
,
00001000
00000000
00000000
00000010
00000000
00000000
00000001
00000000
,
00000000
00000100
00000000
00000000
00000010
00000000
00002000
00000000
,
00000000
00000000
00000000
00000000
,
00000000
00000000
00000000
00000000
,
00003000
00000000
00000000
00000000
;

//---------------dance-single - ----------------
#NOTES:
     dance-single:
     :
     Medium:
     8:
     0.285169,0.436756,0.189419,0.189419,0.000000,274.000000,248.000000,26.000000,26.000000,0.000000,0.000000,0.285169,0.436756,0.189419,0.189419,0.000000,274.000000,248.000000,26.000000,26.000000,0.000000,0.000000:
// measure 0
0000
0000
0000
0000
,  // measure 1
0000
0000
0000
0000
,  // measure 2
0000
0000
0000
0000
,  // measure 3
0000
0000
0000
0000
,  // measure 4
0000
0000
0000
0000
,  // measure 5
2000
0000
0000
0000
,  // measure 6
3000
0000
0000
0000
,  // measure 7
0002
0000
0000
0000
,  // measure 8
0003
0000
0000
0000
,  // measure 9
0200
0000
0000
0000
,  // measure 10
0300
0000
0000
0000
,  // measure 11
0001
0000
0000
0100
0000
0000
1000
0000
,  // measure 12
0000
0000
1000
0000
,  // measure 13
0002
0000
0000
0000
,  // measure 14
0003
0000
0000
0000
,  // measure 15
2000
0000
0000
0000
,  // measure 16
3000
0000
0000
0000
,  // measure 17
2002
0000
0000
0000
,  // measure 18
0000
0000
0000
3003
,  // measure 19
0010
0000
0000
0010
0000
0000
0020
0000
,  // measure 20
0000
0000
0000
0030
,  // measure 21
2000
0000
0000
0000
,  // measure 22
3000
0000
0000
0000
,  // measure 23
0002
0000
0000
0000
,  // measure 24
2000
0000
0000
3003
,  // measure 25
1000
0000
0000
1000
0000
0000
1000
0000
,  // measure 26
0000
1000
0000
0000
0000
0000
0000
0000
,  // measure 27
1000
0000
0000
0010
0000
0000
0100
0000
,  // measure 28
0000
0001
0000
0000
0000
0000
0000
0000
,  // measure 29
1000
0000
0000
0010
0000
0000
0100
0000
,  // measure 30
0000
0001
0000
0000
0000
0000
0000
0000
,  // measure 31
1000
0000
0000
0001
0000
0000
0100
0000
,  // measure 32
0000
0010
0000
0000
0000
0000
0000
0000
,  // measure 33
1000
0000
0000
0010
0000
0000
0001
0000
,  // measure 34
0000
0100
0000
0000
0001
0000
1000
0000
,  // measure 35
0100
0000
0000
0010
0000
0000
0001
0000
,  // measure 36
1000
0000
0000
0001
1000
0000
0000
0000
,  // measure 37
0010
0000
0000
1000
0000
0000
0100
0000
,  // measure 38
0000
0001
0000
0000
0010
0100
0010
0000
,  // measure 39
1000
0000
0000
1001
0000
0000
0110
0000
,  // measure 40
2000
0000
0002
3003
,  // measure 41
0020
0000
0030
1000
,  // measure 42
0001
0000
0100
0000
,  // measure 43
0010
0000
1000
0000
,  // measure 44
0001
0000
1001
0000
,  // measure 45
0001
0000
0000
0010
0000
0000
0100
0000
,  // measure 46
0000
1000
0000
0000
0010
0000
0000
0000
,  // measure 47
1000
0000
0000
0010
0000
0000
0100
0000
,  // measure 48
0000
0001
0000
0000
1000
0000
0001
0000
,  // measure 49
0200
0000
0000
0300
,  // measure 50
2002
0000
3003
0000
,  // measure 51
0010
0000
0000
0001
0000
0000
0000
0000
,  // measure 52
0010
0000
0000
1000
0000
0000
1000
0001
,  // measure 53
1000
0000
0000
0001
0000
0000
0000
0000
,  // measure 54
1000
0000
0000
1000
0001
0000
0000
0000
,  // measure 55
0010
0000
0000
0001
0000
0000
0000
1000
,  // measure 56
0001
0010
0100
1000
,  // measure 57
1000
0000
0000
0001
0000
0000
1000
0000
,  // measure 58
0002
0000
0200
0303
,  // measure 59
1000
0000
0000
0001
0000
0000
1000
0000
,  // measure 60
0001
0000
0000
1000
0000
0000
0001
1000
,  // measure 61
0010
0000
0000
0010
0000
0000
1000
0000
,  // measure 62
0010
0000
0010
0000
,  // measure 63
0001
0100
0010
1000
,  // measure 64
0001
0010
0100
1000
,  // measure 65
0001
0000
0000
1001
0000
0000
1010
0000
,  // measure 66
0000
0101
0000
0000
1000
0000
0010
0000
,  // measure 67
0100
0000
0000
1001
0000
0000
0000
0000
,  // measure 68
0010
0000
0000
1001
0000
0000
1000
0100
,  // measure 69
1000
0000
0000
1001
0000
0000
0010
0000
,  // measure 70
0100
0000
1001
0000
,  // measure 71
1000
0000
0000
0001
0000
0000
0100
0000
,  // measure 72
0010
1000
0100
0010
,  // measure 73
0001
0000
0000
0110
0000
0000
1001
0000
,  // measure 74
2000
0000
0002
3003
,  // measure 75
1000
0000
0000
0101
0000
0000
0000
0000
,  // measure 76
0100
0000
0000
0110
0000
0000
1000
0001
,  // measure 77
1000
0000
0000
0100
0000
0000
0001
0000
,  // measure 78
1000
0000
0000
1000
0001
0000
0000
0000
,  // measure 79
1000
0000
0000
1001
0000
0000
0110
0000
,  // measure 80
0000
1001
0000
0000
1000
0000
0001
0100
,  // measure 81
0000
1000
0000
0001
,  // measure 82
1000
0000
2002
3003
,  // measure 83
0010
1000
0100
0010
,  // measure 84
0001
0100
0010
1000
,  // measure 85
0001
0000
0000
1100
0000
0000
0010
0000
,  // measure 86
0100
0000
0000
0001
1000
0000
0000
0000
,  // measure 87
1010
0000
0100
0001
,  // measure 88
1000
0000
0010
1001
,  // measure 89
0100
0000
0000
0010
0000
0000
1000
0000
,  // measure 90
0002
0000
2000
3003
,  // measure 91
0010
0000
0000
1000
0000
0000
0001
0000
,  // measure 92
0100
0000
0000
0010
0000
0000
1000
0001
,  // measure 93
1000
0000
0000
0010
0000
0000
1010
0000
,  // measure 94
0101
0000
0000
0001
1000
0000
0000
0000
,  // measure 95
0010
0000
0100
0010
0000
1000
0001
0000
,  // measure 96
0100
0010
0000
1000
0001
0000
0100
0010
,  // measure 97
0000
1000
0000
0000
0001
0000
0000
0000
,  // measure 98
1000
0100
0010
0001
,  // measure 99
1000
0000
0000
0010
0000
0000
0001
0000
,  // measure 100
0000
0010
0000
0000
1000
0000
0000
0000
,  // measure 101
0001
0000
0000
0010
0000
0000
1000
0000
,  // measure 102
0000
0010
0000
0000
0001
0000
0000
0000
,  // measure 103
0001
0000
0000
0010
0000
0000
0100
0000
,  // measure 104
0000
1000
0000
0000
1001
0000
0000
0000
,  // measure 105
1000
0000
0000
0100
0000
0000
0010
0000
,  // measure 106
0000
0001
0000
0000
1000
0000
0002
0000
,  // measure 107
0000
0000
0000
0000
,  // measure 108
0000
0000
0000
0000
,  // measure 109
0003
0000
0000
0000
;

//---------------dance-single - ----------------
#NOTES:
     dance-single:
     :
     Beginner:
     1:
     0.077016,0.116383,0.000000,0.000000,0.000000,74.000000,74.000000,0.000000,0.000000,0.000000,0.000000,0.077016,0.116383,0.000000,0.000000,0.000000,74.000000,74.000000,0.000000,0.000000,0.000000,0.000000:
0000
0000
0000
0000
,
0000
0000
0000
0000
,
0000
0000
0000
0000
,
0000
0000
0000
0000
,
0000
0000
0000
0000
,
0001
0000
0000
0000
,
0000
0000
0000
0000
,
0000
0000
0000
0000
,
0000
0000
0000
0000
,
1000
0000
0000
0000
,
0000
0000
0000
0000
,
0000
0000
0000
0000
,
0000
0000
0000
0000
,
0010
0000
0000
0000
,
0000
0000
0000
0000
,
0000
0000
0000
0000
,
0000
0000
0000
0000
,
0100
0000
0000
0000
,
0000
0000
0000
0000
,
0010
0000
0000
0000
,
0000
0000
0000
0000
,
0100
0000
0000
0000
,
0000
0000
0000
0000
,
0010
0000
0000
0000
,
0000
0000
0000
0000
,
1000
0000
0000
0000
,
0000
0000
0000
0000
,
0001
0000
0000
0000
,
0000
0000
0000
0000
,
1000
0000
0000
0000
,
0000
0000
0000
0000
,
0001
0000
0000
0000
,
0000
0000
0000
0000
,
0100
0000
0000
0000
,
0100
0000
0000
0000
,
0010
0000
0000
0000
,
0010
0000
0000
0000
,
1000
0000
0000
0000
,
1000
0000
0000
0000
,
0001
0000
0000
0000
,
0001
0000
0000
0000
,
0100
0000
0000
0000
,
0000
0000
0000
0000
,
0000
0000
0000
0000
,
0000
0000
0000
0000
,
0010
0000
0000
0000
,
0010
0000
0000
0000
,
0100
0000
0000
0000
,
0100
0000
0000
0000
,
0001
0000
0000
0000
,
1000
0000
0000
0000
,
0010
0000
0000
0000
,
0010
0000
0000
0000
,
0100
0000
0000
0000
,
0100
0000
0000
0000
,
1000
0000
0000
0000
,
1000
0000
0000
0000
,
0001
0000
0000
0000
,
0001
0000
0000
0000
,
0010
0000
0000
0000
,
0100
0000
0000
0000
,
1000
0000
0000
0000
,
0001
0000
0000
0000
,
0010
0000
0000
0000
,
0000
0000
0000
0000
,
0100
0000
0000
0000
,
0000
0000
0000
0000
,
0001
0000
0000
0000
,
0001
0000
0000
0000
,
1000
0000
0000
0000
,
1000
0000
0000
0000
,
0010
0000
0000
0000
,
0010
0000
0000
0000
,
0100
0000
0000
0000
,
0100
0000
0000
0000
,
0001
0000
0000
0000
,
1000
0000
0000
0000
,
0010
0000
0000
0000
,
0100
0000
0000
0000
,
0001
0000
0000
0000
,
0000
0000
0000
0000
,
1000
0000
0000
0000
,
0000
0000
0000
0000
,
0001
0000
0000
0000
,
0001
0000
0000
0000
,
1000
0000
0000
0000
,
1000
0000
0000
0000
,
0100
0000
0000
0000
,
0010
0000
0000
0000
,
1000
0000
0000
0000
,
0001
0000
0000
0000
,
0100
0000
0000
0000
,
0100
0000
0000
0000
,
0010
0000
0000
0000
,
0010
0000
0000
0000
,
1000
0000
0000
0000
,
0001
0000
0000
0000
,
0010
0000
0000
0000
,
0000
0000
0000
0000
,
0010
0000
0000
0000
,
0000
0000
0000
0000
,
0100
0000
0000
0000
,
0000
0000
0000
0000
,
0001
0000
0000
0000
,
0000
0000
0000
0000
,
1000
0000
0000
0000
,
0000
0000
0001
0000
;

//---------------dance-double - ----------------
#NOTES:
     dance-double:
     :
     Easy:
     4:
     0.176930,0.317641,0.043712,0.182133,0.000000,170.000000,164.000000,6.000000,25.000000,0.000000,0.000000,0.176930,0.317641,0.043712,0.182133,0.000000,170.000000,164.000000,6.000000,25.000000,0.000000,0.000000:
00000000
00000000
00000000
00000000
,
00000000
00000000
00000000
00000000
,
00000000
00000000
00000000
00000000
,
00000000
00000000
00000000
00000000
,
00000000
00000000
00000000
00000000
,
20000000
00000000
00000000
00000000
,
30000000
00000000
00000000
00000000
,
02000000
00000000
00000000
00000000
,
03000000
00000000
00000000
00000000
,
00200000
00000000
00000000
00000000
,
00300000
00000000
00000000
00000000
,
00020000
00000000
00000000
00000000
,
00030000
00000000
00000000
00000000
,
00002000
00000000
00000000
00000000
,
00003000
00000000
00000000
00000000
,
00000200
00000000
00000000
00000000
,
00000300
00000000
00000000
00000000
,
00022000
00000000
00000000
00000000
,
00033000
00000000
00000000
00000000
,
00000000
00000000
00000000
00000000
,
00000000
00000000
00000000
00000000
,
00000020
00000000
00000000
00000000
,
00000030
00000000
00000000
00000000
,
00000000
00000000
00000000
00000000
,
00000010
00000000
00000000
00000000
,
00000001
00000000
00000000
00000001
,
00000000
00000000
00000000
00000000
,
00001000
00000000
00000000
00001000
,
00000000
00000000
00000100
00000000
,
00010000
00000000
00000000
00010000
,
00000000
00000000
00000000
00000000
,
00001000
00000000
00000000
00001000
,
00000000
00000000
01000000
00000000
,
10000000
00000000
00000000
10000000
,
00000000
00000000
00010000
00000000
,
00100000
00000000
00000000
00000000
,
00001000
00000000
00010000
00000000
,
00001000
00000000
00000000
00001000
,
00000000
00000000
00010000
00000000
,
00000100
00000000
00000000
00000010
00000000
00000000
00000100
00000000
,
00000000
00000010
00000000
00000000
00000100
00000000
00000000
00000000
,
00000001
00000000
00000000
00000000
,
00001000
00000000
00000100
00000000
,
00010000
00000000
00001000
00000000
,
01000000
00000000
00010000
00000000
,
00100000
00000000
10000000
00000000
,
01000000
00000000
00010000
00000000
,
00100000
00000000
00000000
00010000
00000000
00000000
00010000
00000000
,
00000000
01000000
00000000
00000000
01000000
00000000
00000000
00000000
,
02000000
00000000
00000000
00000000
,
00200000
00000000
03300000
00000000
,
10000000
00000000
00000000
00000000
,
00010000
00000000
00000000
00100000
,
00100000
00000000
00001000
00000000
,
00010000
00000000
00000010
00000000
,
00000100
00000000
00000000
00000000
,
00000001
00000000
00001000
00000000
,
00000100
00000000
00000100
00000000
,
00002000
00000000
00000002
00003003
,
00000001
00000000
00001000
00000000
,
00000100
00000000
00010000
00001000
,
00010000
00000000
00001000
00000000
,
00100000
00000000
00010000
00000000
,
10000000
00000000
01000000
00000000
,
00010000
00000000
00100000
00000000
,
00001000
00000000
00000000
00010000
00000000
00000000
00001000
00000000
,
00000000
00010000
00000000
00000000
00000100
00000000
00001000
00000000
,
00000001
00000000
00001000
00000000
,
00000100
00000000
00010000
00000000
,
00001000
00000000
01000000
00000000
,
00010000
00000000
10010000
00000000
,
00100000
00000000
00001000
00000000
,
00010000
00000100
00001000
00000000
,
00001001
00000000
00000110
00000000
,
00000010
00001000
00000100
00000000
,
00010000
00000000
00001000
00000000
,
01000000
00000000
00100000
00000000
,
10000000
00000000
00010000
00000000
,
00100000
00000000
00001000
00000000
,
00010000
00000000
00000000
00001000
00000000
00000000
00010000
00000000
,
00000000
00001000
00000000
00000000
00010000
00000000
00000000
00000000
,
00000010
00000000
00001000
00000000
,
00000001
00000100
00000010
00000000
,
00002000
00000000
00003200
00000000
,
00000320
00000000
00000032
00000000
,
00001003
00000000
00000000
00000100
00000000
00000000
00010000
00000000
,
00001000
00000000
00011000
00000000
,
00002000
00000000
02003000
00000000
,
03200000
00000000
10300000
00010000
,
20000000
00000000
30020000
00000000
,
00230000
00000000
00002000
00303000
,
00001000
00000000
00010000
00000000
,
00000100
00000000
00001000
00000100
,
00000010
00000000
00000001
00000000
,
00000100
00000000
00001001
00000000
,
00000010
00000000
00000000
00001000
00000000
00000000
00000100
00000000
,
00000000
00000001
00000000
00000000
00000010
00000000
00000000
00000000
,
00001000
00000000
00000100
00000000
,
00010000
00000000
00000000
00000000
,
00001000
00000000
00000000
00000000
,
00000000
00000000
00100000
00000000
,
01000000
00000000
00000000
00000000
,
00000000
00000000
10000000
00000000
,
00010000
00000000
00000000
00000000
,
00000000
00000000
00100000
00000000
,
00001000
00000000
00000000
00000000
,
00000000
00000000
00010000
00002000
,
00000000
00000000
00000000
00000000
,
00000000
00000000
00000000
00000000
,
00003000
00000000
00000000
00000000
;

//---------------dance-single - ----------------
#NOTES:
     dance-single:
     :
     Easy:
     4:
     0.177970,0.277936,0.050997,0.203989,0.000000,171.000000,164.000000,7.000000,28.000000,0.000000,0.000000,0.177970,0.277936,0.050997,0.203989,0.000000,171.000000,164.000000,7.000000,28.000000,0.000000,0.000000:
// measure 0
0000
0000
0000
0000
,  // measure 1
0000
0000
0000
0000
,  // measure 2
0000
0000
0000
0000
,  // measure 3
0000
0000
0000
0000
,  // measure 4
0000
0000
0000
0000
,  // measure 5
2000
0000
0000
0000
,  // measure 6
3000
0000
0000
0000
,  // measure 7
0002
0000
0000
0000
,  // measure 8
0003
0000
0000
0000
,  // measure 9
0200
0000
0000
0000
,  // measure 10
0300
0000
0000
0000
,  // measure 11
0020
0000
0000
0000
,  // measure 12
0030
0000
0000
0000
,  // measure 13
2000
0000
0000
0000
,  // measure 14
3000
0000
0000
0000
,  // measure 15
0002
0000
0000
0000
,  // measure 16
0003
0000
0000
0000
,  // measure 17
0020
0000
0000
0000
,  // measure 18
0000
0000
0000
0000
,  // measure 19
0030
0000
0000
0000
,  // measure 20
0000
0000
0000
0000
,  // measure 21
0200
0000
0000
0000
,  // measure 22
0000
0000
0000
0000
,  // measure 23
0300
0000
0000
0000
,  // measure 24
0010
0000
0000
0000
,  // measure 25
1000
0000
0000
1000
,  // measure 26
0000
0000
0000
0000
,  // measure 27
0001
0000
0000
0001
,  // measure 28
0000
0000
0000
0000
,  // measure 29
0100
0000
0000
0100
,  // measure 30
0000
0000
0000
0000
,  // measure 31
0010
0000
0000
0010
,  // measure 32
0000
0000
0000
0000
,  // measure 33
1000
0000
0000
0001
,  // measure 34
0000
0000
1000
0000
,  // measure 35
0001
0000
1000
0000
,  // measure 36
0010
0000
0100
0000
,  // measure 37
0001
0000
0000
1000
,  // measure 38
0000
0000
0001
0000
,  // measure 39
0100
0000
0010
0000
,  // measure 40
1000
0000
0001
0000
,  // measure 41
2000
0000
3000
0000
,  // measure 42
0001
0000
1000
0000
,  // measure 43
0001
0000
0100
0000
,  // measure 44
0010
0000
1000
0000
,  // measure 45
0002
0000
0000
0003
,  // measure 46
2000
0000
0000
3000
,  // measure 47
0010
0000
0000
0100
0000
0000
0010
0000
,  // measure 48
0000
0100
0000
0000
0010
0000
0100
0000
,  // measure 49
0001
0000
1000
0000
,  // measure 50
2002
0000
3003
0000
,  // measure 51
0010
0000
0100
0000
,  // measure 52
0001
0000
1000
0000
,  // measure 53
1000
0000
0100
0000
,  // measure 54
0010
0000
0001
0000
,  // measure 55
0100
0000
0010
0000
,  // measure 56
1000
0000
1001
0000
,  // measure 57
0001
0000
0100
0000
,  // measure 58
0020
0000
0200
0330
,  // measure 59
0001
0000
1000
0000
,  // measure 60
0010
0000
0100
0000
,  // measure 61
0001
0000
1000
0001
,  // measure 62
1000
0000
1001
0000
,  // measure 63
0010
0000
1000
0000
,  // measure 64
0100
0000
0001
0000
,  // measure 65
0010
0000
0000
0001
0000
0000
0100
0000
,  // measure 66
0000
1000
0000
0000
0010
0000
0000
0000
,  // measure 67
1000
0000
0001
0000
,  // measure 68
0100
0000
0010
0000
,  // measure 69
1000
0000
0100
0000
,  // measure 70
0010
0000
0001
0000
,  // measure 71
0100
0000
0010
0000
,  // measure 72
1000
0001
1000
0001
,  // measure 73
1000
0000
0010
0000
,  // measure 74
2000
0000
0002
3003
,  // measure 75
0001
0000
1000
0000
,  // measure 76
0010
0000
0100
0000
,  // measure 77
0001
0000
0100
0000
,  // measure 78
0010
0000
1000
0000
,  // measure 79
0001
0000
0000
0010
0000
0000
1000
0000
,  // measure 80
0000
0100
0000
0000
0001
0000
0000
0000
,  // measure 81
1000
0000
0001
0000
,  // measure 82
0100
0000
0020
0000
,  // measure 83
2030
0000
3200
0000
,  // measure 84
0320
0000
0032
0000
,  // measure 85
0103
0000
0010
0000
,  // measure 86
1000
0000
1001
0000
,  // measure 87
0001
0000
0100
0000
,  // measure 88
0010
0000
2002
3003
,  // measure 89
1001
0000
0010
0000
,  // measure 90
0200
0000
0020
0330
,  // measure 91
1000
0000
0100
0000
,  // measure 92
0010
0000
0001
0000
,  // measure 93
0100
0000
0010
0000
,  // measure 94
1000
0000
1001
0000
,  // measure 95
0001
0000
0000
0010
0000
0000
0100
0000
,  // measure 96
0000
1000
0000
0000
0001
0000
1000
0000
,  // measure 97
0001
0000
0100
0000
,  // measure 98
0010
0000
0000
0000
,  // measure 99
1000
0000
0000
0001
,  // measure 100
0000
0000
1000
0000
,  // measure 101
0010
0000
0000
0100
,  // measure 102
0000
0000
0010
0000
,  // measure 103
1000
0000
0000
0100
,  // measure 104
0000
0000
0010
0000
,  // measure 105
0001
0000
0000
0100
,  // measure 106
0000
0000
0020
0200
,  // measure 107
0000
0000
0000
0000
,  // measure 108
0000
0000
0000
0000
,  // measure 109
0330
0000
0000
0000
;
