#TITLE:pedigree;
#SUBTITLE:;
#ARTIST:BEMANI Sound Team "S-C-U";
#TITLETRANSLIT:;
#SUBTITLETRANSLIT:;
#ARTISTTRANSLIT:;
#GENRE:;
#CREDIT:;
#BANNER:pedigree.png;
#BACKGROUND:pedigree-bg.png;
#LYRICSPATH:;
#CDTITLE:;
#MUSIC:pedigree.ogg;
#OFFSET:1.480000;
#SAMPLESTART:61.677895;
#SAMPLELENGTH:15.157890;
#LASTBEATHINT:0.760000;
#SELECTABLE:YES;
#BPMS:0.000000=95.000000
,34.000000=190.000000
;
#STOPS:34.000000=0.631578
;
#BGCHANGES:;
#KEYSOUNDS:;
#ATTACKS:;

//---------------dance-single - ----------------
#NOTES:
     dance-single:
     :
     Challenge:
     16:
     0.797080,0.891058,0.369624,0.176011,0.589638,634.000000,592.000000,42.000000,20.000000,0.000000,0.000000,0.797080,0.891058,0.369624,0.176011,0.589638,634.000000,592.000000,42.000000,20.000000,0.000000,0.000000:
0000
0000
0000
0000
,
0000
0000
0000
0000
,
0000
0000
0000
0000
,
0000
0000
0000
0000
,
0000
0000
0000
0000
0000
0001
0010
0100
,
0200
0000
0000
0020
0000
0000
0000
0000
0330
0000
0000
0001
0010
0100
1000
0100
,
0010
0000
0000
0100
0000
0000
0020
0000
0000
0000
0031
0000
0000
1000
0000
0000
,
0020
0000
0000
0000
1030
0010
0000
0010
0000
0000
1000
0000
0100
0000
0010
0000
,
1001
1001
1001
1001
0000
0000
0000
0000
,
1000
0100
0010
0000
0010
1000
0001
1000
,
0000
0001
0010
0000
1000
0100
0010
0001
,
1000
0000
0001
0010
0000
1010
0000
0101
,
0000
0000
1000
0000
0001
0000
1000
0010
1000
0000
0001
0000
0100
0000
0010
0000
,
1000
0000
0000
0000
1000
0000
0001
0100
0001
0000
1000
0000
0010
0000
0100
0000
,
0010
0000
0000
0000
1000
0000
0001
0010
0001
0000
1000
0000
0100
0000
0010
0000
,
0001
0000
1000
0100
1000
0100
0010
0001
,
0000
0000
0001
0000
0100
0000
0010
1000
0010
0000
0100
0000
0001
1000
0001
1000
,
0001
0100
0001
0000
1000
0100
0010
0100
,
0000
0001
0101
0000
1000
0010
0100
0001
,
0001
1000
0010
0010
0000
1001
0000
1100
,
0000
0000
1000
0000
0010
0000
0100
0010
0100
0000
0001
0000
1000
0000
0100
0000
,
0010
0000
0000
0000
0001
0000
1000
0010
1000
0000
0001
0000
1000
0000
0100
0000
,
0010
0000
0000
0000
0100
0000
0010
0100
0010
0000
1000
0000
0001
0000
1000
0000
,
0100
1000
0020
0100
0130
0010
1000
0100
,
0010
0000
0001
0000
0001
0000
1000
0100
1000
0100
0010
0001
0010
0001
0010
0001
,
0100
0010
0110
0000
0001
0100
0010
1000
,
0000
1000
1010
0000
1000
0100
0010
0001
,
1000
0001
1000
0000
1001
0000
0000
0000
0001
0000
0100
0000
0010
0000
0110
0000
,
0000
0000
1000
0000
0001
0000
1000
0100
1000
0000
0010
0000
0100
0000
0001
0000
,
0000
0001
1001
0000
0010
1000
0000
1001
,
0000
0000
1000
0000
0100
0000
0000
0000
1000
0100
1000
0000
0100
1000
0100
0000
,
1000
0000
0010
0000
0100
0000
0001
0100
0001
0000
0100
0000
0010
0000
1000
0010
,
1000
0000
0010
0100
0010
0000
1000
0001
1000
0000
0010
0000
1000
0010
1000
0010
,
1000
0001
1001
0000
0001
0100
0010
0110
,
0000
0000
0001
0000
0101
0000
0000
0000
1000
0010
1000
0000
0010
0000
0100
0000
,
0001
0000
0010
0001
0000
0000
1000
0000
0100
0000
1000
0100
0000
0000
1001
0000
,
0000
0000
1000
0000
0100
0000
0010
0001
0010
0000
0001
0000
0100
0000
0010
0000
,
2000
0000
0000
0000
3001
0000
0100
0000
0010
1000
0010
0000
1000
0000
0001
0000
,
1000
0001
0100
0000
0010
1000
0010
0100
,
0001
0000
0000
0000
0101
0000
0101
0000
0000
0000
1100
0000
0000
0000
1000
0001
,
1000
0000
1001
0000
1001
0000
0000
0000
0010
1000
0010
1000
0001
0100
0001
0100
,
0010
1000
0001
1001
0000
0101
0000
1010
,
0000
0000
0001
0100
0001
0000
0000
0000
1000
0100
1000
0000
0000
0000
0010
0000
,
2000
0000
0100
0000
3100
0000
0020
0000
0001
0000
0001
0000
0031
0000
1000
0010
,
1000
0000
0001
0100
0001
0000
1000
0100
1000
0000
0001
0100
0001
0000
1000
0000
,
0010
0100
0001
0101
0000
1100
0000
0110
,
0000
0000
0010
1000
0010
0000
0000
0000
0100
0001
0100
0000
0000
0000
0010
0000
,
0200
0000
0010
0000
0310
0000
2000
0000
0010
0000
0010
0000
3010
0000
1000
0001
,
1000
0000
0001
0100
0001
0000
1000
0010
1000
0000
0001
0010
0001
0000
1000
0000
,
0010
0100
0001
0101
0000
1100
0000
0011
,
0000
0000
1000
0001
1000
0000
0000
0000
0100
0010
0100
0000
0000
0000
0001
0000
,
1001
0000
0000
1001
0000
0000
1100
0000
1100
0000
0000
0101
0000
0000
0101
0000
,
0202
0000
0000
0000
0303
0000
0001
1000
0001
0000
1000
0000
0100
0000
0010
0000
,
0001
0000
0100
0000
0010
0000
1000
0010
1000
0000
0001
0000
0100
0000
0010
1000
,
0020
0130
0002
0103
0020
1030
0020
0130
,
0020
0000
0000
0000
1030
0000
0001
1000
0002
0000
0000
0000
0103
0000
0001
0000
,
1000
0100
1000
0010
1000
0001
0100
0010
,
1000
0000
0001
0100
0001
0000
1000
0000
0001
0000
0010
0001
0000
0010
0001
0000
,
1000
0000
0010
0100
0010
0000
1000
0100
1000
0100
0010
0001
0010
0001
0100
0010
,
0100
0000
0001
0100
0001
0000
0100
0000
0010
0000
1000
0010
0000
1000
0010
0000
,
1000
0000
0010
0100
0010
0000
1000
0000
0001
0100
0001
0100
0010
1000
0010
1000
,
0010
0000
0100
0010
0100
0000
0010
0000
1000
0000
0001
1000
0000
0001
1000
0000
,
0010
0000
0100
0010
0100
0000
0001
0000
1000
0010
1000
0010
0100
0001
0100
0001
,
1000
0000
0001
1000
0000
0000
0010
0000
0110
0000
0100
0010
0000
0000
1000
0000
,
0010
0100
0010
0100
0001
0010
0100
1000
0010
0100
0010
0100
0001
0010
0100
1000
,
0001
0000
1000
0100
1000
0000
0010
0000
1000
0000
0100
0010
0000
0100
0010
0000
,
1000
0000
0001
0100
0010
0000
0100
0001
0100
0001
1000
0010
1000
0010
0100
0010
,
0100
0000
0001
0100
0001
0000
1000
0000
0100
0000
1000
0100
0000
1000
0100
0000
,
0010
0000
0001
0100
0001
0000
1000
0010
1000
0010
0100
0001
0100
0001
0100
0010
,
0100
0000
0001
0010
0001
0000
1000
0000
0010
0000
0100
0001
0000
0001
0100
0000
,
0010
0000
1000
0100
0010
0000
0100
0000
0010
1000
0010
1000
0010
0100
0010
1000
,
0010
0000
1000
0100
0000
0000
0101
0000
0001
0000
0001
0100
0000
0000
0010
1000
,
0010
1000
0001
0010
0001
0010
0100
1000
0100
0010
0001
0100
0010
1000
0100
0010
,
0002
0000
0000
2000
0000
0000
0000
0000
,
0000
0000
0000
0000
,
3003
0000
0000
0000
;

//---------------dance-single - ----------------
#NOTES:
     dance-single:
     :
     Hard:
     12:
     0.597182,0.660043,0.422427,0.140809,0.136409,475.000000,427.000000,48.000000,16.000000,0.000000,0.000000,0.597182,0.660043,0.422427,0.140809,0.136409,475.000000,427.000000,48.000000,16.000000,0.000000,0.000000:
0000
0000
0000
0000
,
0000
0000
0000
0000
,
0000
0000
0000
0000
,
0000
0000
0000
0000
,
0000
0000
0000
0000
0000
1000
0100
0010
,
0001
0000
0000
2002
0000
0000
0000
0000
0000
0000
3003
0000
0001
0000
0100
0000
,
1000
0000
0000
0100
0000
0000
0020
0000
0000
0000
0031
0000
0000
0010
0000
0000
,
0001
0000
0000
0000
1000
0010
0000
0010
0000
0000
1000
0000
0100
0000
0010
0000
,
0001
1001
1001
1001
0000
0000
0000
0000
,
1000
0100
0010
0000
1000
0001
0000
0001
,
0000
0001
1000
0000
0001
0010
0100
0010
,
0001
0000
1000
0001
0000
0101
0000
0101
,
0000
0100
0001
1000
0010
1000
0100
0010
,
0001
0000
0010
0001
0100
0001
0100
0010
,
0100
0000
0001
1000
0001
0100
0010
1000
,
1000
0000
0001
1000
0000
0100
0000
0010
,
0000
0001
0100
0000
0010
1000
0010
1000
,
0001
1000
0001
0000
1000
0100
0000
0010
,
0000
0001
0100
0000
0010
1000
0010
0100
,
0010
0000
1000
0001
0000
1001
0000
1100
,
0000
1000
0100
0010
0001
0100
0010
0100
,
0001
0000
1000
0100
0010
0001
0010
0100
,
1000
0000
0001
1000
0010
0100
0010
1000
,
0001
0000
1000
0001
1000
0001
0001
0001
,
1000
0100
0010
0001
1000
0100
1000
0100
,
1000
0000
1001
0000
1000
0010
0000
0110
,
0000
0010
1000
0000
0001
0010
0100
0010
,
0001
0000
1001
0000
1000
0010
0000
0220
,
0000
0330
0001
0010
0001
0100
0001
2000
,
0000
3001
1000
0000
0010
0100
0001
1000
,
0000
1000
1100
0000
0010
0001
0010
0001
,
0200
0000
0000
0310
0020
0000
0000
0000
,
1030
1100
0110
0011
,
1000
0001
1000
0000
0010
0010
0000
0110
,
0000
0010
0100
0000
0001
0010
0100
1000
,
0010
0000
0000
0010
0000
0000
1000
0000
0001
0000
0000
0100
0000
0000
0100
0000
,
0010
0100
0000
0001
0010
0100
0010
0001
,
1000
0000
1000
0100
0010
0001
0000
0101
,
0000
0010
1000
0000
0010
0100
0010
1000
,
1001
0000
1001
1001
0000
1100
0000
0110
,
0000
0011
0011
0000
1000
0100
0010
0001
,
0100
0010
0100
0010
0000
1001
0000
1100
,
0000
1000
0001
0000
1000
0100
0000
0010
,
0002
0000
0000
0203
0000
0000
0000
0310
,
1000
0010
1000
0010
0100
0001
0100
0001
,
1000
0100
0010
0001
0000
0101
0000
1001
,
0000
1000
0010
0000
1000
0100
0000
1000
,
0002
0000
0000
0203
0000
0000
0000
0310
,
1000
0010
0100
0001
1000
0100
0010
0001
,
0100
0001
0100
0010
0000
0110
0000
1001
,
0000
1000
0010
0000
0100
0001
0000
0010
,
1010
0000
0000
1000
0000
0000
0001
0000
0101
0000
0000
0001
0000
0000
0100
0000
,
0110
0000
0000
0000
0000
0000
0010
0100
0010
0000
0100
0000
0001
0000
1000
0000
,
1001
0000
0000
0000
0000
0000
0001
0100
0001
0000
0000
0000
0000
0000
1000
0010
,
1000
0000
0000
1000
0100
0000
0000
0100
0010
0000
0000
0010
0001
0000
0000
0001
,
2000
0000
0000
0000
0000
0000
3001
0100
0002
0000
0000
0000
0003
0000
0000
0000
,
1000
0100
0001
0100
1000
0010
1000
0100
,
1000
0000
0001
0000
0001
0000
1000
0000
0001
0000
0000
1001
0000
0000
1001
0000
,
0000
0010
0100
0010
1000
0100
0010
0001
,
0000
0000
0100
0000
0010
0000
0100
0000
0001
0000
0000
1001
0000
0000
1001
0000
,
0000
0001
0100
0001
1000
0100
0010
0001
,
0000
0000
1000
0000
0100
0000
0010
0000
0100
0000
0000
0101
0000
0000
0101
0000
,
0000
0001
0100
0010
1000
0001
0010
0100
,
1000
0000
0000
1100
0000
0000
1000
0000
0001
0000
0000
0101
0000
0000
0001
0000
,
1000
0000
0100
0000
0010
0000
0001
0000
1000
0001
1000
0001
1000
0000
0001
0000
,
0100
0000
0001
0000
1000
0000
0010
0000
1000
0000
0000
1010
0000
0000
1000
0000
,
0001
0010
0100
1000
0100
0001
0100
1000
,
0010
0000
0100
0000
0001
0000
0010
0000
0001
0000
0000
0011
0000
0000
0001
0000
,
0100
0010
1000
0010
0001
0010
1000
0100
,
0010
0000
0001
0000
0100
0000
0010
0000
1000
0000
0000
1010
0000
0000
0100
0000
,
0010
0000
0001
0000
0100
0000
0010
0000
1000
0010
1000
0000
0001
0000
0100
0000
,
0001
0000
0000
0101
0000
0000
1000
0000
0100
0000
0000
1100
0000
0000
1000
0000
,
0001
0100
0001
0000
1000
0000
0001
0000
1000
0000
0100
0000
0010
0000
0001
0000
,
2000
0000
0000
0002
0000
0000
0000
0000
,
0000
0000
0000
0000
,
3003
0000
0000
0000
;

//---------------dance-single - ----------------
#NOTES:
     dance-single:
     :
     Medium:
     9:
     0.403569,0.462030,0.088006,0.193613,0.008801,321.000000,311.000000,10.000000,22.000000,0.000000,0.000000,0.403569,0.462030,0.088006,0.193613,0.008801,321.000000,311.000000,10.000000,22.000000,0.000000,0.000000:
0000
0000
0000
0000
,
0000
0000
0000
0000
,
0000
0000
0000
0000
,
0000
0000
0000
0000
,
0000
0000
0000
0000
0000
0010
0100
0001
,
2000
0000
3001
0000
1000
0100
0010
0001
,
0200
0000
0310
0000
0001
0010
0100
1000
,
0002
0000
1003
0000
0001
0100
0010
1000
,
0200
0000
0020
0330
0000
0000
0000
0000
,
1000
0000
0001
0000
0100
0010
0000
1000
,
0000
0010
0100
0000
0001
0000
1000
0000
,
0010
0000
1000
0100
0000
0010
0000
0100
,
1000
0000
0010
0000
0100
0001
0100
0000
,
0010
0000
1000
0000
0001
1000
0001
0000
,
1000
0000
0100
0000
0010
0100
0010
0000
,
0100
0000
0010
0000
0001
0100
0000
0001
,
0000
0001
0100
0000
0010
1000
0010
0000
,
1000
0000
0100
0000
1000
0001
0000
0100
,
0000
0001
1000
0000
0001
0000
0100
0000
,
0010
0000
0100
0001
0000
0001
0000
1000
,
0000
0100
0010
0000
1000
0010
1000
0010
,
1000
0000
0000
0000
0001
0100
0001
0100
,
0001
0000
0000
0000
0001
1000
0001
1000
,
0001
1000
0010
0100
,
2002
0000
0000
3003
,
0010
0000
0010
0000
0100
0010
0000
1000
,
0000
0010
0100
0000
0001
0100
0001
0000
,
1000
0000
0100
0000
0010
0001
0000
0002
,
0000
0103
0010
1001
,
0100
0000
0010
0000
1000
0010
0000
0100
,
0000
0010
1000
0000
0001
0100
0001
0100
,
0002
1003
2000
3001
,
0010
0100
1000
0001
,
1000
0000
0001
0000
0001
0100
0000
0001
,
0000
0100
0001
0000
1000
0000
0010
0000
,
0100
0000
0000
0100
0000
0000
0000
0000
0010
0000
0000
0010
0000
0000
0010
0000
,
0000
1001
0000
0000
1000
0100
1000
0100
,
1000
0000
0100
0000
0010
0100
0000
0100
,
0000
0100
0010
0000
1000
0000
0100
0000
,
0002
0000
0000
0000
,
2000
0000
0000
3003
,
1000
0000
0010
1000
0000
0010
0000
1001
,
0000
0010
1000
0000
0001
0000
0100
0000
,
0020
0000
0000
0200
0000
0000
0330
0000
,
1000
0100
0010
0001
,
0100
0000
0010
1000
0000
0001
0000
1010
,
0000
0001
1000
0000
0001
0000
0100
0000
,
0020
0000
0000
2000
0000
0000
0000
0000
,
3030
0001
0100
0010
,
1000
0000
1000
0001
0000
1000
0000
1001
,
0000
0001
0100
0000
0001
0000
0100
0000
,
1001
0000
1100
0000
,
0011
0000
0000
0000
0100
0010
0100
0010
,
0200
0000
0302
0000
,
1003
0100
0010
0001
,
0020
0000
0000
0000
0200
0000
0000
0330
,
1000
0100
0010
0001
,
1000
0000
0010
0000
1000
0010
1000
0000
,
0001
0000
0100
0000
0001
0100
0001
0000
,
1000
0000
0100
0000
1000
0100
1000
0000
,
0001
0000
0100
0000
0001
0100
0001
0000
,
1000
0000
0010
0000
0100
0010
0100
0000
,
0001
0000
0100
0000
0010
0100
0010
0000
,
1000
0001
1000
0000
0001
1000
0001
0000
,
0010
0100
1001
0100
,
0001
0100
0001
0100
0001
0000
1000
0000
,
0010
0100
0010
0100
0010
0000
1000
0000
,
0001
0010
0001
0010
0001
0000
1000
0000
,
0010
0100
0010
0100
0010
0100
0010
0000
,
1000
0000
0100
0000
0010
0001
0010
0000
,
0001
0000
0100
0000
0010
1000
0010
0000
,
1000
0001
1000
0000
0001
1000
0001
0000
,
1000
0010
1000
0010
1000
0001
1000
0000
,
0002
0000
0000
2000
0000
0000
0000
0000
,
0000
0000
0000
0000
,
3003
0000
0000
0000
;

//---------------dance-single - ----------------
#NOTES:
     dance-single:
     :
     Easy:
     6:
     0.260245,0.330021,0.096806,0.140809,0.000000,207.000000,196.000000,11.000000,16.000000,0.000000,0.000000,0.260245,0.330021,0.096806,0.140809,0.000000,207.000000,196.000000,11.000000,16.000000,0.000000,0.000000:
// measure 0
0000
0000
0000
0000
,  // measure 1
0000
0000
0000
0000
,  // measure 2
0000
0000
0000
0000
,  // measure 3
0000
0000
0000
0000
,  // measure 4
0000
0000
0000
0000
,  // measure 5
2000
0001
0000
3001
,  // measure 6
0200
0001
0000
0310
,  // measure 7
0002
1000
0000
0100
,  // measure 8
2000
0000
3003
0000
,  // measure 9
0010
0100
0000
0100
,  // measure 10
0000
0001
0000
0001
,  // measure 11
0000
1000
0000
1000
,  // measure 12
0000
0001
1000
0001
,  // measure 13
0000
1000
0001
1000
,  // measure 14
0000
0001
1000
0001
,  // measure 15
0000
0100
0000
0100
,  // measure 16
0000
0010
0000
0010
,  // measure 17
0000
1000
0000
0100
,  // measure 18
0000
0010
0000
0001
,  // measure 19
0000
0100
0000
0010
,  // measure 20
0000
0010
0100
0010
,  // measure 21
0000
0100
0010
0100
,  // measure 22
0000
0010
0100
0010
,  // measure 23
0000
1000
0000
0001
,  // measure 24
0000
0100
0100
0100
,  // measure 25
1001
0000
1000
0001
,  // measure 26
0000
0001
1000
0001
,  // measure 27
1000
0010
0000
0010
,  // measure 28
0000
0100
0010
0100
,  // measure 29
0001
1000
0000
1000
,  // measure 30
0000
0001
1000
0010
,  // measure 31
0100
0010
0000
0010
,  // measure 32
0000
1000
0100
0010
,  // measure 33
0001
0001
0000
1000
,  // measure 34
0000
0001
1000
0001
,  // measure 35
1001
0000
0110
0000
,  // measure 36
1001
0000
1000
0001
,  // measure 37
1000
0000
0001
0000
,  // measure 38
1000
1000
1000
1000
,  // measure 39
0002
0000
0000
0000
,  // measure 40
2000
0000
0000
3003
,  // measure 41
0010
0010
0000
1000
,  // measure 42
0000
0100
0000
0001
,  // measure 43
2000
0000
0000
0002
0000
0000
3003
0000
,  // measure 44
0001
0010
0100
1000
,  // measure 45
0010
0100
0000
0001
,  // measure 46
0000
1000
0010
1000
,  // measure 47
0002
0000
0000
2000
0000
0000
3003
0000
,  // measure 48
0001
0010
0100
1000
,  // measure 49
0010
0100
0000
0100
,  // measure 50
0000
0001
1000
0000
,  // measure 51
1001
0000
0110
0000
,  // measure 52
1001
0000
1000
0100
,  // measure 53
0020
0000
0032
0000
,  // measure 54
1003
0100
0010
0001
,  // measure 55
0200
0000
0020
0000
,  // measure 56
0000
0000
0330
0000
,  // measure 57
0001
0001
0001
0001
,  // measure 58
1000
1000
1000
1000
,  // measure 59
0010
0010
0010
0010
,  // measure 60
0100
0100
0100
0100
,  // measure 61
0001
1000
0001
1000
,  // measure 62
0010
0100
0010
0100
,  // measure 63
1001
0000
0110
0000
,  // measure 64
1000
0100
0010
0001
,  // measure 65
1000
1000
1000
1000
,  // measure 66
0001
0001
0001
0001
,  // measure 67
0010
0010
0010
0010
,  // measure 68
0100
0100
0100
0100
,  // measure 69
0001
1000
0001
1000
,  // measure 70
0010
0100
0010
0100
,  // measure 71
0110
0000
1001
0000
,  // measure 72
1000
0100
0010
0001
,  // measure 73
2000
0000
0000
0002
0000
0000
0000
0000
,  // measure 74
0000
0000
0000
0000
,  // measure 75
3003
0000
0000
0000
;

//---------------dance-single - ----------------
#NOTES:
     dance-single:
     :
     Beginner:
     4:
     0.168468,0.231015,0.000000,0.105607,0.000000,134.000000,134.000000,0.000000,12.000000,0.000000,0.000000,0.168468,0.231015,0.000000,0.105607,0.000000,134.000000,134.000000,0.000000,12.000000,0.000000,0.000000:
// measure 0
0000
0000
0000
0000
,  // measure 1
0000
0000
0000
0000
,  // measure 2
0000
0000
0000
0000
,  // measure 3
0000
0000
0000
0000
,  // measure 4
0000
0000
0000
0000
,  // measure 5
0000
0001
0000
0001
,  // measure 6
0000
1000
0000
1000
,  // measure 7
0000
0010
0000
0010
,  // measure 8
0000
0100
0000
0000
,  // measure 9
0000
1000
0000
1000
,  // measure 10
0000
0001
0000
0001
,  // measure 11
0000
1000
0000
1000
,  // measure 12
0000
0001
0000
0001
,  // measure 13
0000
0100
0000
0100
,  // measure 14
0000
0010
0000
0010
,  // measure 15
0000
0100
0000
0100
,  // measure 16
0000
0001
0000
0001
,  // measure 17
0000
1000
0000
0001
,  // measure 18
0000
0000
0000
0001
,  // measure 19
0000
0100
0000
0010
,  // measure 20
0000
0100
0000
0010
,  // measure 21
0000
1000
0000
0010
,  // measure 22
0000
0100
0000
0001
,  // measure 23
0000
1000
0000
0001
,  // measure 24
0002
0000
0003
0000
,  // measure 25
1000
0000
1000
0000
,  // measure 26
0010
0000
0010
0000
,  // measure 27
0100
0000
0100
0000
,  // measure 28
0002
0000
0003
0000
,  // measure 29
1000
0000
0000
0000
,  // measure 30
0001
0000
0001
0000
,  // measure 31
0100
0000
0100
0000
,  // measure 32
0020
0000
0030
0000
,  // measure 33
1000
0000
0001
0000
,  // measure 34
0100
0000
0010
0000
,  // measure 35
1000
0000
0001
0000
,  // measure 36
2000
0000
3000
0000
,  // measure 37
0001
0000
1000
0000
,  // measure 38
0010
0000
0100
0000
,  // measure 39
0002
0000
0003
0000
,  // measure 40
2000
0000
3000
0000
,  // measure 41
0001
0000
0000
0000
,  // measure 42
0001
0000
1000
0000
,  // measure 43
0002
0000
0003
0000
,  // measure 44
2000
0000
3000
0000
,  // measure 45
0010
0000
0100
0000
,  // measure 46
0010
0000
0100
0000
,  // measure 47
0020
0000
0030
0000
,  // measure 48
0200
0000
0300
0000
,  // measure 49
0001
0000
0010
0000
,  // measure 50
0100
0000
1000
0000
,  // measure 51
0001
0000
0001
0000
,  // measure 52
1000
0000
0001
0000
,  // measure 53
1000
0000
0010
0000
,  // measure 54
0001
0001
0001
0000
,  // measure 55
0100
0000
0020
0000
,  // measure 56
0000
0000
0030
0000
,  // measure 57
1000
0000
0001
0000
,  // measure 58
1000
1000
1000
0000
,  // measure 59
0001
0000
1000
0000
,  // measure 60
0001
0001
0001
0000
,  // measure 61
0010
0000
0100
0000
,  // measure 62
0010
0010
0010
0000
,  // measure 63
0100
0000
0010
0000
,  // measure 64
0100
0100
0100
0100
,  // measure 65
0000
0001
0001
0001
,  // measure 66
0000
1000
1000
1000
,  // measure 67
0000
0010
0010
0010
,  // measure 68
0000
0100
0100
0100
,  // measure 69
0000
0010
0010
0010
,  // measure 70
0000
1000
0000
0001
,  // measure 71
0001
0000
1000
0000
,  // measure 72
0010
0010
0010
0010
,  // measure 73
0020
0000
0000
0000
,  // measure 74
0000
0000
0000
0000
,  // measure 75
0030
0000
0000
0000
;
