#TITLE:o†o;
#SUBTITLE:;
#ARTIST:aωc;
#TITLETRANSLIT:oto;
#SUBTITLETRANSLIT:;
#ARTISTTRANSLIT:awc;
#GENRE:;
#CREDIT:;
#BANNER:oto.png;
#BACKGROUND:oto-bg.png;
#LYRICSPATH:;
#CDTITLE:;
#MUSIC:oto.ogg;
#OFFSET:0.100000;
#SAMPLESTART:78.909904;
#SAMPLELENGTH:11.881187;
#SELECTABLE:YES;
#BPMS:0.000000=202.000000
;
#STOPS:
;
#BGCHANGES:;
#KEYSOUNDS:;
#ATTACKS:;

//---------------dance-single - ----------------
#NOTES:
     dance-single:
     :
     Beginner:
     6:
     0.233998,0.356434,0.107661,0.399883,0.000000,213.000000,199.000000,14.000000,52.000000,0.000000,0.000000,0.233998,0.356434,0.107661,0.399883,0.000000,213.000000,199.000000,14.000000,52.000000,0.000000,0.000000:
0000
0000
0000
0000
,
0000
0000
0000
0000
,
0000
0000
0000
0000
,
0000
0000
0000
0000
,
0000
0000
0000
0000
,
0000
0000
0000
0000
,
0000
0000
0000
0000
,
0000
0000
0000
0000
,
0000
0000
0000
0000
,
0020
0000
0030
0001
,
0001
0000
1000
1000
,
2000
3000
0002
0003
,
0200
0300
0020
0030
,
2000
0000
3000
0001
,
0001
0000
1000
0001
,
1000
0000
0001
0000
,
0100
0000
0010
0100
,
0010
0000
0000
1000
,
2000
3000
0001
0000
,
0100
0000
0010
0000
,
1000
0000
0001
0000
,
2000
3000
0000
0010
,
0020
0030
0000
0100
,
0001
0000
1000
0000
,
0010
0000
0100
0000
,
0002
0000
0003
0000
,
2000
0000
3000
0000
,
0020
0000
0030
0000
,
0200
0000
0300
0000
,
0001
1000
0001
0000
,
1000
0001
1000
0000
,
0001
1000
0001
0000
,
1000
0001
1000
0000
,
0010
0000
0100
0000
,
0001
0000
1000
0000
,
0020
0000
0030
1000
,
1000
0000
0001
0000
,
1000
0000
0100
0000
,
0010
0000
0001
0000
,
1000
0000
0010
0000
,
0001
0000
0100
0100
,
0020
0030
2000
3000
,
0002
0003
2000
3000
,
0002
0000
0003
0100
,
0100
0000
0010
0000
,
1000
0000
0010
0000
,
0100
0000
0001
0000
,
0010
0000
0010
0000
,
0010
0000
1000
0001
,
2000
3000
2000
3000
,
0002
0003
0002
0003
,
0200
0300
0200
0300
,
0020
0030
0020
0030
,
2000
3000
2000
3000
,
0002
0003
0002
0003
,
0200
0300
0200
0300
,
0020
0030
0020
0030
,
1000
0000
0100
0000
,
0010
0000
0001
0000
,
1000
0000
0100
0000
,
0010
0000
0001
0000
,
1000
0100
1000
0100
,
0010
0001
0010
0001
,
1000
0100
0010
0001
,
1000
0100
0010
0001
,
0200
0000
0320
0000
,
0030
0000
1001
0000
,
0010
0000
1001
0000
,
0100
0000
1001
0000
,
0010
0000
0110
0000
,
0100
0000
0110
0000
,
0001
0000
1001
0000
,
1000
0000
1001
0000
,
0010
0100
0010
0100
,
0010
0000
1001
0000
,
0001
0000
0110
0000
,
1000
0000
0110
0000
,
0001
0000
1001
0000
,
1000
0000
1001
0000
,
0010
0000
0110
0000
,
0100
0000
0110
0000
,
0001
0000
0010
0000
,
0100
0000
1000
0000
,
0001
0000
0001
0000
,
1000
0000
1000
0000
,
0020
0000
0030
0000
,
0200
0000
0300
0000
,
1000
0000
1000
0000
,
0001
0000
0001
0000
,
0100
0000
0100
0000
,
0010
0010
0010
1000
,
0002
0003
0002
0003
,
0020
0030
0020
0030
,
0200
0300
0200
0300
,
2000
3000
2000
3000
,
0002
0003
0020
0030
,
0200
0300
2000
3000
,
0001
0010
0100
1000
,
0001
0010
0100
1000
,
0020
0000
0000
0000
,
0000
0000
0000
0000
,
0000
0000
0000
0000
,
0000
0000
0000
0000
,
0030
0000
0000
0000
;

//---------------dance-single - ----------------
#NOTES:
     dance-single:
     :
     Hard:
     17:
     0.795372,1.227718,0.000000,0.307602,0.715176,724.000000,724.000000,0.000000,40.000000,0.000000,0.000000,0.795372,1.227718,0.000000,0.307602,0.715176,724.000000,724.000000,0.000000,40.000000,0.000000,0.000000:
0000
0000
0000
0000
,
0000
0000
0000
0000
,
0000
0000
0000
0000
,
0000
0000
0000
0000
,
0000
0000
0000
0000
,
0000
0000
0000
0000
,
0000
0000
0000
0000
,
0000
0000
0000
0000
,
0000
0000
0000
0000
,
0002
0000
0000
0000
0003
0000
1000
0100
,
0020
0000
0030
0000
1000
0001
0100
0010
,
2000
0000
0000
3001
0002
0000
0000
0103
,
0200
0000
0000
0310
0020
0000
0000
0000
,
2030
0000
0000
0000
3000
0000
0001
0100
,
0010
1000
0001
1000
,
0020
0000
0000
0000
0030
0000
1000
0100
0020
0000
0000
0000
0030
0000
0000
0000
,
0002
0000
0103
0010
,
2000
0000
3001
0100
0001
0100
0001
0100
,
0020
0000
1030
0010
1000
0010
1000
0001
,
0100
0100
0010
1000
,
0002
0000
1003
0010
,
0100
0000
0001
1000
0001
1000
0001
1000
,
0100
0000
1000
0001
1000
0001
1000
0001
,
0010
0000
0000
0001
0100
0000
0000
0100
,
0010
1000
0100
0010
,
0001
0000
0100
0000
0010
0000
1000
0000
0001
0000
0100
0001
0100
0010
0100
0000
,
0010
0000
1000
0000
0100
0000
1000
0000
0001
0000
0100
0010
0100
0001
0100
0000
,
0001
0000
1000
0000
0100
0000
1000
0000
0001
0000
0010
1000
0010
0100
0010
0000
,
0001
0000
0100
0000
0010
0000
1000
0000
0001
0000
0100
0001
0100
0010
0100
0000
,
0001
0010
0001
0000
1000
0000
0010
0000
0100
0000
0001
0100
0001
1000
0001
0000
,
0100
0000
0010
0000
1000
0000
0100
0000
1000
0000
0010
0100
0010
1000
0010
0000
,
0100
0001
0100
0000
0010
0000
1000
0000
0100
0000
1000
0001
0010
0001
1000
0000
,
0010
0000
0100
0000
0001
0000
0010
0000
0001
0000
1000
0010
0100
0010
1000
0000
,
0001
0100
0001
0100
0000
0000
1000
0010
1000
0010
0000
0000
,
0100
0010
0100
0010
0000
0000
1000
0001
1000
0001
0100
0001
,
0200
0000
0302
0000
0023
0000
0130
0001
,
2000
3020
0230
0301
,
0001
0100
0000
0000
0100
0010
0000
0000
0010
1000
0000
0000
1000
0001
0000
0000
,
0001
1000
0000
0000
1000
0100
0000
0000
0100
0001
0000
0000
0001
1000
0000
0000
,
1000
0010
0000
0000
0010
0100
0000
0000
0100
0001
0000
0000
0001
0100
0000
0000
,
0100
0010
0000
0000
0010
1000
0000
0000
1000
0001
1000
0000
0001
0100
0001
0000
,
1000
0100
0010
0000
0100
0010
0001
0000
,
1000
0010
0100
0000
0001
0100
0010
0000
,
2000
0000
0001
0000
3001
0000
0010
0100
,
0002
1003
2000
3001
,
0020
0000
0032
0000
,
0203
0000
2300
0000
,
3010
0100
0001
0100
0010
0100
0001
0000
1000
0010
0100
0010
1000
0010
0100
0000
,
0001
0010
0001
0100
0001
0010
0001
0000
1000
0010
1000
0100
1000
0010
1000
0000
,
0001
0000
1000
0010
0100
0001
0100
0000
,
0001
0000
1000
0010
0001
0010
1000
0000
,
0100
0000
1000
0010
0100
0010
1000
0000
,
0001
0000
1000
0100
0001
0100
1000
0000
,
0010
0000
0000
1000
0010
0100
0001
0100
0010
1000
0000
0000
,
0100
0000
0000
1000
0001
0100
0010
0100
0001
1000
0000
0000
,
0010
0000
0000
0100
0001
0100
0010
1000
0010
0100
0000
0000
,
0010
0000
0000
1000
0010
1000
0001
0100
0001
1000
0000
0000
,
0010
0001
0100
0001
0000
0000
1000
0010
1000
0100
0000
0000
,
0010
0001
0100
0001
0000
0000
1000
0010
0100
0010
0000
0000
,
1000
0001
0100
0001
0000
0000
1000
0010
0100
0010
0000
0000
,
0001
0100
0010
0100
0000
0000
0001
1000
0010
1000
0000
0000
,
0001
0010
0001
0000
1000
0100
1000
0000
0001
0100
0001
0000
1000
0010
1000
0000
,
0001
0010
0001
0000
1000
0010
1000
0000
0001
0100
0010
0000
1000
0010
0100
0000
,
0001
0010
0001
0100
0001
1000
0001
1000
0010
0100
0010
1000
0001
0100
0001
0000
,
1000
0010
1000
0001
1000
0100
1000
0001
0100
0010
0100
0001
0100
0010
1000
0000
,
0002
0000
0203
0000
,
2300
0000
0000
0000
3001
0010
0100
0000
,
1000
0000
0001
0000
0100
0000
0001
0000
1000
0001
1000
0001
0100
0010
0100
0000
,
0001
0000
0100
0000
0001
0000
1000
0000
0001
0010
0001
0010
0001
0100
0001
0000
,
1000
0000
0010
0000
0100
0000
0001
0000
1000
0010
1000
0010
1000
0001
1000
0000
,
0001
0000
0000
0001
0100
0000
0000
0100
0010
0000
0000
0010
1000
0000
0000
1000
,
0001
0000
0000
0000
1000
0000
0001
0000
0001
0000
0100
0001
0100
0001
0100
0000
,
0010
0000
0000
0000
1000
0000
0100
0000
0100
0000
1000
0010
1000
0010
0100
0000
,
0001
0000
1000
0010
1000
0000
0000
0000
0001
0000
0100
0010
0100
0000
0000
0000
,
0001
0100
0001
0010
0001
0100
0001
1000
0010
0100
0010
1000
0010
0000
1000
0000
,
0010
0000
0100
0000
0001
0000
0100
0001
0100
0000
0010
0000
1000
0000
0001
0000
,
0100
0000
0001
0000
1000
0000
0001
0010
0001
0000
1000
0000
0100
0000
0010
0000
,
0001
0000
0100
0000
0010
0000
1000
0100
1000
0000
0010
0100
0010
0100
0010
0000
,
1000
0000
0001
0000
0010
0000
0001
0100
0001
0000
1000
0010
1000
0010
1000
0000
,
0010
0000
0100
0000
0001
0000
1000
0001
1000
0000
0010
0000
0100
0000
0001
1000
,
0001
0000
0100
0000
0001
0000
1000
0010
1000
0000
0001
0000
0100
0000
0001
0010
,
0001
0000
0100
0000
0001
0000
1000
0001
1000
0000
0001
0000
0100
0000
0010
0000
,
1000
0001
1000
0000
0001
0100
0001
0000
0010
1000
0010
0000
0100
0001
0100
0001
,
2000
0000
0000
0001
0002
0000
3003
0000
,
0020
0000
0000
0100
0200
0000
0330
0000
,
0001
0010
0100
0010
0001
0010
1000
0010
,
0001
0000
0100
0000
0010
0000
0100
0000
0001
0010
0001
1000
0010
1000
0001
0100
,
0002
0000
0000
1000
2000
0000
3003
0000
,
0200
0000
0000
0010
0020
0000
0330
0000
,
2000
0000
0000
0100
0200
0000
3300
0001
,
0001
0100
0000
0000
0100
0010
0000
0000
0010
1000
0000
0000
1000
0001
0000
0000
,
1000
0100
0010
0001
0001
0010
0100
1000
,
0001
0010
0100
1000
1000
0100
0010
0001
,
1000
0000
0010
0000
0100
0000
0001
1000
0001
0000
0100
0000
0010
0000
1000
0000
,
0001
0000
0100
0000
0010
0000
1000
0001
1000
0000
0010
0000
1000
0001
1000
0001
,
1000
0000
0010
1000
0010
0100
0010
0000
0100
0000
0001
0010
0001
0100
0001
0000
,
1000
0000
0010
0100
0001
0100
0010
0000
1000
0000
0001
0010
0001
0100
0001
0000
,
1000
0100
1000
0000
0010
0001
0010
0000
0001
0100
0001
0000
0010
1000
0010
0000
,
0100
0010
0100
0010
1000
0001
1000
0001
1000
0010
0100
0010
1000
0001
0100
0001
,
2000
0001
0001
0001
,
0000
0001
0001
0001
,
0000
0001
0001
0001
,
0000
0001
0001
0001
,
3000
0000
0000
0000
;

//---------------dance-single - ----------------
#NOTES:
     dance-single:
     :
     Medium:
     11:
     0.564670,0.673265,0.053830,0.407573,0.015380,514.000000,507.000000,7.000000,53.000000,0.000000,0.000000,0.564670,0.673265,0.053830,0.407573,0.015380,514.000000,507.000000,7.000000,53.000000,0.000000,0.000000:
// measure 0
0000
0000
0000
0000
,  // measure 1
0000
0000
0000
0000
,  // measure 2
0000
0000
0000
0000
,  // measure 3
0000
0000
0000
0000
,  // measure 4
0000
0000
0000
0000
,  // measure 5
0000
0000
0000
0000
,  // measure 6
0000
0000
0000
0000
,  // measure 7
0000
0000
0000
0000
,  // measure 8
0000
0000
0000
0000
,  // measure 9
0020
0000
0000
0000
0030
0000
0001
0100
,  // measure 10
0002
0000
0003
0000
1000
0001
1000
0001
,  // measure 11
2000
0000
0000
3001
0002
0000
0000
0103
,  // measure 12
0200
0000
0000
0310
0020
0000
0000
0000
,  // measure 13
2030
0000
0000
0000
3000
0000
0001
1000
,  // measure 14
0001
1000
0010
0100
,  // measure 15
0020
0000
0000
0100
0200
0000
0000
0000
,  // measure 16
0000
0330
0100
0010
,  // measure 17
2000
0000
0000
0000
3000
0000
0001
0100
,  // measure 18
0002
0000
1003
0001
,  // measure 19
0100
0100
0010
1000
,  // measure 20
0001
0100
1000
0010
,  // measure 21
0200
0000
0000
0000
0300
0000
0001
1000
,  // measure 22
0002
0000
0000
0000
0003
0000
1000
0001
,  // measure 23
0010
0000
0000
0001
0100
0000
0000
0100
,  // measure 24
0010
1000
0100
0010
,  // measure 25
0002
0000
0003
0000
1000
0100
1000
0100
,  // measure 26
2000
0000
3000
0000
0001
0100
0001
0100
,  // measure 27
0002
0000
0003
0000
1000
0100
1000
0100
,  // measure 28
2000
0000
3000
0000
0001
0010
0001
0010
,  // measure 29
0001
0000
1001
0000
0100
0010
0100
0010
,  // measure 30
0100
0000
0110
0000
0001
1000
0001
1000
,  // measure 31
0001
0000
1001
0000
1000
0001
1000
0000
,  // measure 32
1000
0001
1000
0001
0100
0010
0100
0000
,  // measure 33
0001
0100
0001
0000
1000
0010
1000
0000
,  // measure 34
0001
1000
0001
0000
1000
0001
1000
0000
,  // measure 35
0020
0000
0100
0000
0130
0000
0001
1000
,  // measure 36
0001
0010
0100
1000
,  // measure 37
1000
0100
0000
0000
0000
0000
0000
0000
1000
0001
0000
0000
0000
0000
0000
0000
,  // measure 38
1000
0010
0000
0000
0000
0000
0000
0000
1000
0001
0000
0000
0000
0000
0000
0000
,  // measure 39
1000
0010
1000
0000
0001
0100
0001
0000
,  // measure 40
1000
0001
1000
0000
1001
0000
1001
0000
,  // measure 41
0001
0100
0001
0000
1000
0010
1000
0000
,  // measure 42
0001
0010
0001
0000
1000
0010
1000
0000
,  // measure 43
1000
0000
0001
0000
0100
0000
0001
0100
,  // measure 44
0010
1000
2002
3003
,  // measure 45
0020
0000
2030
0000
,  // measure 46
3200
0000
0302
0000
,  // measure 47
1003
0001
1000
0000
0001
1000
0001
0000
,  // measure 48
0001
0100
0001
0100
0010
1000
0010
0000
,  // measure 49
2000
3010
0002
0103
,  // measure 50
2000
3010
0002
0103
,  // measure 51
2000
3100
0020
0031
,  // measure 52
2000
3010
0200
0301
,  // measure 53
1000
0010
1000
0010
1000
0010
1000
0000
,  // measure 54
0001
0100
0001
0100
0001
0100
0001
0000
,  // measure 55
1000
0010
1000
0001
1000
0010
1000
0000
,  // measure 56
0001
1000
0010
1000
0001
1000
0010
0000
,  // measure 57
0001
0100
0001
0000
1000
0010
1000
0000
,  // measure 58
0001
0010
0001
0000
1000
0100
1000
0000
,  // measure 59
0001
0100
0001
0000
1000
0010
1000
0000
,  // measure 60
0001
0100
0001
0000
1000
0010
1000
0000
,  // measure 61
0001
0100
0001
0100
0010
1000
0010
1000
,  // measure 62
0001
0010
0001
0010
0100
1000
0100
1000
,  // measure 63
0001
0100
0001
0100
0010
1000
0010
1000
,  // measure 64
0001
1000
0001
1000
0001
1000
0001
1000
,  // measure 65
0002
0000
0203
0000
,  // measure 66
2300
0000
0000
0000
3001
0100
0001
0000
,  // measure 67
2000
0000
0000
3010
0010
0100
0001
1000
,  // measure 68
0002
0000
0000
1003
1000
0010
0100
0010
,  // measure 69
2000
0000
0000
3001
0001
0100
0010
1000
,  // measure 70
1000
0000
0001
0000
1000
0100
0010
0001
,  // measure 71
0100
0000
0010
1000
0010
0000
0100
0001
,  // measure 72
0100
0000
0001
1000
0001
0000
1000
0010
,  // measure 73
1000
0001
1000
0000
0001
1000
0001
0000
,  // measure 74
0001
0100
0001
0100
0010
1000
0010
1000
,  // measure 75
0020
0000
0130
0001
1000
0001
0100
0010
,  // measure 76
0200
0000
0310
1000
0001
1000
0100
1000
,  // measure 77
0020
0000
0130
0001
1000
0001
1000
0000
,  // measure 78
0100
0001
0100
0001
0100
0001
0100
0010
,  // measure 79
0200
0000
0301
0010
0002
0000
1003
0010
,  // measure 80
2000
0000
3001
0100
0002
0000
1003
0010
,  // measure 81
2000
0000
3001
0100
0020
0000
1030
0000
,  // measure 82
0001
1000
0001
1000
0001
0100
0001
0100
,  // measure 83
0001
0000
1000
0010
0020
0000
1030
0000
,  // measure 84
0001
0010
0001
1000
0100
1000
0001
0000
,  // measure 85
1000
0010
1000
0010
0100
0001
0100
0001
,  // measure 86
1000
0100
1000
0100
0010
0001
0010
0001
,  // measure 87
2000
0000
3010
0100
0200
0000
0301
0000
,  // measure 88
0010
0001
0100
0001
1000
0001
0100
0001
,  // measure 89
0020
0000
0031
0100
0200
0000
0310
1000
,  // measure 90
1000
0000
1010
0000
0010
0100
0010
0000
,  // measure 91
0001
0100
0001
0000
1000
0010
1000
0000
,  // measure 92
0001
0010
0001
0000
1000
0010
1000
0000
,  // measure 93
0001
0100
0001
0100
0010
0100
0010
0000
,  // measure 94
1000
0010
1000
0010
0100
0100
0100
0000
,  // measure 95
0001
0010
0001
0010
0100
1000
0100
1000
,  // measure 96
0001
0100
0001
0100
0010
1000
0010
1000
,  // measure 97
0001
0010
0001
0010
0100
1000
0100
1000
,  // measure 98
0001
0100
0010
0100
0001
1000
0100
0000
,  // measure 99
2000
0001
0001
0001
,  // measure 100
0000
0001
0001
0001
,  // measure 101
0000
0001
0001
0001
,  // measure 102
0000
0001
0001
0001
,  // measure 103
3000
0000
0000
0000
;

//---------------dance-single - ----------------
#NOTES:
     dance-single:
     :
     Easy:
     8:
     0.309800,0.513600,0.115351,0.784386,0.000000,282.000000,267.000000,15.000000,102.000000,0.000000,0.000000,0.309800,0.513600,0.115351,0.784386,0.000000,282.000000,267.000000,15.000000,102.000000,0.000000,0.000000:
0000
0000
0000
0000
,
0000
0000
0000
0000
,
0000
0000
0000
0000
,
0000
0000
0000
0000
,
0000
0000
0000
0000
,
0000
0000
0000
0000
,
0000
0000
0000
0000
,
0000
0000
0000
0000
,
0000
0000
0000
0000
,
0020
0000
0030
0001
,
0200
0300
1000
0100
,
0001
0000
1000
0000
,
0100
0000
0010
0000
,
0002
0000
0003
0010
,
0100
1000
0001
0100
,
0020
0000
0200
0000
,
0000
0330
0100
0002
,
2000
0000
3003
0010
,
0002
0000
2003
0000
,
3001
0000
0100
0000
,
0010
0000
1000
0010
,
0200
0000
0300
1000
,
0002
0000
0003
0001
,
1000
0000
0100
0000
,
0010
0000
0001
0000
,
0200
0000
0310
1000
,
0002
0000
0103
0010
,
2000
0000
3100
0010
,
0002
0000
0103
0010
,
2000
0100
0100
3100
,
0002
0100
0100
0103
,
2000
0010
0010
3010
,
0002
0010
0010
0013
,
0002
0000
2003
0000
,
3020
0000
0230
0000
,
0302
0000
0010
0000
0013
0000
0001
0100
,
0002
0000
2003
0000
,
3020
0030
0200
0300
,
0002
0003
2000
3000
,
0020
0030
0200
0300
,
0002
0003
1000
0001
,
0200
0000
0300
0001
,
0020
0030
0001
1000
,
0200
0000
0300
0001
,
2000
3000
0002
0003
,
0020
0000
0032
0000
,
0203
0000
2300
0000
,
3010
0001
0100
1000
,
0010
0110
0110
1001
,
0020
0000
0030
0000
,
0200
0000
0300
0000
,
0002
0000
0003
0000
,
2000
0000
3000
0000
,
1002
0000
1000
0003
,
2001
0000
0001
3000
,
0120
0000
0100
0030
,
0210
0000
0010
0300
,
0002
0103
2000
3100
,
0002
0013
2000
3010
,
0002
0013
0200
1300
,
2000
3100
0020
0031
,
1000
0001
0100
0010
,
1000
0001
0100
0010
,
1000
1000
0001
0001
,
1001
1001
1001
1001
,
0002
0000
0203
0000
,
2300
0000
3001
0001
,
0200
0000
0310
0001
,
0200
0000
1300
0010
,
0002
0000
2003
0000
,
3010
0100
0001
1000
,
0020
0000
0130
0001
,
0200
0000
0310
1000
,
1000
1000
0001
0001
,
0010
0100
0010
0100
,
0002
0103
1000
0100
,
2000
3100
0001
0100
,
0002
0103
0010
1000
,
2000
3010
0100
0001
,
0002
1003
2000
3010
,
0020
0130
0200
0310
,
0020
0030
0200
0300
,
0001
0010
0100
1000
,
0002
0003
2000
3000
,
0002
0003
2000
3000
,
0020
0030
0200
0300
,
0001
0010
0100
1000
,
0002
0003
2000
3000
,
0002
0003
2000
3000
,
0020
0030
0200
0300
,
1000
0100
0010
0001
,
2002
3003
2002
3003
,
0220
0330
0220
0330
,
1000
0100
1000
0100
,
0001
0100
0001
0100
,
0020
0030
0200
0300
,
0002
0003
2000
3000
,
0001
0010
0100
1000
,
0001
0010
0100
1000
,
0002
1000
1000
1000
,
0000
1000
1000
1000
,
0000
1000
1000
1000
,
0000
1000
1000
1003
;

//---------------dance-single - ----------------
#NOTES:
     dance-single:
     :
     Challenge:
     18:
     0.912920,1.303754,0.392193,0.330673,0.965103,831.000000,780.000000,51.000000,43.000000,44.000000,0.000000,0.912920,1.303754,0.392193,0.330673,0.965103,831.000000,780.000000,51.000000,43.000000,44.000000,0.000000:
0000
0000
0000
0000
,
0000
0000
0000
0000
,
0000
0000
0000
0000
,
0000
0000
0000
0000
,
0000
0000
0000
0000
,
0000
0000
0000
0000
,
0000
0000
0000
0000
,
0000
0000
0000
0000
,
0000
0000
0000
0000
,
0002
0000
0000
0000
0003
0000
1000
0001
,
0100
0000
0010
0000
1000
0001
0001
1000
,
0020
0000
1030
0001
0200
0000
0301
1000
,
0010
1100
0101
0011
,
2002
0000
0000
0000
0003
0000
3010
0100
,
0001
1100
0101
0011
,
2000
0000
0000
0000
0000
0000
3001
0100
0020
0000
0000
0000
0000
0000
0000
0000
,
2030
0000
3001
0110
,
2001
0000
0010
0000
3010
0000
0001
0100
,
0201
0310
1020
0130
,
0002
0203
2300
3200
,
0302
0023
0230
2300
,
3002
0000
0100
0000
0103
0000
1000
0010
,
2010
0000
0001
0000
3010
0000
0001
0100
,
0101
1010
1100
0011
,
1000
0001
0100
0010
1000
0001
1001
0000
,
1000
0000
0010
0000
0100
0000
0001
0000
1000
0010
1000
0010
0100
0001
0100
0001
,
1000
0000
0100
0000
0010
0000
0001
0000
1000
0100
1000
0100
0010
0001
0010
0001
,
0100
0000
0001
0000
1000
0000
0010
0000
0100
0001
0100
0001
1000
0010
1000
0010
,
0100
0000
0010
0000
1000
0000
0001
0000
0100
0010
0100
0010
1000
0001
1000
0001
,
1000
0100
1000
0000
0001
0100
0001
0000
1000
0010
1000
0001
0100
0001
1000
0001
,
1000
0010
1000
0000
0001
0100
0001
0000
0100
0001
0100
0010
1000
0010
0100
0001
,
0100
0001
0100
0000
0010
1000
0100
0000
1000
0001
0100
0001
1000
0010
1000
0100
,
1000
0010
1000
0000
0001
0100
0001
0000
1000
0010
0100
0001
0100
0010
1000
0000
,
0001
0100
0000
0000
MMMM
0000
0000
0000
0010
1000
0000
0000
MMMM
0000
0000
0000
,
0001
0010
0000
0000
MMMM
0000
0000
0000
0100
1000
0000
0000
MMMM
0000
0000
0000
,
0020
0000
0100
0000
0130
0000
0001
0100
,
0201
1300
1200
0301
,
1000
0010
0000
0000
MMMM
0000
0000
0000
0001
0100
0000
0000
MMMM
0000
0000
0000
,
0010
0100
0000
0000
MMMM
0000
0000
0000
1000
0100
0000
0000
MMMM
0000
0000
0000
,
0001
0010
0000
0000
MMMM
0000
0000
0000
0100
1000
0000
0000
MMMM
0000
0000
0000
,
0010
0100
0000
0000
MMMM
0000
0000
0000
1000
0100
0010
0001
1000
0100
0010
0001
,
1000
0010
0100
0010
0100
0010
1000
0001
0100
0001
0100
0001
,
1000
0001
0010
0001
0010
0001
1000
0001
0100
0001
0100
0001
,
1000
0010
0100
0001
0001
0100
0010
0100
0001
1000
1000
0001
,
0100
0010
1000
0001
0001
1000
0100
1000
0010
0100
0100
0010
,
2000
0000
3200
0000
,
0302
0000
0023
0000
,
0031
0100
0001
0100
0010
1000
0010
0000
0100
0001
1000
0001
1000
0010
1000
0000
,
0001
0010
0001
0010
0100
1000
0100
0000
1000
0010
1000
0010
0100
0001
0100
0000
,
1001
0000
0010
1000
0100
1000
0010
0100
,
0001
0000
0100
0010
1000
0010
1000
0001
,
0100
0000
0001
0010
0001
1000
0010
0100
,
0010
0000
1000
0001
0010
0001
0100
0001
,
1000
0000
0000
0010
1000
0010
0100
0001
0100
0010
1000
0010
,
0100
0000
0000
0001
0010
0001
1000
0100
1000
0001
0100
0001
,
0100
0000
0000
0010
1000
0010
0100
0001
0100
0010
1000
0010
,
1000
0000
0000
0010
0001
0100
0001
0100
0010
1000
0010
1000
,
0100
1000
0100
0100
1100
1000
0010
1000
,
1010
0010
0100
0010
0110
0100
0001
0100
,
0101
0100
0010
0100
0110
0010
1000
0010
,
1010
1000
0100
1000
1100
1000
0010
1000
,
0001
1000
0001
0000
1000
0010
1000
0000
0001
0100
0001
0000
1000
0100
1000
0000
,
0001
0010
0001
0000
1000
0010
1000
0000
0001
0100
0001
0000
1000
0010
1000
0000
,
0001
0010
0001
0010
0100
1000
0100
1000
0001
0100
0001
0100
0010
1000
0010
1000
,
0001
0100
0010
1000
0001
0010
0100
1000
0010
0100
0010
1000
0001
1000
0100
0010
,
0002
0000
0203
0000
,
2300
0000
3010
1001
,
1100
0000
0000
0000
0001
0000
0010
0000
0001
0100
0001
0100
0001
0000
1000
0000
,
1001
0000
0000
0000
0001
0000
0100
0000
0010
1000
0010
1000
0010
0000
0100
0000
,
0110
0000
0000
0000
0001
0000
1000
0000
0001
0100
0001
1000
0001
0000
1000
0000
,
1001
1000
1100
0000
0101
0001
1001
0000
,
0001
0100
0001
0100
0010
1000
0010
1000
0001
0010
0100
1000
0001
0000
0000
0000
,
1000
0100
1000
0100
0010
0001
0010
0001
1000
0010
0100
0001
1000
0000
0000
0000
,
0001
0100
0010
1000
0000
0000
1000
0001
0100
0010
0000
0000
,
1000
0010
1000
0010
0100
0001
0100
0001
1000
0010
0100
0001
0100
0010
0100
0001
,
1000
0000
0000
0000
0101
0000
0001
0000
1000
0001
0100
0001
0010
0001
0100
0001
,
1000
0000
0000
0000
1010
0000
0010
0000
0100
0001
0100
0010
0100
0001
0100
0010
,
1000
0000
0000
0000
0101
0000
0001
0000
1000
0010
1000
0100
1000
0010
1000
0001
,
0100
0000
0000
0000
0110
0000
0010
0000
1000
0100
1000
0001
1000
0010
1000
0001
,
1000
0000
0000
0000
0001
0000
0100
0010
0100
0000
0000
0000
0001
0000
1000
0000
,
1001
0000
0000
0000
1000
0000
0010
0100
0010
0000
0000
0000
1000
0000
0001
0000
,
0011
0000
0001
1000
1100
0000
0110
0010
,
0110
0100
0101
0000
1010
0010
0110
0000
,
2001
0000
0000
0010
3020
0000
0100
0000
,
2030
0000
0000
0001
3002
0000
0100
0000
,
0103
0010
1000
0001
0100
0010
1000
0001
,
0100
0001
0100
0001
1000
0010
1000
0010
0100
0001
0100
0001
1000
0000
0001
0000
,
0200
0000
0000
0001
0302
0000
0000
1000
,
2003
0000
0000
0010
3010
0000
1000
0000
,
0202
0000
0303
1001
2002
0000
3003
0010
,
0100
0010
0000
0000
1000
0001
0000
0000
1000
0100
0000
0000
0010
0001
0000
0000
,
1000
0010
1000
0010
0100
0001
0100
0001
1000
0001
1000
0001
1000
0000
0010
0000
,
0100
0001
0100
0001
1000
0001
1000
0001
0010
0001
0010
0001
0100
0000
0001
0000
,
1000
0010
1000
0100
1000
0010
1000
0000
0001
0100
0001
0010
0001
0100
0001
0000
,
1000
0001
1000
0001
0100
0010
0100
0010
1000
0100
0010
0001
1000
0000
0001
0000
,
1000
0100
1000
0000
0001
0100
0001
0000
1000
0010
1000
0000
0001
0010
0001
0000
,
1000
0001
0100
0000
0001
1000
0010
0000
1000
0010
0100
0000
0001
0100
0010
0000
,
1000
0100
1000
0100
1000
0010
1000
0010
0100
0001
0100
0001
0010
0001
0010
0000
,
1000
0010
0100
0001
1000
0001
0100
0010
1000
0001
0010
0001
1000
0100
0010
0000
,
0002
1000
1000
1000
,
0000
1000
1000
1000
,
0000
1000
1000
1000
,
0000
1000
1000
1003
;
