#VERSION:0.83;
#TITLE:n'pa pa BBQ;
#SUBTITLE:;
#ARTIST:YUC'e;
#TITLETRANSLIT:;
#SUBTITLETRANSLIT:;
#ARTISTTRANSLIT:;
#GENRE:;
#ORIGIN:;
#CREDIT:;
#BANNER:n'pa pa BBQ.png;
#BACKGROUND:n'pa pa BBQ-bg.png;
#PREVIEWVID:;
#JACKET:n'pa pa BBQ-jacket.png;
#CDIMAGE:;
#DISCIMAGE:;
#LYRICSPATH:;
#CDTITLE:;
#MUSIC:n'pa pa BBQ.ogg;
#OFFSET:-0.040000;
#SAMPLESTART:37.059994;
#SAMPLELENGTH:12.799999;
#SELECTABLE:YES;
#DISPLAYBPM:150.000000;
#BPMS:0.000=150.000,
216.000=75.000,
218.000=150.000;
#STOPS:91.750=1.600,
232.000=0.400;
#DELAYS:;
#WARPS:;
#TIMESIGNATURES:0.000=4=4;
#TICKCOUNTS:0.000=4;
#COMBOS:0.000=1;
#SPEEDS:0.000=1.000=0.000=0;
#SCROLLS:0.000=1.000;
#FAKES:;
#LABELS:0.000=Song Start;
#BGCHANGES:;
#KEYSOUNDS:;
#ATTACKS:
;

//---------------dance-single - ----------------
#NOTEDATA:;
#CHARTNAME:;
#STEPSTYPE:dance-single;
#DESCRIPTION:;
#CHARTSTYLE:;
#DIFFICULTY:Hard;
#METER:16;
#RADARVALUES:0.903242,0.975447,0.536674,0.335421,0.964336,754.000000,690.000000,64.000000,40.000000,0.000000,0.000000,0.000000,0.000000,0.000000,0.903242,0.975447,0.536674,0.335421,0.964336,754.000000,690.000000,64.000000,40.000000,0.000000,0.000000,0.000000,0.000000,0.000000;
#CREDIT:;
#DISPLAYBPM:150.000000;
#NOTES:
0000
0000
0000
0000
,
0000
0000
0000
0000
,
0000
0000
0000
0000
,
0000
0000
0000
0000
,
0001
0000
1000
0000
0010
0000
1000
0000
0101
0000
0000
0101
0000
0000
1000
0000
,
1100
0000
0010
0000
0100
0000
0001
0000
1001
0000
0000
1001
0000
0000
1000
0000
,
0010
0000
0100
0000
0010
0000
1000
0000
1100
0000
0000
1100
0000
0000
0001
1000
,
0001
0000
0100
0010
0100
0010
0100
0010
0100
0000
0001
1000
0001
1000
0100
0010
,
0001
0000
0100
0000
1000
0000
0100
0001
0000
0001
1000
0000
0010
0000
1000
0000
,
0010
0000
0001
0000
0010
0000
1000
0100
0000
0100
1000
0000
0010
0000
0100
0001
,
0010
0000
0001
0000
1000
0000
0010
0100
0000
0100
0010
0000
1000
0000
0100
0000
,
0010
0000
0001
0000
0100
0000
0010
0000
1000
0010
1000
0010
0100
0001
0100
0001
,
0100
0000
0010
0000
1000
0000
0100
0010
0000
0001
0100
0000
0010
0000
1000
0001
,
0100
0000
0010
0000
1000
0000
0100
0010
0000
0100
0010
0000
1000
0000
0100
0010
,
0001
0000
0000
0000
0000
0000
0100
0000
0000
0010
0000
0000
0100
0000
0000
0000
0000
0000
0001
0000
0000
1000
0000
0000
0001
0000
0000
0000
0000
0000
1000
0000
0001
0000
1000
0000
0001
0000
0000
0000
0000
0000
0100
0000
0000
0000
0000
0000
,
0010
0000
0000
0000
0000
0000
1000
0000
0010
0000
1000
0000
0010
0000
0000
0000
0000
0000
0001
0000
0100
0000
0001
0000
0100
0000
0000
0000
0000
0000
1000
0000
0000
0000
0000
0000
1000
0000
0000
0010
0000
0000
1000
0000
0000
0010
0000
0000
,
1000
0000
0010
0100
0001
0000
1010
0000
1010
0000
0010
0100
0001
0000
0202
0000
,
0000
0303
1000
0001
1000
0000
1001
0000
1001
0000
0010
0100
0001
0000
1000
0000
,
1100
0000
0100
1000
0001
0000
1001
0000
1001
0000
0010
0100
0001
0000
0101
0000
,
0001
1001
1001
1001
1001
0010
2020
3030
,
0110
0000
1000
0001
1000
0000
0001
1000
0001
0000
1001
0000
1001
0000
2200
0000
,
0000
3300
0001
0010
0001
0000
0100
0001
0100
0000
0110
0000
0110
0000
0110
0000
,
1001
0000
1001
0000
1001
0000
1001
0000
1000
0100
0010
0001
1000
0100
0010
0001
,
0100
0000
0010
1000
0010
0000
0100
0001
0100
0001
0100
0010
0000
0000
1001
0000
,
1001
0000
0100
0010
0100
0000
0010
1000
0010
1000
0010
0100
0000
0000
0101
0000
,
0101
0000
0010
1000
0100
0000
1000
0010
0100
0010
1000
0001
0000
0000
1001
0000
,
1000
0010
1000
0010
0100
0001
0100
0001
2000
0000
0000
3000
0020
0000
0000
0000
,
1030
0000
0001
0010
0100
0000
0010
0100
1000
0100
0010
0001
0000
0000
1000
0000
,
0101
0000
1000
0010
0100
0000
0010
1000
0100
1000
0010
0100
0000
0000
0101
0000
,
0010
0000
1000
0100
0010
0000
1000
0001
1000
0010
1000
0200
0000
0000
1300
0000
,
0202
0303
2020
3030
0220
0330
1001
0000
,
0020
0000
0000
0000
0000
0000
1030
0100
1000
0010
1000
0200
0000
0000
2300
0000
,
3010
0000
0100
0010
0100
0000
0001
0010
0100
0010
0001
1000
0000
0000
0001
0000
,
1001
0000
0001
0100
1000
0000
0010
0100
0001
0100
0010
0100
0000
0000
0001
0000
,
1000
0100
1000
0100
0010
0001
0010
0001
2000
0000
0000
0000
3002
0000
0000
0000
,
1003
0000
0001
0100
0001
0000
1000
0010
0100
0010
1000
0100
0000
1000
0010
0000
,
0101
0000
0001
0100
0001
0000
1000
0100
0010
0001
0100
0010
0000
1000
0001
0000
,
1100
0000
0001
0100
0010
0000
1000
0100
0010
0001
1000
0001
0000
1000
0001
0000
,
0100
0100
0100
0001
0001
0001
0010
0010
1000
1001
0000
0000
,
0002
0000
0100
0100
0000
0000
0103
0000
0020
0000
1000
1000
0000
0000
1030
0000
,
0001
0000
0100
0001
0100
0000
0010
0000
1000
0000
0100
0000
0010
0000
0001
0000
,
1000
0000
0010
1000
0010
0000
1000
0000
0001
0000
0100
0010
0100
0000
0001
0000
,
1000
0100
0010
0001
0100
0110
0110
0000
,
0020
0000
1000
1000
0000
0000
1030
0000
0002
0000
0100
0100
0000
0000
0103
0000
,
0010
0000
1000
0100
1000
0000
0010
0000
0100
0000
0001
0000
1000
0000
0010
0000
,
1000
0000
0100
0000
0010
0000
0001
0000
1000
0001
1000
0000
0001
0000
0100
0000
,
0020
0000
1030
0001
0200
0000
0301
1000
0002
0000
1003
0100
2000
0000
3000
0000
,
0110
0000
0001
1000
0001
0000
1001
0000
1000
0100
0010
0000
0001
0000
0101
0000
,
0001
0000
1000
0010
1000
0000
0001
0000
0010
0100
1000
0000
0001
0000
1000
0000
,
0010
0000
0100
0001
0100
0000
0101
0000
0100
0001
1000
0000
0100
0000
0110
0000
,
0010
0000
1000
0100
1000
0000
1010
0000
1000
0100
0010
0001
1000
0000
0000
0000
,
0100
0001
0100
0001
1000
0001
1000
0001
1000
0010
1000
0010
0100
0010
0100
0010
,
1000
0100
1000
0100
1000
0001
1000
0001
0100
0010
0100
0010
1000
0001
1000
0001
,
1000
0000
1001
0000
1001
0000
1001
0000
1000
0010
0100
0001
1000
0010
0100
0001
,
0000
0000
0100
0000
0100
0000
0100
0000
0010
0000
0000
1001
0000
0000
1000
0000
1000
0000
0000
0000
0002
0000
0000
0000
0103
0000
0000
0000
0020
0000
0000
0000
,
0130
0000
0000
0000
0000
0000
0000
0000
0000
0101
0000
0000
0000
0000
0000
0000
0000
0000
1001
0000
0000
0000
0000
0000
1000
0000
0000
0000
0000
0000
0001
0000
0100
0000
0001
0000
0100
0000
0000
0000
0000
0000
1000
0000
0001
0000
1000
0000
,
0001
1000
0010
0200
0000
0000
0010
0000
0310
0000
1000
0010
0100
0000
0001
0100
,
0010
1000
0010
0100
0000
0001
0100
0000
0010
0001
0010
0001
0100
0001
0100
0001
,
2000
3001
0000
0000
0000
0000
0000
0000
0000
0000
0000
0000
0110
0000
0000
0000
0000
0000
0001
0000
0000
0100
0000
0000
0001
0000
0000
0000
0000
0000
1000
0000
0000
0010
0000
0000
0100
0000
0000
0010
0000
0000
1000
0000
0000
0001
0000
0000
,
0000
1000
0100
0000
1000
0000
0001
0100
0010
0000
0100
0001
0100
0001
1000
0001
,
0000
1000
0010
0000
0100
0000
0001
1000
0100
0000
1000
0010
0100
0001
0100
0001
,
0000
1000
0010
0000
0002
0000
0000
0000
0203
0000
0000
0000
2300
0000
0000
0000
,
3020
0000
0000
0000
0130
0000
0001
1000
0010
0000
0001
1000
0001
0000
0000
1000
,
0000
0000
0100
0000
0010
0000
0001
0100
0010
0000
0100
0001
1000
0001
0100
0001
,
0000
1000
0010
0000
0101
0000
0100
0010
1000
0000
0010
0100
0001
0100
0001
1000
,
0000
0001
0010
0000
0100
0010
0100
0010
1000
0001
1000
0001
2000
0000
0000
0000
,
3002
0000
0000
0000
0103
0000
0010
1000
0010
0000
0100
0001
1000
0001
0100
0001
,
0000
0100
0010
0000
1000
0000
0001
0010
0001
0000
1000
0100
1000
0010
1000
0100
,
0000
1000
0010
0000
0100
0000
0001
1000
0001
0000
1000
0100
0010
0001
1000
0001
,
0000
1000
0010
0000
0100
0010
0100
0010
1000
0001
1000
0001
1000
0010
1000
0010
,
0100
2002
3003
0000
;

//---------------dance-double - ----------------
#NOTEDATA:;
#CHARTNAME:;
#STEPSTYPE:dance-double;
#DESCRIPTION:;
#CHARTSTYLE:;
#DIFFICULTY:Hard;
#METER:16;
#RADARVALUES:0.813397,0.975447,0.268337,0.209638,0.805011,679.000000,647.000000,32.000000,25.000000,0.000000,0.000000,0.000000,0.000000,0.000000,0.813397,0.975447,0.268337,0.209638,0.805011,679.000000,647.000000,32.000000,25.000000,0.000000,0.000000,0.000000,0.000000,0.000000;
#CREDIT:;
#DISPLAYBPM:150.000000;
#NOTES:
// measure 0
00000000
00000000
00000000
00000000
,  // measure 1
00000000
00000000
00000000
00000000
,  // measure 2
00000000
00000000
00000000
00000000
,  // measure 3
00000000
00000000
00000000
00000000
,  // measure 4
10000000
00000000
00100000
00000000
01000000
00000000
00001000
00000000
00011000
00000000
00000000
00010100
00000000
00000000
00010000
00000000
,  // measure 5
00000010
00000000
00001000
00000000
00000001
00000000
00001000
00000000
00001100
00000000
00000000
00010100
00000000
00000000
00010000
00000000
,  // measure 6
00001000
00000000
01000000
00000000
00100000
00000000
10000000
00000000
10010000
00000000
00000000
01010000
00000000
00000000
01000000
00000000
,  // measure 7
00002000
00000000
00000000
00003000
00010000
00000100
00010000
00000100
00002000
00000000
00000000
00000000
00003001
00000010
00000100
00001000
,  // measure 8
00000010
00000000
00001000
00000000
00000001
00000000
00001000
00000100
00000000
00000100
00010000
00000000
00001000
00000000
00100000
00000000
,  // measure 9
00010000
00000000
01000000
00000000
00100000
00000000
10000000
01000000
00000000
00100000
00010000
00000000
00100000
00000000
00001000
00000000
,  // measure 10
00010000
00000010
00001000
00000001
00000100
00000010
00010000
00001000
,  // measure 11
00100000
00000000
00010000
00000000
01000000
00000000
00100000
00000000
10000000
00010000
10000000
00010000
01000000
00100000
01000000
00100000
,  // measure 12
10000000
00000000
01000000
00000000
00100000
00000000
00001000
00010000
00000000
00010000
00001000
00000000
00010000
00000000
00000010
00000000
,  // measure 13
00001000
00000000
00000001
00000000
00000100
00000000
00000001
00001000
00000000
00001000
00000100
00000000
00010000
00000000
00001000
00000000
,  // measure 14
01000000
00000000
00000000
00100000
00000000
00000000
10000000
00000000
00000000
00100000
00000000
00000000
01000000
00000000
00000000
00010000
00100000
00010000
00100000
00000000
00000000
00001000
00000000
00000000
,  // measure 15
00010000
00000000
00000000
00000000
00000000
00000000
00000100
00000000
00010000
00000000
00000100
00000000
00010000
00000000
00000000
00000000
00000000
00000000
00001000
00000000
01000000
00000000
00001000
00000000
01000000
00000000
00000000
00000000
00000000
00000000
00100000
00000000
00000000
00000000
00000000
00000000
10000000
00000000
00000000
00010000
00000000
00000000
10000000
00000000
00000000
00010000
00000000
00000000
,  // measure 16
10000000
01000000
00001000
00010000
00000100
00001000
00000001
00002002
,  // measure 17
00003003
00001000
00000100
00010000
00002000
01000000
01003000
00000000
,  // measure 18
10100000
10100000
10010000
10010000
20000000
00010000
30010000
00210000
,  // measure 19
00000000
00001000
00302000
00010000
00020000
00033000
00011000
00000000
,  // measure 20
00010010
00000000
00000010
00001000
00000010
00000000
00001000
00000000
00000001
00000000
00001000
00000010
00001000
00000000
00000001
00000000
,  // measure 21
00001000
00000000
00000100
00001000
00000100
00000000
00010000
00000000
00001000
00000000
01000000
00000000
00100000
00000000
10000000
00000000
,  // measure 22
00010000
00100000
00010000
00100000
01000000
10000000
01000000
10000000
00100000
01000000
00100000
01000000
00010000
00100000
01000000
10000000
,  // measure 23
00000010
00000000
00010000
00001000
00010000
00000000
00001000
00000000
01000000
00010000
01000000
00010000
00000000
00000000
10000000
00000000
,  // measure 24
00100000
00000000
01000000
00010000
01000000
00000000
00010000
00000000
00100000
00001000
00100000
00001000
00000000
00000000
00010000
00000000
,  // measure 25
00000010
00000000
00001000
00000001
00001000
00000000
00000100
00000000
00010000
00000100
00010000
00000100
00000000
00000000
00010000
00000000
,  // measure 26
00001000
01000000
00001000
01000000
00010000
01000000
00010000
01000000
00100000
00000000
00000000
00000000
10010000
00000000
00000000
00000000
,  // measure 27
01000000
00000000
00100000
10000000
00100000
00000000
01000000
00000000
00001000
00100000
00001000
00100000
00000000
00000000
00001000
00000000
,  // measure 28
00010000
00000000
00000010
00001000
00000010
00000000
00001000
00000000
00000001
00000100
00000001
00000100
00000000
00000000
00000010
00000000
,  // measure 29
00001000
00000000
00000100
00001000
00000100
00000000
00010000
00000000
00000100
00010000
00001000
00010000
00000000
00000000
00001000
00000000
,  // measure 30
02000000
03200000
20300000
30010000
,  // measure 31
00110000
00000000
00100000
00000000
00110000
00000000
00100000
00000000
00001000
00010000
00001000
00010000
00000000
00000000
00000100
00000000
,  // measure 32
00001100
00000000
00001000
00000000
00001100
00000000
00001000
00000000
00000010
00001000
00000100
00000010
00000000
00000000
00000001
00000000
,  // measure 33
00000101
00000000
00000100
00000000
00000101
00000000
00000100
00000000
00000010
00001000
00000010
00001000
00000000
00000000
00000100
00000000
,  // measure 34
00001000
00000100
00001000
00000100
00010000
00000100
00010000
00000100
00020000
00000000
00000000
00000000
00032000
00000000
00000000
00000000
,  // measure 35
01003000
00000000
00100000
10000000
01000000
00000000
00100000
00000000
00010000
01000000
00010000
00100000
00000000
00000000
00001000
00000000
,  // measure 36
00010000
00000000
00000100
00001000
00000100
00000000
00001000
00000000
00000010
00000100
00000001
00001000
00000000
00000000
00000100
00000000
,  // measure 37
00010000
00000000
00001000
00100000
00001000
00000000
00100000
00000000
00010000
01000000
00100000
10000000
00000000
00000000
10010000
00000000
,  // measure 38
01000000
01000000
01000000
00010000
00010000
00010000
00100000
00100000
10000000
10010000
00000000
00000000
,  // measure 39
01000000
00000000
00100000
00010000
00000000
00000000
00100000
00000000
00001000
00000000
00010000
00000010
00000000
00000000
00000100
00000000
,  // measure 40
00000001
00000000
00001000
00000001
00000000
00001000
00000001
00000000
00000000
00000000
00001000
00000000
00000100
00000000
00010000
00000000
,  // measure 41
00001000
01000000
00100000
10000000
01000000
00100000
00001000
00010000
,  // measure 42
00000010
00001000
00000001
00001000
00000100
00010000
00011000
00000000
,  // measure 43
00100000
00000000
00010000
01000000
00000000
00000000
00100000
00000000
10000000
00000000
01000000
10000000
00000000
00000000
00100000
00000000
,  // measure 44
01000000
00000000
00001000
00010000
00000000
00001000
00010000
00000000
00001000
00000000
00010000
00000000
00000010
00000000
00000100
00000000
,  // measure 45
00000001
00001000
00000100
00010000
00001000
01000000
00100000
10000000
,  // measure 46
00100000
01000000
00001000
00010000
00000010
00000000
00001001
00000000
,  // measure 47
00000010
00000000
00001000
00000100
00001000
00000000
00000100
00000000
00010000
00001000
00010000
00000000
00001000
00000000
00100000
00010000
,  // measure 48
00100000
00000000
00010000
10000000
00100000
00000000
10000000
00000000
01000000
00100000
00010000
00000000
00100000
00000000
00001000
00000000
,  // measure 49
00010000
00000000
00000100
00001000
00000010
00000000
00000100
00000000
00000001
00001000
00000100
00000000
00001000
00000000
00000100
00000000
,  // measure 50
00010000
00000000
00001000
00100000
00010000
00000000
00100000
00000000
00001000
00000000
00000000
00000000
00001100
00000000
00000000
00000000
,  // measure 51
00000001
00000100
00000001
00000100
00000010
00001000
00000010
00001000
00000100
00010000
00000100
00010000
00001000
01000000
00001000
01000000
,  // measure 52
00010000
10000000
00010000
10000000
00010000
00100000
00010000
00100000
00001000
00010000
00001000
00010000
00000010
00001000
00000010
00001000
,  // measure 53
00000001
00000010
00000100
00001000
00000001
00001000
00000001
00001000
00000001
00000010
00000100
00001000
00000001
00001000
00000001
00001000
,  // measure 54
00000000
00000000
00000100
00000000
00010000
00000000
00001000
00000000
00100000
00000000
00000000
00010000
00000000
00000000
01000000
00000000
00200000
00000000
00000000
00000000
10300000
00000000
00000000
00000000
00020000
00000000
00000000
00000000
01030000
00000000
00000000
00000000
,  // measure 55
10010000
00000000
00000000
01000000
00000000
00000000
00010000
00000000
00100000
00000000
00001000
00000000
00010000
00000000
00000100
00000000
,  // measure 56
00001000
00000010
00001000
00000020
00000000
00000000
00000130
00000000
00000110
00000000
00000001
00000100
00000001
00000000
00001000
00000100
,  // measure 57
00001000
00000000
00000100
00010000
00000000
00000100
00010000
00000000
00001000
01000000
00001000
01000000
00010000
01000000
00010000
01000000
,  // measure 58
00200000
10300000
00000000
00000000
00000000
00000000
00000000
00000000
00000000
00000000
00000000
00000000
01100000
00000000
00000000
00000000
00000000
00000000
10000000
00000000
00000000
00010000
00000000
00000000
01000000
00000000
00000000
00000000
00000000
00000000
00010000
00000000
00000000
10000000
00000000
00000000
00010000
00000000
00000000
00100000
00000000
00000000
00010000
00000000
00000000
10000000
00000000
00000000
,  // measure 59
00000000
00010000
00100000
00000000
00001000
00000000
00010000
00000100
00010000
00000000
00000100
00001000
00000010
00001000
00000100
00001000
,  // measure 60
00000000
00000010
00000100
00000000
00000001
00000000
00000010
00000100
00001000
00000000
00000010
00000000
00001000
00000100
00010000
00000100
,  // measure 61
00000000
00010000
00001000
00000000
00200000
00000000
00000000
00000000
00302000
00000000
00000000
00000000
00023000
00000000
00000000
00000000
,  // measure 62
00030010
00000000
00000000
00000000
00001001
00000000
00000100
00001000
00000010
00000000
00001000
00000100
00010000
00001000
01000000
00010000
,  // measure 63
00000000
10000000
00100000
00000000
10000000
00000000
00010000
01000000
00010000
00000000
01000000
00010000
00100000
00001000
00010000
00000100
,  // measure 64
00000000
00001000
00000001
00000000
00001100
00000000
00000010
00001000
00000100
00000000
00000100
00010000
00001000
01000000
00010000
00100000
,  // measure 65
00000000
00010000
10000000
00000000
00100000
01000000
00100000
01000000
00010000
10000000
00010000
10000000
00200000
00000000
00000000
00000000
,  // measure 66
02300000
00000000
00000000
00000000
03001000
00000000
00010000
00000100
00010000
00000000
00001000
01000000
00001000
01000000
00100000
01000000
,  // measure 67
00000000
00000000
00010000
00000000
10000000
00000000
01000000
00100000
01000000
00000000
10000000
00100000
10000000
00100000
10000000
00010000
,  // measure 68
00000000
00000000
01000000
00000000
00001000
00000000
00010000
00000100
00010000
00000000
00000100
00000000
00001000
00000010
00000100
00000001
,  // measure 69
00000000
00001000
00000100
00000000
00010000
00000100
00010000
00000100
00010000
00001000
00010000
00001000
01000000
00001000
01000000
00001000
,  // measure 70
01000000
00022000
00033000
00000000
;

//---------------dance-double - ----------------
#NOTEDATA:;
#CHARTNAME:;
#STEPSTYPE:dance-double;
#DESCRIPTION:;
#CHARTSTYLE:;
#DIFFICULTY:Medium;
#METER:10;
#RADARVALUES:0.565425,0.650298,0.863710,0.276723,0.150940,472.000000,369.000000,103.000000,33.000000,0.000000,0.000000,0.000000,0.000000,0.000000,0.565425,0.650298,0.863710,0.276723,0.150940,472.000000,369.000000,103.000000,33.000000,0.000000,0.000000,0.000000,0.000000,0.000000;
#CREDIT:;
#DISPLAYBPM:150.000000;
#NOTES:
00000000
00000000
00000000
00000000
,
00000000
00000000
00000000
00000000
,
00000000
00000000
00000000
00000000
,
00000000
00000000
00000000
00000000
,
10000000
00000000
00010000
00000000
10000000
00000000
00010000
00000000
01000000
00000000
00000000
00001000
00000000
00000000
00010000
00000000
,
00000010
00000000
00000100
00000000
00000010
00000000
00000100
00000000
00001000
00000000
00000000
00000010
00000000
00000000
00010000
00000000
,
00001000
00000000
00010000
00000000
00001000
00000000
01000000
00000000
00100000
00000000
00000000
10000000
00000000
00000000
00010000
00000000
,
00200000
00301000
00020000
00030010
,
00001002
00000000
00000103
00000010
00001002
00000000
00000103
00000010
,
00001000
00000000
00000000
00000010
00000000
00000000
00000001
00000000
00000000
00000000
00001000
00000000
00000100
00000000
00010000
00000000
,
00001000
01000000
00010000
01000000
00100000
02000000
00000000
03001000
,
00100000
00010000
01000000
00200000
10000000
00300000
10100000
00000000
,
11000000
00000000
00100000
00010000
11000000
00000000
00100000
00001000
,
00010000
00000000
00000000
00010100
00000000
00000000
00001100
00000000
00000000
00000000
00001000
00000000
00000010
00000000
00000100
00000000
,
00000001
00000001
00001000
00001000
00000010
00002000
00000000
00003100
,
00001000
00000200
00010300
00002000
01003000
00200000
20300000
00000000
,
30010000
00100000
00010000
00100000
00010000
00010000
00000000
00101000
,
00000000
00010000
00010000
00010000
00022000
00000000
00033000
00000000
,
00000010
00001000
00000010
00001000
00000020
00000030
00000010
00000020
,
00000000
00001030
00000100
00000010
00000001
00000000
00001001
00000000
,
00000010
00000010
00000010
00000010
00001000
00000001
00000000
00001100
,
00000000
00000100
00000100
00000100
00010000
00000000
00011000
00000000
,
00100000
00000000
00100000
00000000
00100000
00000000
00100000
00000000
00100000
00000000
00100000
00000000
00200000
00000000
00000000
00300000
,
11000000
00000000
00000000
00000000
01010000
00000000
00000000
00000000
10100000
00000000
00000000
10100000
00000000
00000000
01100000
00000000
,
01100000
00000000
00000000
00000000
01010000
00000000
00000000
00000000
01001000
00000000
00000000
00011000
00000000
00000000
00011000
00000000
,
00011000
00000000
00000000
00000000
00010010
00000000
00000000
00000000
00001001
00000000
00000000
00001001
00000000
00000000
00001000
00000000
,
00001000
00000100
00010000
00001000
02000000
00000000
03100000
00000000
,
10010000
00000000
00000000
00000000
10010000
00000000
00000000
00000000
00101000
00000000
00000000
00101000
00000000
00000000
00010000
00000000
,
00010100
00000000
00000000
00000000
00010100
00000000
00000000
00000000
00001100
00000000
00000000
00000110
00000000
00000000
00001000
00000000
,
00001001
00000000
00000000
00000000
00001001
00000000
00000000
00000000
00001100
00000000
00000000
00000100
00000000
00000000
00010000
00000000
,
00001000
01000000
00010000
10000000
00010000
00000000
01100000
00000000
,
00200000
00000000
00300000
10010000
,
11000000
00000000
00000000
00000000
00110000
00000000
00000000
00000000
01010000
00000000
00000000
01001000
00000000
00000000
00010000
00000000
,
00011000
00000000
00000000
00000000
00011000
00000000
00000000
00000000
00010010
00000000
00000000
00001010
00000000
00000000
00001000
00000000
,
00000001
00000010
00000100
00001000
00000001
00000000
00001100
00000000
,
00011000
00000000
00000000
00000000
00011000
00000000
00000000
00000000
00101000
00000000
00000000
00101000
00000000
00000000
00100000
00000000
,
01010000
00000000
00000000
00000000
01010000
00000000
00000000
00000000
10100000
00000000
00000000
10100000
00000000
00000000
01000000
00000000
,
01010000
00000000
00000000
00000000
00110000
00000000
00000000
00000000
10010000
00000000
00000000
00010000
00000000
00000000
00100000
00000000
,
10000000
00010000
10000000
00010000
10000000
00010000
10000000
00000000
00000000
10010000
00000000
00000000
,
00010000
00000000
00000000
00010000
00000000
00000000
10000000
00000000
00010000
00000000
00000000
00010000
00000000
00000000
10000000
00000000
,
00100000
00000000
00000000
00100000
00000000
00000000
00100000
00000000
00000000
00000000
10000000
00000000
00100000
00000000
01000000
00000000
,
00010000
00100000
00010000
00100000
00001000
00010000
00000000
00000010
,
00001000
00000001
00001000
00000010
00000000
00001000
00001100
00000000
,
00010100
00000000
00000000
00000100
00000000
00000000
00010000
00000000
00001000
00000000
00000000
00001000
00000000
00000000
00010000
00000000
,
00000100
00000000
00000000
00010000
00000000
00000000
00001000
00000000
00000000
00000000
01000000
00000000
00010000
00000000
10000000
00000000
,
00010000
01000000
00100000
01000000
00100000
20000000
00000000
30010000
,
00020000
00230000
02300000
13000000
,
00100000
00100000
00100000
00100000
10000000
00010000
00000000
00011000
,
00000000
00010000
00010000
00010000
00011000
00000000
00001001
00000000
,
00000010
00000010
00000010
00000010
00000002
00000000
00001003
00002000
,
00000000
00003010
00001000
00000100
00000010
00000000
00001001
00000000
,
00001000
00001000
00001000
00001000
00000100
00010000
00000000
00011000
,
00000000
00100000
00100000
00100000
00110000
00000000
01010000
00000000
,
10000000
10000000
10000000
10000000
00010000
00010000
00010000
00010000
,
00000000
00000000
10010000
11000000
,
00110000
00000000
00001001
00001100
,
00000011
00000000
00001001
00001001
,
00001100
00000000
00000000
00000100
00000000
00000000
00010000
00000000
00001000
00000000
00100000
00000000
00010000
00000000
01000000
00000000
,
00200000
00300000
00000000
00000000
00000000
00000000
00000000
00000000
00000000
00000000
00000000
00000000
10010000
00000000
00000000
00000000
00000000
00000000
00000000
00000000
00000000
00000000
00000000
00000000
10010000
00000000
00000000
00000000
00000000
00000000
00000000
00000000
00000000
00000000
00000000
00000000
01100000
00000000
00000000
00000000
00000000
00000000
00000000
00000000
00000000
01100000
00000000
00000000
,
00000000
00000000
10000000
00000000
00010000
00000000
00000000
00000000
01010000
00000000
00000000
00000000
00110000
00000000
00000000
00100000
,
00000000
00000000
00001000
00000000
00010000
00000000
00000000
00000000
00010100
00000000
00000000
00000000
00010010
00000000
00000000
00000010
,
00000000
00001000
00000200
00000000
00002300
00000000
00023000
00000000
,
01030000
00000000
00000000
00000000
10100000
00000000
00000000
00000000
10100000
00000000
00000000
00000000
01000000
00000000
00000000
00001000
,
00000000
00000000
00010000
00000000
00010100
00000000
00000000
00000000
00010100
00000000
00000000
00000000
00000100
00000000
00000000
00001000
,
00000000
00000000
00000001
00000000
00000011
00000000
00000000
00000000
00000011
00000000
00000000
00000000
00001001
00000000
00000000
00001000
,
00000000
00000100
00010000
00001000
01000000
00100000
10000000
00000000
,
00100000
00000000
00000000
00000000
01001000
00000000
00000000
00000000
01001000
00000000
00000000
00000000
00011000
00000000
00000000
00010000
,
00000000
00000000
00000010
00000000
00001010
00000000
00000000
00000000
00001010
00000000
00000000
00000000
00001001
00000000
00000000
00001000
,
00000000
00000000
00000100
00000000
00010100
00000000
00000000
00000000
00010100
00000000
00000000
00000000
00101000
00000000
00000000
00100000
,
00000000
00010000
02000000
00000000
03200000
00000000
20300000
00000000
,
30010000
00022000
00033000
00000000
;

//---------------dance-double - ----------------
#NOTEDATA:;
#CHARTNAME:;
#STEPSTYPE:dance-double;
#DESCRIPTION:;
#CHARTSTYLE:;
#DIFFICULTY:Easy;
#METER:6;
#RADARVALUES:0.386932,0.532062,0.729541,0.427662,0.000000,323.000000,236.000000,87.000000,51.000000,0.000000,0.000000,0.000000,0.000000,0.000000,0.386932,0.532062,0.729541,0.427662,0.000000,323.000000,236.000000,87.000000,51.000000,0.000000,0.000000,0.000000,0.000000,0.000000;
#CREDIT:;
#DISPLAYBPM:150.000000;
#NOTES:
00000000
00000000
00000000
00000000
,
00000000
00000000
00000000
00000000
,
00000000
00000000
00000000
00000000
,
00000000
00000000
00000000
00000000
,
10010000
10010000
10010000
00000000
,
00011000
00011000
00011000
00000000
,
00001001
00001001
00001001
00000000
,
00000020
00000030
00000200
00000300
,
00000002
00000103
00002000
00003100
,
00000001
00000010
00000100
00010000
,
00002000
01003000
00020000
01030000
,
10000000
01000000
00100000
00010000
,
00002000
01003000
00020000
01030000
,
00100000
00001000
01000000
00010000
,
10000000
00100000
00010000
00100000
,
10000000
10000000
10000000
10010000
,
00100000
00100000
02200000
03300000
,
00010000
00010000
00022000
00033000
,
00000100
00000100
00000220
00000330
,
00000001
00000001
00002002
00003003
,
00000110
00000110
00002002
00003003
,
00011000
00011000
02200000
03300000
,
10010000
10010000
10010000
10010000
,
00000000
00100000
10010000
10010000
,
01000000
01000000
10010000
10010000
,
00100000
00100000
00011000
00011000
,
00000100
00000100
00002002
00003003
,
00000001
00000001
00000110
00000110
,
00001000
00001000
00000110
00000110
,
00010000
00010000
00011000
00011000
,
00001000
00100000
01000000
00010000
,
10010000
10010000
00100000
01000000
,
10010000
10010000
01000000
00100000
,
00011000
00011000
00010000
00001000
,
00010000
00000010
00000100
00001000
,
00001001
00001001
00001000
00000100
,
00011000
00011000
00010000
01000000
,
10010000
10010000
01100000
01100000
,
20000000
30020000
02030000
03100000
,
20000000
30000000
00020000
00030000
,
00002000
00003000
00000002
00000003
,
00000001
00000010
00000100
00001000
,
00000010
00000010
00002002
00003003
,
00000002
00000003
00002000
00003000
,
00020000
00030000
20000000
30000000
,
10000000
00100000
01000000
00010000
,
00100000
10000000
20020000
30030000
,
01100000
01100000
02200000
03300000
,
00011000
00011000
00022000
00033000
,
00000110
00000110
00000220
00000330
,
00011000
00011000
00022000
00033000
,
00100000
00010000
01000000
10010000
,
00100000
00001000
00000100
00001001
,
00000010
00000010
00001100
00110000
,
00000000
00000000
00100000
00100000
,
20000000
30000000
00100000
00100000
,
00020000
00030000
00001000
00000100
,
00000010
00000001
00000100
00001000
,
00011000
00100000
00100000
00010000
,
01000000
00100000
00100000
10000000
,
01000000
00100000
00010000
00000100
,
00001000
00000010
00000001
00000010
,
00001001
00000110
00000110
00010100
,
00101000
01100000
01100000
10010000
,
10010000
01100000
01100000
00011000
,
00011000
00000110
00000110
00002002
,
00003003
00000000
00000010
00000000
00000010
00000000
00000001
00000100
,
00000001
00000000
00000010
00000000
00000010
00000000
00001000
00000100
,
00001000
00000010
00000010
00000001
,
00000100
00010000
00001000
01000000
,
00001000
00022000
00033000
00000000
;

//---------------dance-single - ----------------
#NOTEDATA:;
#CHARTNAME:;
#STEPSTYPE:dance-single;
#DESCRIPTION:;
#CHARTSTYLE:;
#DIFFICULTY:Medium;
#METER:10;
#RADARVALUES:0.559435,0.650298,0.830168,0.259952,0.150940,467.000000,368.000000,99.000000,31.000000,0.000000,0.000000,0.000000,0.000000,0.000000,0.559435,0.650298,0.830168,0.259952,0.150940,467.000000,368.000000,99.000000,31.000000,0.000000,0.000000,0.000000,0.000000,0.000000;
#CREDIT:;
#DISPLAYBPM:150.000000;
#NOTES:
0000
0000
0000
0000
,
0000
0000
0000
0000
,
0000
0000
0000
0000
,
0000
0000
0000
0000
,
1000
0000
0001
0000
1000
0000
0001
0000
0100
0000
0000
1000
0000
0000
0001
0000
,
0010
0000
0100
0000
0010
0000
0100
0000
1000
0000
0000
0010
0000
0000
0001
0000
,
1000
0000
0001
0000
1000
0000
0100
0000
0010
0000
0000
1000
0000
0000
0001
0000
,
0020
1030
0002
1003
,
1001
0000
0100
0010
1001
0000
0100
0010
,
1000
0000
0000
0001
0000
0000
0100
0000
0000
0000
0001
0000
1000
0000
0001
0000
,
1000
0100
1000
0010
0100
0002
0000
1003
,
0010
0100
0001
2000
0001
3000
1001
0000
,
1100
0000
0010
0100
1001
0000
0010
1000
,
0001
0000
0000
1001
0000
0000
1001
0000
0000
0000
0100
0000
0010
0000
1000
0000
,
0001
0001
1000
1000
0010
2000
0000
3100
,
0010
0002
0103
0020
1030
0002
2000
0003
,
3001
0010
0001
0010
0001
0001
0000
1001
,
0000
1000
1000
1000
2002
0000
3003
0000
,
0010
0100
0010
0100
0020
0030
0010
0020
,
0000
0031
0100
0010
1000
0000
1001
0000
,
0100
0100
0100
0100
0001
1000
0000
1001
,
0000
0010
0010
0010
1000
0000
1001
0000
,
0010
0000
0010
0000
0010
0000
0010
0000
0010
0000
0010
0000
0020
0000
0000
0030
,
1100
0000
0000
0000
0101
0000
0000
0000
1010
0000
0000
1010
0000
0000
0110
0000
,
0110
0000
0000
0000
0101
0000
0000
0000
1001
0000
0000
0011
0000
0000
0011
0000
,
0011
0000
0000
0000
0101
0000
0000
0000
0110
0000
0000
0110
0000
0000
1001
0000
,
1000
0100
0010
0001
0200
0000
0310
0000
,
1001
0000
0000
0000
1001
0000
0000
0000
1010
0000
0000
1010
0000
0000
0001
0000
,
0101
0000
0000
0000
0101
0000
0000
0000
0110
0000
0000
0110
0000
0000
1000
0000
,
1001
0000
0000
0000
1001
0000
0000
0000
0011
0000
0000
0100
0000
0000
0001
0000
,
1000
0001
0100
0001
1000
0000
1001
0000
,
0020
0000
0030
1001
,
1100
0000
0000
0000
0011
0000
0000
0000
0101
0000
0000
0101
0000
0000
1000
0000
,
0001
0000
0000
0000
1001
0000
0000
0000
0101
0000
0000
0100
0000
0000
0010
0000
,
0100
0001
1000
0010
0100
0000
1001
0000
,
0110
0000
0000
0000
0110
0000
0000
0000
1010
0000
0000
1010
0000
0000
0010
0000
,
0100
0000
0000
0000
0101
0000
0000
0000
1010
0000
0000
1010
0000
0000
0001
0000
,
1001
0000
0000
0000
0011
0000
0000
0000
1001
0000
0000
0001
0000
0000
0010
0000
,
0001
1000
0001
1000
0001
1000
0001
0000
0000
1001
0000
0000
,
0001
0000
0000
0001
0000
0000
1000
0000
0001
0000
0000
0001
0000
0000
1000
0000
,
0010
0000
0000
0010
0000
0000
0010
0000
0000
0000
1000
0000
0010
0000
0100
0000
,
0001
0010
0001
0010
0001
0100
0000
0010
,
1000
0001
1000
0010
0000
0100
0110
0000
,
1001
0000
0000
1000
0000
0000
0001
0000
1001
0000
0000
0001
0000
0000
1000
0000
,
0010
0000
0000
0100
0000
0000
0001
0000
0000
0000
0100
0000
0001
0000
1000
0000
,
0001
0100
0010
0100
0010
2000
0000
3001
,
0002
0023
0230
1300
,
0010
0010
0010
0010
1000
0001
0000
1001
,
0000
0001
0001
0001
1001
0000
0110
0000
,
0100
0100
0100
0100
0200
0300
0100
0200
,
0300
0010
1000
0100
1000
0000
1001
0000
,
0010
0010
0010
0010
0001
0100
0000
1001
,
0000
0010
0010
0010
0011
0000
0101
0000
,
1000
1000
1000
1000
0001
0001
0001
0001
,
0000
0000
1001
1100
,
0011
0000
1001
0011
,
0100
0000
1001
1001
,
0110
0000
0000
1000
0000
0000
0001
0000
1000
0000
0010
0000
0100
0000
0000
0000
,
0020
0030
0000
0000
0000
0000
0000
0000
0000
0000
0000
0000
1001
0000
0000
0000
0000
0000
0000
0000
0000
0000
0000
0000
1001
0000
0000
0000
0000
0000
0000
0000
0000
0000
0000
0000
0110
0000
0000
0000
0000
0000
0000
0000
0000
0110
0000
0000
,
0000
0000
1000
0000
0001
0000
0000
0000
0101
0000
0000
0000
0011
0000
0000
0010
,
0000
0000
1000
0000
0001
0000
0000
0000
0101
0000
0000
0000
1001
0000
0000
1000
,
0000
0001
0200
0000
0320
0000
2030
0000
,
3001
0000
0000
0000
1010
0000
0000
0000
1010
0000
0000
0000
0100
0000
0000
0001
,
0000
0000
1000
0000
1000
0000
0000
0000
0010
0000
0000
0000
1000
0000
0000
0001
,
0000
0000
0100
0000
0110
0000
0000
0000
0110
0000
0000
0000
1001
0000
0000
0001
,
0000
0100
0010
1000
0010
0100
0001
0000
,
0010
0000
0000
0000
0101
0000
0000
0000
0101
0000
0000
0000
1001
0000
0000
0001
,
0000
0000
0100
0000
0110
0000
0000
0000
0110
0000
0000
0000
1001
0000
0000
1000
,
0000
0000
0010
0000
0110
0000
0000
0000
1001
0000
0000
0000
0110
0000
0000
0010
,
0000
0001
0200
0000
0320
0000
2030
0000
,
3001
2002
3003
0000
;

//---------------dance-single - ----------------
#NOTEDATA:;
#CHARTNAME:;
#STEPSTYPE:dance-single;
#DESCRIPTION:;
#CHARTSTYLE:;
#DIFFICULTY:Easy;
#METER:6;
#RADARVALUES:0.389328,0.413826,0.737927,0.410891,0.000000,325.000000,237.000000,88.000000,49.000000,0.000000,0.000000,0.000000,0.000000,0.000000,0.389328,0.413826,0.737927,0.410891,0.000000,325.000000,237.000000,88.000000,49.000000,0.000000,0.000000,0.000000,0.000000,0.000000;
#CREDIT:;
#DISPLAYBPM:150.000000;
#NOTES:
0000
0000
0000
0000
,
0000
0000
0000
0000
,
0000
0000
0000
0000
,
0000
0000
0000
0000
,
1001
1001
1001
0000
,
0110
0110
0110
0000
,
1001
1001
1001
0000
,
0020
0030
0200
0300
,
0002
0103
2000
3100
,
0001
0010
0100
1000
,
0002
0103
2000
3100
,
0001
0010
0100
1000
,
0002
0103
2000
3100
,
0010
1000
0100
0001
,
1000
0010
0001
0010
,
1000
1000
1000
1001
,
0010
0010
0220
0330
,
0001
0001
2002
3003
,
0100
0100
0220
0330
,
1000
1000
2002
3003
,
0110
0110
2002
3003
,
1001
1001
0220
0330
,
1001
1001
1001
1001
,
0000
0010
1001
1001
,
0100
0100
1001
1001
,
0010
0010
1001
1001
,
0100
0100
2002
3003
,
0001
0001
0110
0110
,
1000
1000
0110
0110
,
0001
0001
0110
1001
,
0010
0010
0100
1001
,
0110
0110
0001
0100
,
0110
0110
1000
0100
,
1001
1001
0010
0001
,
1001
0010
0100
1000
,
1001
1001
1000
0100
,
0001
1001
0001
0100
,
1000
1001
0110
0110
,
2000
3002
0203
0310
,
2000
3000
0002
0003
,
2000
3000
0002
0003
,
0001
0010
0100
1000
,
0010
0010
2002
3003
,
0002
0003
2000
3000
,
0002
0003
2000
3000
,
1000
0010
0100
0001
,
0010
1000
2002
3003
,
0110
0110
0220
0330
,
1001
1001
2002
3003
,
0110
1001
0220
0330
,
1001
0110
2002
3003
,
0010
0001
0100
1001
,
0010
1000
0100
1001
,
0010
0010
1100
0011
,
0000
0000
0010
0010
,
2000
3000
0010
0010
,
0002
0003
1000
0100
,
0010
0001
0100
0010
,
1001
0110
0110
1001
,
0100
0010
0010
1001
,
0100
0110
0110
1001
,
0010
1000
0100
0010
,
1001
0010
0010
1001
,
0110
0100
0100
1001
,
0110
0010
0110
1000
,
1001
0100
0110
0001
,
1001
0000
0010
0000
0010
0000
0001
1000
,
0001
0000
0010
0000
0010
0000
1000
0001
,
1000
0010
0001
0100
,
1000
0010
0001
0100
,
1001
2002
3003
0000
;

//---------------dance-single - ----------------
#NOTEDATA:;
#CHARTNAME:;
#STEPSTYPE:dance-single;
#DESCRIPTION:;
#CHARTSTYLE:;
#DIFFICULTY:Beginner;
#METER:4;
#RADARVALUES:0.220420,0.266031,0.125783,0.050313,0.000000,184.000000,169.000000,15.000000,6.000000,0.000000,0.000000,0.000000,0.000000,0.000000,0.220420,0.266031,0.125783,0.050313,0.000000,184.000000,169.000000,15.000000,6.000000,0.000000,0.000000,0.000000,0.000000,0.000000;
#CREDIT:;
#DISPLAYBPM:150.000000;
#NOTES:
0000
0000
0000
0000
,
0000
0000
0000
0000
,
0000
0000
0000
0000
,
0000
0000
0000
0000
,
0010
0000
0010
0000
,
0001
0000
0001
0000
,
0100
0000
0100
0000
,
1000
0000
1000
0000
,
0010
0000
0010
0000
,
0100
0000
0100
0000
,
0001
0001
0001
0000
,
1000
1000
1000
0000
,
0010
0000
0010
0000
,
0100
0000
0100
0000
,
1000
1000
1000
0000
,
0001
0001
0001
0000
,
0100
0100
0100
0000
,
0010
0010
0010
0000
,
0100
0100
0100
0000
,
0010
0010
0010
0000
,
1000
1000
1000
0000
,
0001
0001
0001
0000
,
0100
0100
0100
0100
,
0000
0000
1001
0000
,
0010
0000
1001
0000
,
0100
0000
1001
0000
,
0010
0010
0010
0000
,
1000
0000
1001
0000
,
0001
0000
1001
0000
,
1000
0000
1001
0000
,
0010
0010
0010
0000
,
0100
0000
1001
0000
,
0100
0000
1001
0000
,
0010
0000
1001
0000
,
0010
0010
0010
0000
,
1000
0000
0110
0000
,
0001
0000
0110
0000
,
1000
0000
1000
0000
,
0002
0000
0003
0000
,
0010
0000
0001
0000
,
0100
0000
1000
0000
,
0010
0010
0010
0000
,
0100
0100
0100
0000
,
0010
0000
1000
0000
,
0100
0000
0001
0000
,
0100
0100
0100
0000
,
0010
0010
0010
0000
,
1000
1000
2000
3000
,
0001
0001
0002
0003
,
0100
0100
0200
0300
,
0010
0010
0020
0030
,
1000
0001
1000
0000
,
0001
1000
0001
0000
,
0100
0100
0100
0100
,
0000
0000
0010
0010
,
1001
0000
0100
0100
,
1001
0000
0010
0000
,
0001
0000
0100
0000
,
1001
1001
0000
0010
,
0000
0100
0000
1000
,
0000
0001
0000
1000
,
0000
0001
0001
0001
,
0000
0100
0100
0100
,
0000
0010
0010
0010
,
0000
1000
1000
1000
,
0000
0001
0001
0001
,
0000
1000
0001
1000
,
0000
0001
1000
0001
,
0000
0010
0010
0010
,
0000
0100
0000
0010
,
0010
0020
0030
0000
;
