#TITLE:Yum Yum Sweetie;
#SUBTITLE:;
#ARTIST:t+pazolite;
#TITLETRANSLIT:;
#SUBTITLETRANSLIT:;
#ARTISTTRANSLIT:;
#GENRE:;
#CREDIT:;
#BANNER:Yum Yum Sweetie.png;
#BACKGROUND:Yum Yum Sweetie-bg.png;
#LYRICSPATH:;
#CDTITLE:;
#MUSIC:Yum Yum Sweetie.ogg;
#OFFSET:0.000000;
#SAMPLESTART:11.636364;
#SAMPLELENGTH:11.636364;
#SELECTABLE:YES;
#BPMS:0.000000=165.000000
;
#STOPS:
;
#BGCHANGES:;
#KEYSOUNDS:;
#ATTACKS:;

//---------------dance-double - ----------------
#NOTES:
     dance-double:
     :
     Hard:
     15:
     0.772793,0.907524,0.268896,0.332165,0.814596,684.000000,650.000000,34.000000,42.000000,0.000000,0.000000,0.772793,0.907524,0.268896,0.332165,0.814596,684.000000,650.000000,34.000000,42.000000,0.000000,0.000000:
00000000
00000000
00000000
00000000
,
00000000
00000000
00000000
00000000
,
00000000
00000000
00000000
00000000
,
00000000
00000000
00000000
00000000
,
10100000
00000000
00000000
01010000
00000000
00000000
10000000
01000000
00100000
00010000
00000000
00100000
00000000
00001000
00010000
00001000
,
00010000
00000000
00000000
00010100
00000000
00000000
00000100
00001000
00000010
00000100
00000000
00000001
00001000
00000000
00000010
00000000
,
00001010
00000000
00000000
00001010
00000000
00000000
00010000
00000000
00011000
00000000
00000000
00011000
00000000
00000000
00000000
00000000
,
00010000
00001000
00010000
00001000
00100000
00010000
00100000
00010000
10000000
01000000
00100000
00010000
10000000
00000000
00000000
00000000
,
00100000
00000000
10000000
00000000
00010000
00100000
00000000
00100000
00000000
00000000
00100000
00000000
00001000
00000000
00010000
00000000
,
00000100
00001000
00000000
00001000
00000000
00000010
00000100
00000000
00000002
00000000
00000000
00000000
00001003
00000000
00000000
00000000
,
00001000
00000000
00000100
00000000
00010000
00000100
00000000
00010000
00000000
00000000
00001000
00000000
00100000
00010000
00100000
00010000
,
00100000
00000000
00000000
10010000
00000000
00010000
01000000
00000000
02200000
00000000
00000000
00000000
03300000
00000000
00000000
00000000
,
10000000
00000000
00010000
00000000
00100000
00010000
00000000
00010000
00000000
00000000
00100000
00000000
00001000
00000000
00010000
00000000
,
00000100
00001000
00000000
00001000
00000000
00000010
00001000
00000000
00000200
00000000
00000000
00000000
00000310
00000000
00001000
00000000
,
00000001
00000000
00001000
00000000
00000100
00010000
00000000
00010000
00000000
00001000
00000000
00100000
00010000
00000000
01000000
00000000
,
00010000
00000000
00010000
00000000
10000000
00100000
00000000
10200000
00000000
00000000
01300000
00000000
00010000
00000000
10000000
00000000
,
00100000
00000000
00100000
00000000
01000000
00010000
00000000
00010000
00000000
00100000
00000000
00001000
00010000
00001000
00010000
00000000
,
00000100
00000000
00000100
00000000
00001000
00000001
00000000
00000001
00000000
00001000
00000000
00000010
00000100
00000000
00000001
00000000
,
00001000
00000000
00000100
00000000
00010000
00000100
00000000
00000100
00000000
00010000
00000000
00001000
00010000
00001000
00010000
00001000
,
00100000
00000000
00100000
00000000
00010000
01000000
00000000
00100000
10000000
00000000
01000000
00000000
00100000
00000000
00010000
00000000
,
10000000
00000000
10000000
00000000
00100000
01000000
00000000
01000000
00000000
00010000
00000000
00100000
00010000
10000000
00010000
00100000
,
00010000
00000000
01000000
00000000
00010000
00100000
00000000
00001000
00000000
00010000
00000000
00000100
00001000
00000000
00000001
00000000
,
00001000
00000000
00000100
00000000
00010000
00000100
00000000
00000100
00010000
00000000
00001000
00000000
00100000
00010000
00000000
00010000
,
10000000
00010000
01000000
00001000
00010000
00000100
00001000
00000001
,
00000101
00000000
00000001
00000000
00001000
00000001
00000000
00000001
00000000
00001000
00000000
00000100
00001000
00000100
00001000
00000010
,
00001000
00000000
00000100
00000000
00010000
00001000
00000000
00001000
00000000
00100000
00010000
01000000
00010000
00000000
00100000
00000000
,
00010000
00000000
00010000
00000000
10000000
01000000
00000000
00100000
00000000
00010000
01000000
00000000
00010000
00100000
00001000
00000000
,
00010000
00000000
00000010
00000000
00001000
00000100
00000000
00000001
00001000
00000000
00000010
00001000
00000100
00000000
00010000
00000000
,
00001000
00000000
00001000
00000000
00100000
00010000
00000000
01000000
00000000
10000000
00000000
00000000
20020000
00000000
30030000
00000000
,
10000000
00000000
00100000
00000000
01000000
00001000
00000000
00001000
00000000
00010000
00001000
00000000
00022000
00000000
00033000
00000000
,
00010000
00000000
00001000
00000000
00000100
00000010
00000000
00000001
00000000
00000010
00000000
00000100
00001000
00000000
00000100
00000000
,
00001100
00000000
00000000
00000000
,
00020000
00000000
00000000
00000000
01030000
00100000
10000000
00010000
,
00200000
00000000
00000000
00000000
00301000
00010000
00001000
00100000
,
00002000
00000000
00000000
00013000
00001000
00010000
00001000
00100000
00001000
00100000
00010000
01000000
,
00200000
00000000
00000000
00000000
10300000
01000000
00100000
00010000
,
00200000
00000000
00000000
00000000
00301000
00010000
00000010
00000100
,
00000020
00000000
00001000
00000000
00001030
00000100
00001000
00000100
,
00010000
00011000
00101000
01010000
,
10010000
00000000
00000000
00000000
00100000
10000000
01000000
00010000
,
00000000
00000000
00100000
00001000
00100000
00000000
00001000
00000000
00010000
00000000
00000100
00000000
00001000
00000000
00000001
00000000
,
00001000
00000100
00010000
00000020
00000000
00000000
00010030
00000000
,
00000000
00000000
00001000
00010000
00001000
00000000
00100000
00000000
00010000
00000000
00000000
01000000
00000000
00000000
10000000
00000000
,
00100000
00000000
00000000
01100000
00000000
00000000
00010000
00000000
20000000
00000000
00000000
00000000
30010000
00000000
00000000
00000000
,
00100000
00000000
00001000
00010000
00001000
00000000
00010000
00000000
00000100
00000000
00001000
00000000
00000001
00000000
00001000
00000000
,
00000100
00000010
00000001
00000200
00000000
00000000
00010300
00000000
,
00100000
00000000
00010000
00000000
01010000
00000000
00010000
00000000
10000000
00000000
00100000
10000000
01000000
00000000
00100000
00000000
,
00020000
02030000
23000000
30200000
,
00301000
00000000
00010000
00000100
00010000
00000000
00000100
00000000
00001000
00000000
00000100
00000000
00000010
00000000
00000000
00000000
,
00010000
00000100
00010000
00002000
00000000
00000000
00103000
00000000
,
00000000
00000000
00010000
01000000
00010000
00000000
10000000
00000000
00010000
00000000
00000000
00000000
10000000
00000000
00010000
00000000
,
10000000
00010000
10000000
00010000
01000000
00100000
01000000
00100000
10000000
00010000
10000000
00010000
01000000
00000000
00000000
00000000
,
00100000
10000000
01000000
00100000
00001000
00000000
00011000
00000000
,
00010000
00000100
00001000
00000020
00000000
00000100
00000130
00000000
,
00000001
00000000
00001000
00000000
00000100
00000000
00010000
00000000
00001000
00000000
00010000
00001000
00010000
00000000
00001000
00000000
,
00200000
00320000
02030000
23000000
,
30100000
00000000
00100000
00000000
01000000
00010000
00000000
00010000
00000000
00100000
00000000
00001000
00010000
00001000
00010000
00000000
,
00000100
00000000
00000100
00000000
00001000
00000001
00000000
00000001
00000000
00001000
00000000
00000010
00000100
00000000
00000001
00000000
,
00001000
00000000
00000100
00000000
00001000
00000100
00000000
00000100
00010000
00000000
00001000
00000000
00001000
00100000
00000000
00100000
,
00020000
00000000
00000000
00000000
02030000
00000000
00000000
00000000
03100000
01000000
00100000
00000000
10000000
00000000
00010000
00000000
,
00100000
00000000
10000000
00000000
00010000
00100000
00000000
00100000
00000000
00000000
00100000
00000000
00001000
00000000
00010000
00000000
,
00000100
00001000
00000000
00001000
00000000
00000010
00000100
00000000
00000002
00000000
00000000
00000000
00001003
00000000
00000000
00000000
,
00001000
00000000
00000100
00000000
00010000
00000100
00000000
00010000
00000000
00000000
00001000
00000000
00100000
00010000
00100000
00010000
,
00100000
00000000
00000000
10010000
00000000
00010000
01000000
00000000
02200000
00000000
00000000
00000000
03300000
00000000
00000000
00000000
,
10000000
00000000
00010000
00000000
00100000
00010000
00000000
00010000
00000000
00000000
00100000
00000000
00001000
00000000
00010000
00000000
,
00000100
00001000
00000000
00001000
00000000
00000010
00001000
00000000
00000200
00000000
00000000
00000000
00000310
00000000
00001000
00000000
,
00000001
00000000
00001000
00000000
00000100
00010000
00000000
00010000
00000000
00001000
00000000
00100000
00010000
00000000
01000000
00000000
,
00010000
00000000
00010000
00000000
10000000
00100000
00000000
10000000
00100000
10000000
00100000
01000000
00010000
01000000
00010000
00000000
,
10000000
00000000
00010000
00100000
00010000
00000000
10000000
00000000
00100000
00000000
01000000
00010000
01000000
00000000
00001000
00000000
,
00010000
00000000
00001000
00010000
00001000
00000000
00010000
00000000
00000200
00000000
00001000
00000000
00001300
00000000
00000100
00000000
,
00001000
00000000
00000001
00000100
00000001
00000000
00001000
00000000
00000010
00000000
00001000
00000100
00001000
00000000
00000100
00000000
,
00010000
00000000
00000000
00001000
00000000
00000000
00100000
00000000
00220000
00000000
00000000
00000000
00330000
00000000
00000000
00000000
,
01000000
00000000
00100000
00000000
10000000
01000000
00000000
01000000
00000000
01000000
10000000
00000000
00100000
00000000
01000000
00000000
,
00010000
00100000
00000000
00100000
00000000
00100000
00001000
00000000
00010000
00000000
00000100
00000000
00001000
00000000
00000001
00000000
,
00001000
00000000
00000010
00000000
00001000
00000100
00000000
00000100
00000000
00010000
00000000
00001000
00010000
00000000
00001000
00000000
,
00100000
00010000
01000000
00000000
00100000
10000000
00000000
20200000
00000000
00000000
00000000
00000000
30300000
00000000
00000000
00000000
,
01010000
00000000
00000000
01010000
00000000
00000000
10000000
00010000
01000000
00010000
00000000
00100000
00000000
00001000
00010000
00000000
,
00011000
00000000
00000000
00011000
00000000
00000000
00010000
00000000
00000100
00001000
00000000
00000010
00001000
00000000
00000001
00000000
,
00001001
00000000
00000000
00001001
00000000
00000000
00000010
00001000
00000100
00001000
00000000
00000010
00000000
00001000
00000100
00000000
,
00010100
00000000
00000000
00010100
00000000
00000000
00010000
00000000
00001000
00010000
00001000
00010000
00001000
00000000
01000000
00000000
,
00010000
00000000
01000000
00100000
10000000
00000000
00010000
00000000
00100000
00000000
00001000
00010000
00001000
00000000
00010000
00000000
,
00000100
00000000
00001000
00000010
00000100
00000000
00000001
00000000
00000100
00000000
00000010
00001000
00000010
00000000
00001000
00000000
,
00000100
00000000
00010000
00000100
00010000
00000000
00001000
00000000
00100000
00000000
00010000
00100000
00010000
00000000
01000000
00000000
,
00100000
10000000
00100000
10000000
00010000
00100000
00010000
00100000
00001000
00010000
00001000
00010000
00000100
00001000
00000010
00000000
,
00002002
00000000
00003003
00002000
,
00013000
00000000
00000000
00000000
;

//---------------dance-single - ----------------
#NOTES:
     dance-single:
     :
     Hard:
     15:
     0.794260,0.806688,0.197718,0.260987,0.798779,703.000000,678.000000,25.000000,33.000000,0.000000,0.000000,0.794260,0.806688,0.197718,0.260987,0.798779,703.000000,678.000000,25.000000,33.000000,0.000000,0.000000:
0000
0000
0000
0000
,
0000
0000
0000
0000
,
0000
0000
0000
0000
,
0000
0000
0000
0000
,
1000
0000
0100
0001
0100
0000
1000
0000
0010
0000
1000
0001
1000
0000
0010
0000
,
0100
0000
0001
0010
0001
0000
0100
0000
0010
0000
1000
0100
1000
0000
0010
0000
,
0100
0000
0001
0000
1000
0000
0010
0000
1000
0001
1000
0000
0001
1000
0001
0000
,
0100
0010
0001
1000
0100
0010
0001
1000
,
1001
0000
0001
0000
0001
0100
0000
0100
0000
0000
0010
0000
1000
0000
0100
0000
,
0010
0001
0000
0001
0000
0001
0100
0000
0020
0000
0000
0000
0130
0000
0000
0000
,
0001
0000
0100
0000
0010
1000
0000
1000
0000
1000
0001
0000
0100
0010
0100
0010
,
1000
0000
0000
1001
0000
0001
0100
0000
0220
0000
0000
0000
0000
0000
0330
0000
,
1001
0000
0010
0000
0001
0100
0000
0100
0000
0000
0010
0000
1000
0000
0100
0000
,
0010
0001
0000
0001
0000
0001
1000
0000
0020
0000
0100
0000
0130
0000
0001
0000
,
1000
0000
0100
0000
1000
0010
0000
0010
0000
0100
0000
0100
0001
0000
1000
0000
,
0001
0000
0001
0000
0100
0010
0000
0020
0000
0000
0000
0000
1030
0000
0000
0000
,
0001
0000
1000
0000
0001
0010
0000
0010
0000
0001
0000
0001
1000
0000
1000
0000
,
0001
0000
0001
0000
1000
0010
0000
0010
0000
1000
0000
1000
0001
0000
0100
0000
,
0010
0000
0010
0000
1000
0001
0000
0001
0000
0100
0000
0100
0010
0000
0100
0000
,
0001
0000
0001
0000
0001
0100
0000
0100
0000
0010
1000
0010
1000
0000
0001
0000
,
1000
0000
0100
0000
1000
0001
0000
0001
0000
0001
0000
1000
0010
1000
0010
0000
,
1000
0000
1000
0000
0001
0100
0000
0100
0000
0001
0100
0001
0100
0000
0010
0000
,
1000
0001
1001
0000
1000
0010
1010
0000
,
0010
0000
1000
0000
0100
0000
0010
0000
0001
1000
0001
0000
0100
0000
0100
0000
,
0001
0000
1000
0000
0010
1000
0000
0001
0000
0001
0000
0001
0100
0001
0100
0001
,
0100
0000
0010
0000
1000
0001
0000
0001
0000
1000
0001
1000
0001
0000
0100
0000
,
0010
0000
0010
0000
1000
0010
0000
0010
0000
0000
1000
0000
0001
1000
0001
1000
,
0001
0000
0001
0000
0100
0001
0000
1000
0001
0000
0100
0000
1000
0000
0010
0000
,
1000
0000
0001
0000
1000
0100
0000
0100
0000
1000
0000
0000
2002
0000
3003
0000
,
0010
0000
0100
0000
0001
0010
0000
0010
0000
1001
0000
0000
2002
0000
3003
0000
,
0010
0000
0100
0000
1001
0000
0000
1000
0000
0001
0000
0100
0010
0000
1000
0000
,
1001
0000
0000
0000
,
0020
0000
0000
0000
1030
0100
0010
0001
,
0200
0000
0000
0000
0301
0010
0100
1000
,
0002
0000
0000
1003
0010
1000
0001
0100
0001
1000
0010
0100
,
0002
0000
0000
0000
0103
0010
1000
0001
,
0200
0000
0010
0000
0310
1000
0010
0100
,
0002
0000
0010
0000
0013
0001
0100
0010
,
2000
3002
0023
0230
,
2300
0000
0000
0000
3001
0100
0010
1000
,
0001
0000
1000
0010
1000
0000
0001
0000
1000
0000
0010
0000
0100
0000
0001
0000
,
1000
0000
0100
0000
0100
0000
2000
0000
0000
0000
3001
0100
0001
0100
0001
0000
,
0100
0000
0010
0100
0010
0000
1000
0000
0001
0000
0000
0010
0000
0000
0001
0000
,
1000
0000
1000
0010
0000
0010
1000
0000
0002
0000
1000
0000
1003
0000
0000
0000
,
0100
0000
0010
0100
0010
0000
1000
0000
0001
0000
1000
0000
0010
0000
0100
0000
,
0010
0000
1000
0000
0001
0000
2000
0000
0000
0000
3010
0100
0010
0100
0010
0000
,
1000
0000
0001
0100
0001
0000
1000
0000
0010
0000
0100
0010
0100
0000
0001
0000
,
1000
0010
0100
0001
1000
0001
1001
0000
,
0010
0000
1000
0100
1000
0000
0010
0000
0100
0000
0001
0000
1000
0000
0001
0000
,
0100
0010
1000
0002
0000
0000
0103
0000
,
0010
0000
1000
0100
1000
0000
0010
0000
0100
0000
0000
0000
1000
0000
0010
0000
,
1000
0100
1000
0100
1000
0100
1000
0000
0001
0100
0001
0100
0010
0000
1000
0000
,
0001
0000
1000
0100
1000
0000
0001
0000
1000
0000
0100
0000
0010
0000
0001
0000
,
1000
0000
0001
1000
0001
0000
2000
0000
0000
0000
3001
1000
0001
1000
0001
0000
,
0001
0000
1000
0010
1000
0000
0010
0000
0010
0000
0100
0001
0100
0000
0010
0000
,
1000
0010
0100
0001
1000
0100
0010
0001
,
1000
0000
1000
0000
0001
0100
0000
0100
0000
0010
0000
1000
0001
1000
0001
1000
,
0001
0000
0001
0000
0100
0010
0000
0010
0000
1000
0010
1000
0001
0000
0100
0000
,
0010
0000
0010
0000
1000
0001
0000
0001
1000
0000
0010
0000
0100
0001
0000
0001
,
1000
0000
0001
0100
0001
0000
1000
0010
1000
0010
1000
0000
0001
0000
0100
0000
,
0010
0000
1000
0000
0001
0100
0000
0010
0000
0000
0010
0100
0001
0000
1000
0000
,
0010
0100
0000
0001
0000
0001
1000
0000
0020
0000
0000
0000
0030
0000
0000
0000
,
1000
0000
0001
0000
0100
0010
0000
0010
0000
0000
0001
1000
0001
1000
0001
0000
,
1000
0000
0000
0001
0000
1000
0010
0000
0020
0000
0000
0000
0030
0000
0000
0000
,
0001
0000
0100
0000
0010
1000
0000
1000
0000
0000
0001
1000
0010
0000
1000
0000
,
0001
0100
0000
0100
0000
1000
0001
0000
0200
0000
0000
0000
0310
0000
1000
0000
,
0001
0000
0010
0000
1000
0001
0000
0100
0000
0001
0000
1000
0100
0000
0010
0000
,
0001
0000
0001
0000
1000
0010
0000
0100
0001
0100
0001
0100
0001
0100
0001
0000
,
1000
0000
0010
0000
1000
0100
0000
0100
0000
0000
0001
0000
1000
0000
0001
0000
,
0100
0000
0000
0010
0000
0010
0100
0000
0001
0000
1000
0000
0001
0000
0000
0000
,
1000
0000
0010
0000
0100
0010
0000
0010
0000
0000
1000
0000
0001
0000
0100
0000
,
0101
0000
0000
0101
0000
0000
1000
0000
2002
0000
0000
0000
3003
0000
0000
0000
,
0010
0000
1000
0000
0100
1000
0000
1000
0000
0000
1000
0010
1000
0000
0001
0000
,
0100
0000
0000
0100
0000
0100
0010
0000
2000
0000
0001
0000
3001
0000
0100
0000
,
0010
0000
0100
0000
0001
1000
0000
1000
0000
0010
0000
1000
0100
0000
1000
0000
,
0001
0000
0010
0000
0001
0100
0000
0100
0010
0100
0010
0100
0010
0000
1000
0000
,
1001
0000
0000
1001
0000
0000
0010
1000
0100
1000
0000
0010
0000
1000
0010
0000
,
0110
0000
0000
0110
0000
0000
0001
1000
0001
1000
0000
0010
0100
0000
0001
0000
,
1001
0000
0000
1001
0000
0000
1000
0100
1000
0010
0000
1000
0000
0001
0100
0000
,
0101
0000
0000
0101
0000
0000
0100
0000
0010
1000
0010
1000
0010
0000
0100
0000
,
0001
0000
0010
0001
0010
0000
0001
0000
1000
0000
0010
1000
0010
0000
0100
0000
,
0001
0000
1000
0010
1000
0000
0001
0000
1000
0000
0010
0100
0010
0000
1000
0000
,
0001
0000
0010
0000
0001
0000
0100
0000
0001
1000
0001
1000
0001
1000
0001
0000
,
1000
0000
0010
0000
0100
0000
0001
0000
1000
0010
1000
0010
1000
0010
0100
0000
,
0202
0000
0300
1003
,
1001
0000
0000
0000
;

//---------------dance-double - ----------------
#NOTES:
     dance-double:
     :
     Medium:
     12:
     0.526494,0.571404,0.181900,0.324257,0.221444,466.000000,443.000000,23.000000,41.000000,0.000000,0.000000,0.526494,0.571404,0.181900,0.324257,0.221444,466.000000,443.000000,23.000000,41.000000,0.000000,0.000000:
// measure 0
00000000
00000000
00000000
00000000
,  // measure 1
00000000
00000000
00000000
00000000
,  // measure 2
00000000
00000000
00000000
00000000
,  // measure 3
00000000
00000000
00000000
00000000
,  // measure 4
00100000
00000000
00000000
00100000
00000000
00000000
10000000
00000000
00010000
00000000
00100000
00000000
00010000
00000000
00100000
00000000
,  // measure 5
00001000
00000000
00000000
00001000
00000000
00000000
00010000
00000000
00000100
00000000
00001000
00000000
00000100
00000000
00010000
00000000
,  // measure 6
00000100
00000000
00000000
00000100
00000000
00000000
00000000
00000000
00000010
00000000
00000000
00000010
00000000
00000000
00000000
00000000
,  // measure 7
00001000
00000100
00001000
00000010
00001000
00000001
00000100
00000100
,  // measure 8
00000000
00000000
00000010
00000000
00001000
00000010
00000000
00000010
00000000
00000000
00001000
00000000
00000100
00000000
00010000
00000000
,  // measure 9
00001000
00000000
00000000
00001000
00000000
00000000
00020000
00000000
00002000
00000000
00000000
00000000
00033000
00000000
00000000
00000000
,  // measure 10
00000000
00000000
00010000
00000000
00001000
00100000
00000000
00100000
00000000
00000000
00010000
00000000
01000000
00000000
00100000
00000000
,  // measure 11
10000000
00000000
00000000
10000000
00000000
00000000
00000000
00000000
20020000
00000000
00000000
00000000
00000000
00000000
30030000
00000000
,  // measure 12
10000000
00000000
00010000
00000000
10000000
00100000
00000000
00100000
00000000
00000000
01000000
00000000
00010000
00000000
00100000
00000000
,  // measure 13
00010000
00000000
00000000
00010000
00000000
00000000
00000000
00000000
00220000
00000000
00000000
00000000
00330000
00000000
00100000
00000000
,  // measure 14
00001000
00000000
00010000
00000000
00000100
00000000
00000000
00001000
00000000
00001000
00000000
00000000
00000010
00000000
00001000
00000000
,  // measure 15
00000001
00000000
00000001
00000000
00000001
00000100
00000000
00000020
00000000
00000000
00000000
00000000
00001030
00000000
00000000
00000000
,  // measure 16
00000001
00000100
00000010
00000000
00001000
00000100
00010000
00000000
,  // measure 17
00001000
00100000
00010000
00000000
01000000
00100000
10000000
00010000
,  // measure 18
10000000
00100000
01000000
00000000
01000000
00010000
00100000
00000000
,  // measure 19
00100000
00001000
00010000
00000000
00001000
00010000
00001000
00010000
,  // measure 20
00001000
00010000
00000100
00000000
00000100
00001000
00000010
00000000
,  // measure 21
00000010
00001000
00000001
00000000
00000001
00001000
00000100
00001000
,  // measure 22
00000001
00001000
00000100
00000000
00000100
00010000
00001000
00000000
,  // measure 23
00200000
00320000
02030000
03200000
,  // measure 24
10300000
00000000
00100000
00000000
10000000
00000000
00000000
00010000
00000000
01000000
00000000
00000000
00010000
00000000
00100000
00000000
,  // measure 25
00001000
00000000
00010000
00000000
00001000
00000000
00000000
00010000
00000000
00000000
00000000
00000000
00001000
00000000
00010000
00000000
,  // measure 26
00000010
00000000
00001000
00000000
00000100
00000000
00000000
00001000
00000000
00000010
00000000
00000000
00000100
00000000
00000001
00000000
,  // measure 27
00001000
00000000
00000100
00000000
00010000
00000000
00000000
00001000
00000000
00010000
00000000
00000000
00001000
00000000
00100000
00000000
,  // measure 28
00010000
00000000
01000000
00000000
00100000
00000000
00000000
00100000
00000000
00000000
00000000
00000000
10010000
00000000
00000000
00000000
,  // measure 29
00100000
00000000
00001000
00000000
00010000
00000000
00000000
00010000
00000000
00000000
00000000
00000000
00011000
00000000
00000000
00000000
,  // measure 30
00010000
00000100
00001000
00000000
00000100
00010000
00001000
00000000
,  // measure 31
00011000
00000000
00000000
00000000
,  // measure 32
00200000
00000000
00000000
00301000
,  // measure 33
00020000
00000000
00000000
00030010
,  // measure 34
00001000
00000100
00000010
00000001
,  // measure 35
00000200
00000000
00000000
00000310
,  // measure 36
00002000
00000000
00000000
00003100
,  // measure 37
00020000
00000000
00000000
00031000
,  // measure 38
00100000
00010000
01000000
10000000
,  // measure 39
00200000
00000000
00000000
00000000
10300000
00100000
01000000
00010000
,  // measure 40
10000000
00010000
00010000
01000000
00010000
00100000
00010000
01000000
,  // measure 41
00010000
10000000
00010000
00200000
00000000
00000000
00301000
00000000
,  // measure 42
00000000
00000000
00010000
00000000
00000100
00000000
00001000
00000000
00000100
00000000
00000000
00010000
00000000
00000000
00000010
00000000
,  // measure 43
00001000
00000000
00000000
00000001
00000000
00000000
00001000
00000000
00000001
00000000
00000000
00000000
00001100
00000000
00000000
00000000
,  // measure 44
00000000
00000010
00001000
00000100
00001000
00000010
00001000
00000001
,  // measure 45
00001000
00000100
00001000
00000020
00000000
00000000
00010030
00000000
,  // measure 46
00001000
00010000
00001000
00100000
00001000
00000000
00100000
00010000
,  // measure 47
01000000
10000000
00100000
00010000
,  // measure 48
02000000
03000000
00200000
00300000
,  // measure 49
10000000
00010000
00100000
00001000
,  // measure 50
00010000
00000010
00001000
00000001
,  // measure 51
00000100
00000100
00000110
00001001
,  // measure 52
00000001
00000100
00000001
00001000
00000001
00000010
00000001
00001000
,  // measure 53
00000100
00001000
00000100
00020000
00000000
00000000
00031000
00000000
,  // measure 54
00010000
00001000
00100000
00001000
00100000
00100000
00010000
00010000
,  // measure 55
01000000
00100000
01100000
10010000
,  // measure 56
00100000
10000000
01000000
00000000
10000000
00100000
01000000
00000000
,  // measure 57
00001000
00010000
00001000
00000000
00010000
00000100
00001000
00000000
,  // measure 58
00000010
00000010
00001010
00000000
00000100
00000100
00000101
00000000
,  // measure 59
00000020
00002030
00003200
00020300
,  // measure 60
00031000
00000000
00100000
00000000
00001000
00100000
00000000
00100000
00000000
00000000
00010000
00000000
01000000
00000000
00100000
00000000
,  // measure 61
10000000
00000000
00000000
00010000
00000000
00000000
10000000
00000000
20020000
00000000
00000000
00000000
30030000
00000000
00000000
00000000
,  // measure 62
10000000
00000000
00100000
00000000
01000000
00000000
00000000
01000000
00000000
00000000
00010000
00000000
00100000
00000000
00001000
00000000
,  // measure 63
00010000
00000000
00000000
00010000
00000000
00000000
00000000
00000000
00022000
00000000
00000000
00000000
00033000
00000000
00000000
00000000
,  // measure 64
00010000
00000000
00000100
00000000
00010000
00000000
00000000
00000100
00000000
00000000
00001000
00000000
00000100
00000000
00001000
00000000
,  // measure 65
00000010
00000000
00000000
00000010
00000000
00000000
00000000
00000000
00000220
00000000
00000000
00000000
00000330
00000000
00000000
00000000
,  // measure 66
00000001
00000000
00000100
00000000
00000001
00000000
00000000
00001000
00000000
00000100
00000000
00000000
00001000
00000000
00000100
00000000
,  // measure 67
00010000
00000000
00010000
00000000
00010000
00001000
00000000
00022000
00000000
00000000
00000000
00000000
00033000
00000000
00000000
00000000
,  // measure 68
00001000
00000000
00100000
00000000
00010000
00000000
00000000
00010000
00000000
00000000
01000000
00000000
00100000
00000000
10000000
00000000
,  // measure 69
00100000
00000000
00000000
00100000
00000000
00000000
01000000
00000000
02200000
00000000
00000000
00000000
03300000
00000000
00000000
00000000
,  // measure 70
10000000
00000000
00100000
00000000
01000000
00000000
00000000
00010000
00000000
00000000
00010000
00000000
00100000
00000000
00001000
00000000
,  // measure 71
00010000
00000000
00000000
00010000
00000000
00000000
00001000
00000000
00022000
00000000
00000000
00000000
00033000
00000000
00000000
00000000
,  // measure 72
00010000
00000000
00000100
00000000
00001000
00000000
00000000
00000010
00000000
00000000
00000010
00000000
00001000
00000000
00000100
00000000
,  // measure 73
00000010
00000000
00000000
00000010
00000000
00000000
00000001
00000000
00000202
00000000
00000000
00000000
00000303
00000000
00000010
00000000
,  // measure 74
00001000
00000000
00000100
00000000
00001000
00000100
00000000
00000100
00000000
00001000
00000000
00000100
00010000
00000000
00001000
00000000
,  // measure 75
00010000
00000000
00010000
00000000
00001000
00000000
00000000
00011000
00000000
00000000
00000000
00000000
00000000
00000000
00000000
00000000
,  // measure 76
00100000
00000000
00000000
00100000
00000000
00000000
00010000
00000000
01000000
00000000
00000000
00000000
00100000
00000000
10000000
00000000
,  // measure 77
01000000
00000000
00000000
01000000
00000000
00000000
10000000
00000000
00100000
00000000
00000000
00000000
01000000
00000000
00010000
00000000
,  // measure 78
00100000
00000000
00000000
00100000
00000000
00000000
00001000
00000000
00010000
00000000
00000000
00000000
00000100
00000000
00001000
00000000
,  // measure 79
00000001
00000000
00000000
00000001
00000000
00000000
00001000
00000000
00000100
00000000
00000100
00000000
00001000
00000000
00001000
00000000
,  // measure 80
00000001
00000100
00000001
00000100
00000010
00001000
00000100
00010000
,  // measure 81
00001000
00010000
00001000
00010000
00001000
01000000
00010000
10000000
,  // measure 82
00100000
00000000
00000000
01100000
00000000
00000000
00000000
00000000
01000000
00000000
00000000
01100000
00000000
00000000
00000000
00000000
,  // measure 83
10000000
00100000
01000000
00010000
00100000
00001000
00010000
00000100
,  // measure 84
00020000
00000000
00000000
00031000
,  // measure 85
00011000
00000000
00000000
00000000
;

//---------------dance-single - ----------------
#NOTES:
     dance-single:
     :
     Medium:
     12:
     0.541181,0.638628,0.173991,0.332165,0.241215,479.000000,457.000000,22.000000,42.000000,0.000000,0.000000,0.541181,0.638628,0.173991,0.332165,0.241215,479.000000,457.000000,22.000000,42.000000,0.000000,0.000000:
0000
0000
0000
0000
,
0000
0000
0000
0000
,
0000
0000
0000
0000
,
0000
0000
0000
0000
,
0010
0000
0000
0010
0000
0000
1000
0000
0001
0000
0010
0000
0001
0000
0010
0000
,
0001
0000
0000
0001
0000
0000
1000
0000
0001
0000
0100
0000
0001
0000
1000
0000
,
0010
0000
0000
0010
0000
0000
0000
0000
0100
0000
0000
0100
0000
0000
0000
0000
,
1000
0100
1000
0010
1000
0001
1000
0010
,
0000
0000
1000
0000
0001
1000
0000
1000
0000
0000
0010
0000
1000
0000
0001
0000
,
1000
0000
0000
1000
0000
0000
0002
0000
2000
0000
0000
0000
3003
0000
0000
0000
,
1000
0000
0001
0000
1000
0010
0000
0010
0000
0000
1000
0000
0010
0000
0100
0000
,
0001
0000
0000
0001
0000
0000
0000
0000
2002
0000
0000
0000
0000
0000
3003
0000
,
1000
0000
0001
0000
1000
0010
0000
0010
0000
0000
0100
0000
0001
0000
0010
0000
,
0001
0000
0000
0001
0000
0000
0000
0000
0022
0000
0000
0000
0033
0000
0010
0000
,
0001
0000
1000
0000
0100
0000
0000
1000
0000
1000
0000
0000
0010
0000
0100
0000
,
0001
0000
0001
0000
0001
0100
0000
0020
0000
0000
0000
0000
1030
0000
0000
0000
,
0001
0100
0010
0000
0010
1000
0001
0000
,
0001
1000
0010
0000
0100
0010
1000
0001
,
1000
0010
0100
0000
0100
0001
0010
0000
,
0010
0001
0100
0000
0001
0100
0010
1000
,
0001
0100
0010
0000
1000
0010
0100
0000
,
0001
1000
0010
0000
0010
1000
0100
1000
,
0001
1000
0100
0000
0100
1000
0001
0000
,
0020
0032
0203
0320
,
1030
0000
0010
0000
1000
0000
0000
0001
0000
0100
0000
0000
0001
0000
0010
0000
,
0001
0000
1000
0000
0001
0000
0000
0001
0000
0000
0000
0000
1000
0000
0001
0000
,
0100
0000
0010
0000
0100
0000
0000
0001
0000
1000
0000
0000
0010
0000
1000
0000
,
0001
0000
0001
0000
0001
0000
0000
1000
0000
0001
0000
0000
0100
0000
0010
0000
,
1000
0000
0001
0000
1000
0010
0000
0100
0000
0001
0000
0000
1001
0000
0000
0000
,
0010
0000
0001
0000
1000
0010
0000
0100
0000
0001
0000
0000
1001
0000
0000
0000
,
0001
0100
0010
0000
1000
0010
0100
0000
,
1001
0000
0000
0000
,
0020
0000
0000
0000
0000
1030
0001
1000
,
0200
0000
0000
0000
0000
0301
1000
0001
,
0100
0010
1000
0001
,
0020
0000
0000
0031
,
0200
0000
0000
0000
0000
0310
1000
0010
,
0200
0000
0000
0000
0000
0301
1000
0001
,
0010
0001
0100
1000
,
0020
0000
0000
0000
1030
0010
0100
0001
,
1000
0001
0001
0100
0001
0010
0001
0100
,
0001
1000
0001
0020
0000
0000
0130
0000
,
0000
0000
1000
0000
0001
0000
0100
0000
0001
0000
0000
1000
0000
0000
0001
0000
,
0100
0000
0000
0001
0000
0000
1000
0000
0001
0000
0000
0000
1001
0000
0000
0000
,
0000
0010
1000
0100
1000
0010
1000
0001
,
1000
0100
1000
0020
0000
0000
0130
0000
,
0001
1000
0001
0010
0001
0000
0010
0001
,
0100
1000
0010
0001
,
0200
0300
0020
0030
,
1000
0001
0010
0001
,
1000
0010
0100
0001
,
1000
1000
1001
0110
,
1000
0100
1000
0001
1000
0010
1000
0100
,
1000
0100
0010
0002
0000
0000
1003
0000
,
0001
0100
0010
0100
0001
0010
0001
0100
,
0010
0010
0110
1001
,
0010
1000
0100
0000
1000
0010
0100
0000
,
0001
0100
0010
0000
0001
0010
0100
0000
,
0001
0001
1001
0000
1000
1000
1001
0000
,
0020
0032
0203
2300
,
3010
0000
0010
0000
1000
0000
0000
0001
0000
0000
0001
0000
0100
0000
0010
0000
,
1000
0000
0000
0001
0000
0000
1000
0000
2002
0000
0000
0000
3003
0000
0000
0000
,
1000
0000
0010
0000
0100
0000
0000
0100
0000
0000
0001
0000
0010
0000
0001
0000
,
1000
0000
0000
0001
0000
0000
0000
0000
2002
0000
0000
0000
3003
0000
0000
0000
,
0001
0000
0100
0000
0001
0000
0000
1000
0000
0000
0001
0000
0010
0000
0001
0000
,
0100
0000
0000
0100
0000
0000
0000
0000
0220
0000
0000
0000
0330
0000
0000
0000
,
0001
0000
0100
0000
0001
0000
0000
1000
0000
0100
0000
0000
1000
0000
0100
0000
,
1000
0000
0001
0000
1000
0000
0000
2002
0000
0000
0000
0000
3003
0000
0000
0000
,
0001
0000
0010
0000
0001
0000
0000
0001
0000
0000
0100
0000
0010
0000
1000
0000
,
0010
0000
0000
0010
0000
0000
0100
0000
0220
0000
0000
0000
0330
0000
0000
0000
,
1000
0000
0010
0000
0100
0000
0000
0001
0000
0000
0001
0000
0010
0000
0001
0000
,
1000
0000
0000
0001
0000
0000
1000
0000
2002
0000
0000
0000
3003
0000
0000
0000
,
0001
0000
1000
0000
0010
0000
0000
0010
0000
0000
0010
0000
1000
0000
0001
0000
,
0100
0000
0000
0100
0000
0000
0001
0000
0202
0000
0000
0000
0303
0000
0010
0000
,
1000
0000
0100
0000
1000
0100
0000
0100
0000
1000
0000
0100
1000
0000
0001
0000
,
0100
0000
0100
0000
0001
1000
0000
0002
0000
0000
0000
0000
0003
0000
0000
0000
,
0010
0000
0000
0010
0000
0000
0001
0000
0100
0000
0000
0000
0010
0000
1000
0000
,
0100
0000
0000
0100
0000
0000
1000
0000
0010
0000
0000
0000
0100
0000
0001
0000
,
0010
0000
0000
0010
0000
0000
0001
0000
1000
0000
0000
0000
0010
0000
1000
0000
,
0001
0000
0000
0001
0000
0000
1000
0000
0010
0100
0010
0100
0010
0000
0100
0000
,
0001
0010
0001
0010
0001
0100
0001
0100
,
0010
1000
0010
1000
0001
0100
0010
1000
,
0010
0000
0000
0110
0000
0000
0000
0000
0100
0000
0000
0110
0000
0000
0000
0000
,
1000
0010
0100
0001
0010
0001
0100
0010
,
2000
0000
0000
3001
,
1001
0000
0000
0000
;

//---------------dance-single - ----------------
#NOTES:
     dance-single:
     :
     Beginner:
     4:
     0.199977,0.268896,0.055361,0.015817,0.000000,177.000000,170.000000,7.000000,2.000000,0.000000,0.000000,0.199977,0.268896,0.055361,0.015817,0.000000,177.000000,170.000000,7.000000,2.000000,0.000000,0.000000:
0000
0000
0000
0000
,
0000
0000
0000
0000
,
0000
0000
0000
0000
,
0000
0000
0000
0000
,
0010
0000
0001
0000
,
1000
0000
0001
0000
,
0010
0000
0100
0000
,
1000
1000
1000
0000
,
0001
0000
0001
0000
,
1000
0000
1000
0000
,
0001
0000
0001
0000
,
0010
0000
1001
0000
,
0010
0000
0010
0000
,
0100
0000
0100
0000
,
0001
0000
0100
0000
,
1000
0000
1001
0000
,
0010
0010
0010
0000
,
0100
0100
0100
0000
,
0010
0010
0010
0000
,
0100
0100
0100
0000
,
0001
0001
0001
0000
,
1000
1000
1000
0000
,
0001
0000
1000
0000
,
0010
0010
0010
0000
,
1000
0000
0001
0000
,
1000
1000
1000
0000
,
0001
0000
1000
0000
,
0001
0001
0001
0000
,
0100
0000
0010
0000
,
0100
0000
0010
0000
,
1001
0000
1001
0000
,
1001
0000
0000
0000
,
0010
0000
0000
0000
,
0100
0000
0000
0000
,
0001
0000
1000
0000
,
0010
0000
0000
0000
,
0100
0000
0000
0000
,
0010
0000
0000
0000
,
0010
0000
0100
0000
,
0010
0000
0000
0000
,
0000
0001
0000
0001
,
0000
1000
0000
1000
,
0000
0010
0000
0010
,
0010
0000
0100
0000
,
0000
1000
0000
1000
,
0000
0001
0000
0001
,
0000
0010
0010
0010
,
0010
0000
0000
0000
,
0100
0000
0010
0000
,
1000
0000
0001
0000
,
1000
0000
0100
0000
,
0010
0000
0001
0000
,
1000
0000
0001
0000
,
1000
0000
0010
0000
,
0001
0000
0010
0000
,
0200
0000
0300
0000
,
0010
0000
0010
0010
,
0010
0000
0100
0100
,
0100
0000
0001
0000
,
0010
0010
0010
0000
,
0100
0000
0010
0000
,
0100
0000
0010
0000
,
1000
0000
0001
0000
,
1000
0000
1001
0000
,
0001
0000
1000
0000
,
0010
0000
0100
0000
,
0001
0000
0001
0000
,
1000
1000
1000
0000
,
0001
0000
0010
0000
,
0100
0000
0100
0000
,
1000
0000
0100
0000
,
0010
0000
0010
0000
,
0001
0000
0010
0000
,
0100
0000
0100
0000
,
1000
1000
1000
0000
,
0001
0001
0001
0000
,
0010
0000
0000
0000
,
0100
0000
0000
0000
,
0010
0000
0000
0000
,
0100
0000
0000
0000
,
0001
0001
0001
0000
,
1000
1000
1000
0000
,
0010
0000
0100
0000
,
1000
1000
1000
1000
,
2000
0000
0000
3000
,
1001
0000
0000
0000
;

//---------------dance-single - ----------------
#NOTES:
     dance-single:
     :
     Easy:
     6:
     0.331036,0.436956,0.292622,0.316348,0.000000,293.000000,256.000000,37.000000,40.000000,0.000000,0.000000,0.331036,0.436956,0.292622,0.316348,0.000000,293.000000,256.000000,37.000000,40.000000,0.000000,0.000000:
0000
0000
0000
0000
,
0000
0000
0000
0000
,
0000
0000
0000
0000
,
0000
0000
0000
0000
,
0110
0000
0001
1000
,
0001
0000
1000
0001
,
0010
0010
0100
0100
,
0001
1000
0001
0000
,
0001
0100
1000
1000
,
0010
0001
2002
3003
,
0001
0010
1000
1000
,
0100
0010
2002
3003
,
0010
0001
0100
0100
,
0010
1000
2002
3003
,
0001
0100
0001
0100
,
1000
0100
2002
3003
,
0010
0010
0001
0100
,
0100
0100
1000
0010
,
0100
0100
0001
1000
,
0010
0010
1000
0001
,
0100
0001
0100
1001
,
0100
1000
0100
1001
,
0010
0010
0100
1001
,
0020
0000
0030
0100
,
0001
0100
1000
1001
,
1000
0100
0001
1001
,
0001
0010
1000
1001
,
1000
0010
0001
1001
,
0100
0010
0220
0330
,
0010
0100
0220
0330
,
1001
0000
0110
0000
,
1001
0000
0000
0000
,
0010
0000
0000
0001
,
0100
0000
0000
1000
,
0001
1000
0010
0100
,
0010
0000
0000
0001
,
0100
0000
0000
0010
,
1000
0000
0000
0001
,
0010
0100
1000
0100
,
0010
0000
0001
1000
,
0000
0001
0100
0001
,
0100
0010
0220
0330
,
0000
1000
0010
1000
,
0010
1000
0220
0330
,
0000
1000
0001
1000
,
0100
0010
0220
0330
,
0000
0010
1000
0100
,
0001
0001
2002
3003
,
0000
0000
0000
0000
,
1000
0000
0000
0000
,
0001
0000
0100
0000
,
0010
0001
0100
1000
,
0010
0010
1000
1001
,
0010
0001
1001
1001
,
0010
1000
0001
1001
,
0200
0010
0010
0310
,
0001
0010
0100
1000
,
0001
0010
0100
1000
,
2002
3003
0220
0330
,
0010
0010
0010
1000
,
0001
1000
0010
0010
,
1000
0001
0020
0030
,
1000
0001
0100
0100
,
1000
0000
2002
3003
,
0001
0100
0010
1000
,
0010
0010
0220
0330
,
0001
1000
0001
1000
,
0001
0001
2002
3003
,
0001
0010
0001
0010
,
0001
0100
2000
3000
,
1000
0100
1000
0100
,
0001
0010
0200
0300
,
0001
0010
0001
0010
,
1000
0010
0002
0003
,
1000
1000
0001
0001
,
1000
0001
2002
3003
,
0110
0000
0000
0000
,
1001
0000
0000
0000
,
0110
0000
0000
0000
,
1001
0000
0010
0000
,
0001
0001
0001
0100
,
1000
1000
1000
0100
,
0010
0001
0100
1000
,
0001
0010
0100
1000
,
2002
0000
0000
3003
,
1001
0000
0000
0000
;

//---------------dance-double - ----------------
#NOTES:
     dance-double:
     :
     Easy:
     6:
     0.314088,0.403344,0.181900,0.347983,0.000000,278.000000,255.000000,23.000000,44.000000,0.000000,0.000000,0.314088,0.403344,0.181900,0.347983,0.000000,278.000000,255.000000,23.000000,44.000000,0.000000,0.000000:
// measure 0
00000000
00000000
00000000
00000000
,  // measure 1
00000000
00000000
00000000
00000000
,  // measure 2
00000000
00000000
00000000
00000000
,  // measure 3
00000000
00000000
00000000
00000000
,  // measure 4
00100000
00000000
00001000
00010000
,  // measure 5
00001000
00000000
00000100
00001000
,  // measure 6
00000010
00000000
00000001
00000000
,  // measure 7
00001000
00000100
00000010
00000001
,  // measure 8
00000000
00001000
00000100
00010000
,  // measure 9
00001000
00001000
00022000
00033000
,  // measure 10
00000000
00001000
00100000
00010000
,  // measure 11
01000000
01000000
20020000
00000000
,  // measure 12
30030000
10000000
00010000
00010000
,  // measure 13
00100000
00001000
00022000
00033000
,  // measure 14
00001000
00000100
00001000
00000001
,  // measure 15
00000010
00000010
00002002
00003003
,  // measure 16
00000001
00000010
00001000
00000000
,  // measure 17
00010000
00100000
10000000
00000000
,  // measure 18
10000000
01000000
00010000
00000000
,  // measure 19
00001000
00000100
00000001
00000000
,  // measure 20
00000001
00000100
00000001
00000100
,  // measure 21
00000010
00001000
00000100
00010000
,  // measure 22
00001000
00010000
00100000
10000000
,  // measure 23
00200000
00320000
02030000
03200000
,  // measure 24
10300000
10000000
00010000
00010000
,  // measure 25
01000000
00010000
00001000
00010000
,  // measure 26
00000010
00000010
00001000
00001000
,  // measure 27
00000001
00000100
00000010
00001000
,  // measure 28
00000100
00010000
00011000
00000000
,  // measure 29
00100000
00001000
00011000
00000000
,  // measure 30
00010000
00001000
00000100
00001000
,  // measure 31
00011000
00000000
00000000
00000000
,  // measure 32
00200000
00000000
00000000
00301000
,  // measure 33
00020000
00000000
00000000
00030010
,  // measure 34
00001000
00000001
00001000
00000100
,  // measure 35
00002000
00000000
00000000
00003100
,  // measure 36
00020000
00000000
00001000
00000000
,  // measure 37
00032000
00000000
00100000
00000000
,  // measure 38
00103000
00010000
01000000
00100000
,  // measure 39
20000000
00000000
00010000
30010000
,  // measure 40
00100000
00001000
00010000
00000100
,  // measure 41
00000010
00000001
00000200
00000300
,  // measure 42
00000010
00001000
00000100
00010000
,  // measure 43
00001000
00001000
00100000
00110000
,  // measure 44
00000000
00100000
00010000
01000000
,  // measure 45
00100000
00100000
20020000
30030000
,  // measure 46
00100000
10000000
00010000
00100000
,  // measure 47
00002000
00000000
00020000
00033000
,  // measure 48
00000000
00000000
00000000
00000000
,  // measure 49
00010000
00000000
00000000
00000000
,  // measure 50
00001000
00000000
00010000
00000000
,  // measure 51
00001000
00001000
00010000
00010000
,  // measure 52
00000100
00001000
00000010
00000001
,  // measure 53
00000100
00001000
00010000
00001000
,  // measure 54
00100000
00010000
01000000
10000000
,  // measure 55
00200000
00000000
00002000
00303000
,  // measure 56
00100000
00100000
00100000
00100000
,  // measure 57
00001000
00001000
00001000
00001000
,  // measure 58
00020000
00030000
00000020
00000030
,  // measure 59
00001000
00000001
00000100
00000010
,  // measure 60
00000001
00000001
00001000
00001000
,  // measure 61
00000100
00010000
00022000
00033000
,  // measure 62
00100000
00100000
00010000
00010000
,  // measure 63
10000000
01000000
20020000
30030000
,  // measure 64
00100000
00100000
00001000
00001000
,  // measure 65
00010000
00001000
00022000
00033000
,  // measure 66
00000100
00000100
00010000
00010000
,  // measure 67
00000010
00000100
00002002
00003003
,  // measure 68
00000010
00001000
00000100
00010000
,  // measure 69
00001000
00001000
00022000
00033000
,  // measure 70
00100000
00010000
01000000
00100000
,  // measure 71
10000000
00010000
00220000
00330000
,  // measure 72
00100000
00001000
00010000
00000010
,  // measure 73
00001000
00000001
00000202
00000303
,  // measure 74
00000010
00001000
00000100
00010000
,  // measure 75
00011000
00011000
00022000
00033000
,  // measure 76
00100000
00000000
00000000
00000000
,  // measure 77
00001000
00000000
00000000
00000000
,  // measure 78
00010000
00000000
00000000
00000000
,  // measure 79
00001000
00000000
00010000
00000000
,  // measure 80
00000010
00000010
00000100
00001001
,  // measure 81
00000100
00000100
00010000
00011000
,  // measure 82
00100000
00100000
01000000
10010000
,  // measure 83
00100000
00001000
00010000
00000100
,  // measure 84
00020000
00000000
00000000
00031000
,  // measure 85
00011000
00000000
00000000
00000000
;
