#TITLE:XENON II ~TOMOYUKIの野望~;
#SUBTITLE:;
#ARTIST:Mr.T;
#TITLETRANSLIT:XENON II ~TOMOYUKI no yabou~;
#SUBTITLETRANSLIT:;
#ARTISTTRANSLIT:;
#GENRE:;
#CREDIT:Toxsa Dalton;
#BANNER:XENON II ~TOMOYUKI no yabou~.png;
#BACKGROUND:XENON II ~TOMOYUKI no yabou~-bg.png;
#LYRICSPATH:;
#CDTITLE:;
#MUSIC:XENON II ~TOMOYUKI no yabou~.ogg;
#OFFSET:-0.027000;
#SAMPLESTART:27.039505;
#SAMPLELENGTH:12.000000;
#SELECTABLE:YES;
#BPMS:0.000000=160.000000
;
#STOPS:
;
#BGCHANGES:0.000=XENON II ~TOMOYUKI no yabou~.avi=1.000=0=0=0=StretchNoLoop====,
99999=-nosongbg-=1.000=0=0=0 // don't automatically add -songbackground-
;
#KEYSOUNDS:;
#ATTACKS:;

//---------------dance-single - ----------------
#NOTES:
     dance-single:
     :
     Hard:
     13:
     0.621228,0.662828,0.053248,0.159744,0.630103,490.000000,484.000000,6.000000,18.000000,0.000000,0.000000,0.621228,0.662828,0.053248,0.159744,0.630103,490.000000,484.000000,6.000000,18.000000,0.000000,0.000000:
// measure 0
0000
0000
0000
0000
,  // measure 1
0000
0000
0000
0000
,  // measure 2
0000
0000
0000
0000
,  // measure 3
0000
0000
0000
0000
,  // measure 4
0000
0000
0000
0000
,  // measure 5
0000
0000
0000
0000
,  // measure 6
0001
0000
0000
0001
0000
0000
0100
0000
0000
1000
0000
0000
0001
0000
0000
0001
,  // measure 7
0000
0000
0010
0000
0000
1000
0000
0000
0001
0000
0010
0000
0100
0000
0000
0000
,  // measure 8
1000
0000
0000
1000
0000
0000
0100
0000
0000
0001
0000
0000
1000
0000
0000
1000
,  // measure 9
0000
0000
0010
0000
0000
0001
0000
0000
1000
0000
0000
0000
1001
0000
0000
0000
,  // measure 10
1000
0100
0010
0000
1000
0001
0100
0000
,  // measure 11
0001
0010
0100
0000
0001
1000
0100
0000
,  // measure 12
1000
0001
1000
0000
0001
0100
1000
0000
,  // measure 13
0001
1000
0001
0000
1000
0100
0001
0000
,  // measure 14
1000
0100
1000
0001
1000
0010
1000
0001
,  // measure 15
0010
0100
0010
0001
0010
0100
0010
1000
,  // measure 16
0001
0100
0001
1000
0001
0010
0001
1000
,  // measure 17
0000
1000
0100
0000
0010
0001
0000
1000
0000
0001
0100
0000
0010
0000
0100
0000
,  // measure 18
0001
0000
0000
0100
0000
0000
0010
0000
1000
0000
0000
0010
0000
0000
0100
0000
,  // measure 19
0001
0000
1000
0000
0010
0000
0100
0000
0001
0000
0000
1000
0000
0000
0010
0000
,  // measure 20
0100
0000
0000
0010
0000
0000
1000
0000
0002
0000
0000
0000
0103
0000
0001
1000
,  // measure 21
0002
0000
2003
0000
3020
0000
0130
0001
,  // measure 22
1000
0000
0000
0001
0000
0000
0100
0000
0010
0000
0000
0010
0000
0000
0100
0000
,  // measure 23
0001
0000
0000
1000
0000
0000
0001
0000
0100
0000
0000
0010
0000
0000
1000
0000
,  // measure 24
0100
0000
0000
0010
0000
0000
0001
0000
1000
0000
0000
0010
0000
0000
0001
0000
,  // measure 25
0100
0001
0100
0000
0001
0100
0000
0010
0000
1000
0001
0000
0010
0100
0010
0000
,  // measure 26
1000
0000
0000
0100
0000
0000
0010
0000
0000
0001
0000
0000
0010
0000
0100
0000
,  // measure 27
0001
0000
0000
0010
0000
0000
0100
0000
0000
1000
0000
0000
0010
0000
0100
0000
,  // measure 28
0001
0000
0000
1000
0000
0000
0010
0000
1000
0000
0000
0001
0000
0000
0100
0000
,  // measure 29
0001
0000
0000
0010
0000
0000
0100
0000
0020
0000
0001
0000
0031
0000
0000
0000
,  // measure 30
0101
0000
0000
0001
0000
0000
1000
0000
0000
0100
0000
0000
0010
0000
0001
0000
,  // measure 31
1000
0000
0000
0001
0000
0000
0010
0000
0100
0000
0000
0001
0000
0000
1000
0000
,  // measure 32
0010
0100
0010
0100
0001
1000
0010
0100
,  // measure 33
0010
1000
0010
0000
1000
0010
0000
0100
0000
0001
1000
0000
0010
0100
0010
0000
,  // measure 34
0002
1003
0020
1030
,  // measure 35
0200
1300
0020
1030
,  // measure 36
0200
1000
0300
0010
,  // measure 37
0002
1000
0000
1003
,  // measure 38
0000
1000
0002
1003
,  // measure 39
0200
0310
0002
1003
,  // measure 40
0020
1000
0030
0001
,  // measure 41
1000
0001
1000
0000
1000
0100
0000
0010
0000
0001
0100
0000
0001
1000
0001
0000
,  // measure 42
1000
0100
0000
0010
0000
0001
0000
1000
0000
0000
0001
0000
0100
0000
0001
0100
,  // measure 43
0000
0000
0010
0000
1000
0000
0010
1000
0000
0000
0001
0000
1000
0000
0100
0000
,  // measure 44
1000
0100
0000
0010
0000
0100
0000
1000
0000
0000
0001
0000
0100
0000
0001
1000
,  // measure 45
0000
0000
0010
1000
0000
0010
0000
0100
0000
0001
0000
1000
0000
1000
0001
0000
,  // measure 46
1000
0100
0000
1000
0000
0001
0000
1001
0000
0000
1000
0000
0100
0000
0010
0001
,  // measure 47
0000
0000
1000
0000
0010
0000
1000
0001
0000
0000
0100
0000
0001
0000
1000
0000
,  // measure 48
0001
0000
0000
0100
0000
0000
1000
0000
0001
0000
0010
0000
0100
0000
0000
0000
,  // measure 49
0010
0001
0010
0000
0100
1000
0000
0001
0000
1000
0100
0000
0010
0001
0010
0000
,  // measure 50
0001
0000
0100
0001
0000
0000
1000
0000
0001
0000
1000
0001
0000
0000
1000
0000
,  // measure 51
0010
0000
1000
0010
0000
0000
1000
0000
0100
0000
0010
0001
0000
0000
0100
0000
,  // measure 52
0010
0000
1000
0010
0000
0000
0100
0000
0100
0000
0000
0000
0000
0000
1000
0001
,  // measure 53
2000
0000
3020
0000
0230
0000
0301
1000
,  // measure 54
0010
0000
1000
0010
0000
0000
0100
0000
0100
0000
0001
0100
0000
0000
0001
0000
,  // measure 55
0001
0000
1000
0001
0000
0000
1000
0000
0100
0000
1000
0100
0000
0000
0010
0000
,  // measure 56
0001
0000
0100
0001
0000
0000
1000
0000
0001
0000
0000
1000
0000
0000
0010
0000
,  // measure 57
1000
0100
1000
0000
0010
0100
0000
0001
0000
1000
0001
0000
1000
0100
0010
0000
,  // measure 58
0001
0000
0100
0001
0000
0000
1000
0000
0001
1000
0000
0000
0010
0000
1000
0000
,  // measure 59
0100
0000
0010
0001
0000
0000
1000
0000
0001
0010
0000
0000
0001
0000
1000
0000
,  // measure 60
0100
0000
0000
0001
0000
0000
0100
0000
0010
0000
0000
1000
0000
0000
0010
0000
,  // measure 61
1000
0000
0000
0100
0000
0000
0010
0000
0001
0000
0100
0000
0010
0000
0100
0000
,  // measure 62
0001
0000
0000
1001
0000
0000
1000
0000
0000
0100
0000
0000
0010
0000
0001
0000
,  // measure 63
1000
0000
0000
1001
0000
0000
1000
0000
0010
0000
0000
0100
0000
0000
0001
0000
,  // measure 64
1000
0010
1000
0010
0100
0001
0100
0001
,  // measure 65
0000
0001
1000
0000
0010
1000
0000
1000
0000
0001
0100
0000
0010
1000
0010
0000
,  // measure 66
0100
0000
0010
0000
1000
0010
0000
1000
0001
0000
0000
1000
0000
0000
0100
0000
,  // measure 67
0010
0000
0001
0000
0100
0001
0000
1000
0001
0000
0000
1000
0000
0000
0100
0000
,  // measure 68
0010
0000
0001
0000
1000
0010
0000
1000
0001
0000
0000
1000
0000
0000
0100
0000
,  // measure 69
0010
0000
0001
0000
0100
0001
0000
1000
0001
0000
0000
0010
0000
0000
0001
0000
,  // measure 70
1000
0000
0010
0000
0100
0001
0100
0001
1000
0000
0000
0010
0000
0000
0100
0000
,  // measure 71
0001
0000
0010
0000
0100
1000
0000
0100
0010
0000
0000
0001
0000
0100
0010
0100
,  // measure 72
0001
0000
1000
0000
0010
0100
0000
0010
1000
0000
0000
0001
0000
0000
0100
0000
,  // measure 73
0000
0001
0100
0000
0010
1000
0000
0001
0000
0100
0010
0000
1000
0000
1000
0000
,  // measure 74
0000
0010
1000
0000
0001
0100
0000
0010
1000
0000
0000
1001
0000
0000
0000
0000
;

//---------------dance-single - ----------------
#NOTES:
     dance-single:
     :
     Medium:
     10:
     0.445002,0.596046,0.408236,0.354988,0.000000,351.000000,305.000000,46.000000,40.000000,0.000000,0.000000,0.445002,0.596046,0.408236,0.354988,0.000000,351.000000,305.000000,46.000000,40.000000,0.000000,0.000000:
// measure 0
0000
0000
0000
0000
,  // measure 1
0000
0000
0000
0000
,  // measure 2
0000
0000
0000
0000
,  // measure 3
0000
0000
0000
0000
,  // measure 4
0000
0000
0000
0000
,  // measure 5
0000
0000
0000
0000
,  // measure 6
1001
0000
0000
0000
0000
0000
0000
0100
,  // measure 7
0010
0000
0000
0000
0000
0000
0000
1000
,  // measure 8
0100
0000
0000
0000
1001
0000
0000
0001
,  // measure 9
0100
0010
1000
1001
,  // measure 10
0100
0000
1000
0000
0100
1000
1100
0000
,  // measure 11
0010
0000
0001
0000
0010
0001
0011
0000
,  // measure 12
0100
0000
0010
0000
0100
0010
0110
0000
,  // measure 13
1000
0000
0001
0000
1000
0001
1001
0000
,  // measure 14
1000
0000
0010
0000
1000
0010
1010
0000
,  // measure 15
0100
0000
0001
0000
0100
0001
0101
0000
,  // measure 16
0010
0000
0100
0000
0010
0100
0110
0000
,  // measure 17
0001
0001
0001
1000
1000
1000
0010
0100
,  // measure 18
0001
0101
1000
0100
,  // measure 19
0010
0011
0100
0010
,  // measure 20
2000
3000
1001
0000
,  // measure 21
0200
2300
3002
0023
,  // measure 22
0031
1001
0100
0010
,  // measure 23
0001
1001
0100
0010
,  // measure 24
1000
1100
0001
0011
,  // measure 25
0100
0010
0010
0010
1000
1000
1000
0001
,  // measure 26
1000
0101
1000
0100
,  // measure 27
0010
1001
0010
0001
,  // measure 28
0100
1010
0100
0001
,  // measure 29
2000
3000
1001
0010
,  // measure 30
0200
0301
1000
0100
,  // measure 31
0020
0031
1000
0010
,  // measure 32
0200
0001
1000
0301
,  // measure 33
1000
0010
0010
0010
0100
0100
0100
0001
,  // measure 34
0200
0000
0302
0000
,  // measure 35
2003
0000
3020
0000
,  // measure 36
0230
0000
0000
0301
,  // measure 37
2000
0000
3200
0000
,  // measure 38
0302
0000
0100
0000
,  // measure 39
2003
0000
3002
0000
,  // measure 40
0023
0000
0001
0000
,  // measure 41
0230
0010
0010
0000
0010
0010
0310
0000
,  // measure 42
0010
0001
0010
0001
0100
0000
1010
0000
,  // measure 43
1000
0101
1000
0011
,  // measure 44
1000
0100
1000
0100
0010
0000
0101
0000
,  // measure 45
1000
0101
1000
0011
,  // measure 46
0100
0010
0100
0010
1000
0000
0101
0000
,  // measure 47
1000
0110
1000
0101
,  // measure 48
1000
0100
0010
0000
0100
0010
0001
0000
,  // measure 49
1000
0001
0001
0001
0100
0100
0100
0010
,  // measure 50
2000
3000
0002
0003
,  // measure 51
0200
0300
0020
0030
,  // measure 52
2000
0000
3001
0000
,  // measure 53
0002
0023
0230
2300
,  // measure 54
3002
0003
2000
3000
,  // measure 55
0020
0030
0200
0300
,  // measure 56
0202
0303
2200
3300
,  // measure 57
0100
0100
0100
0100
0010
0010
0010
0000
,  // measure 58
0100
0000
1001
0000
0010
0100
0010
0000
,  // measure 59
1000
0000
0101
0000
1000
0001
1000
0000
,  // measure 60
0001
0011
1000
1100
,  // measure 61
0020
0000
0100
0000
0130
0000
0001
0100
,  // measure 62
0010
0000
1000
0000
1100
0000
0010
0001
,  // measure 63
0100
0010
1001
1000
,  // measure 64
0002
0100
1000
0013
,  // measure 65
0000
0001
0001
0001
0100
0100
0100
0000
,  // measure 66
1000
0100
1000
0100
1000
0100
1000
0000
,  // measure 67
0001
0010
0001
0010
0001
0010
0001
0000
,  // measure 68
1000
0001
1000
0001
1000
0001
1000
0000
,  // measure 69
0000
0001
0001
0001
1000
1000
1000
0000
,  // measure 70
1000
0010
0000
1010
0100
0001
0101
0000
,  // measure 71
0001
0010
0000
0011
0100
1000
1100
0000
,  // measure 72
1000
0010
0000
0101
0010
1000
1010
0000
,  // measure 73
1000
0010
0010
0010
0001
0001
0001
0000
,  // measure 74
0001
0010
0000
1100
0010
0011
0000
0000
;

//---------------dance-single - ----------------
#NOTES:
     dance-single:
     :
     Easy:
     5:
     0.299204,0.396699,0.239617,0.204118,0.000000,236.000000,209.000000,27.000000,23.000000,0.000000,0.000000,0.299204,0.396699,0.239617,0.204118,0.000000,236.000000,209.000000,27.000000,23.000000,0.000000,0.000000:
// measure 0
0000
0000
0000
0000
,  // measure 1
0000
0000
0000
0000
,  // measure 2
0000
0000
0000
0000
,  // measure 3
0000
0000
0000
0000
,  // measure 4
0000
0000
0000
0000
,  // measure 5
0000
0000
0000
0000
,  // measure 6
0200
0000
0000
0300
,  // measure 7
0020
0000
0000
0030
,  // measure 8
2000
3000
0002
0003
,  // measure 9
1000
0100
0010
0001
,  // measure 10
1000
0100
1000
1100
,  // measure 11
0010
0001
0010
0011
,  // measure 12
0100
0010
0100
0110
,  // measure 13
0001
0100
0001
1001
,  // measure 14
1000
0100
0010
1001
,  // measure 15
0010
0100
0001
1001
,  // measure 16
0001
0010
0100
1001
,  // measure 17
0001
0001
1000
1000
,  // measure 18
0100
0001
0000
0001
,  // measure 19
0100
1000
0000
1000
,  // measure 20
0010
0001
0000
0001
,  // measure 21
0100
0000
1001
0000
,  // measure 22
0100
1000
0000
1000
,  // measure 23
0100
0001
0000
0001
,  // measure 24
0010
1000
0000
1000
,  // measure 25
0100
0100
1001
0000
,  // measure 26
0010
0001
0001
0001
,  // measure 27
0010
1000
1000
1000
,  // measure 28
0100
0001
0001
0001
,  // measure 29
0010
0100
1001
0000
,  // measure 30
0010
1000
0100
1000
,  // measure 31
0010
0001
0100
0001
,  // measure 32
0100
1000
0010
1000
,  // measure 33
0010
0010
1001
0000
,  // measure 34
0200
0300
0020
0030
,  // measure 35
2000
3000
0002
0003
,  // measure 36
0200
0000
0300
0010
,  // measure 37
2000
0000
0000
3000
,  // measure 38
0000
0000
0002
0003
,  // measure 39
0200
0300
0020
0030
,  // measure 40
0200
0000
0300
0001
,  // measure 41
1000
0010
0200
0300
,  // measure 42
1000
1010
1000
1000
,  // measure 43
0001
0010
0100
1000
,  // measure 44
0001
0011
0001
0001
,  // measure 45
1000
0100
0010
0001
,  // measure 46
0100
0110
0100
0100
,  // measure 47
0010
1000
0100
0001
,  // measure 48
0010
0110
0010
0010
,  // measure 49
0001
0010
0100
1000
,  // measure 50
2002
0000
3003
0000
,  // measure 51
2000
0000
3000
0000
,  // measure 52
0002
0003
2000
3000
,  // measure 53
0001
0010
0100
1000
,  // measure 54
0020
0000
0030
0000
,  // measure 55
0200
0000
0300
0000
,  // measure 56
0001
0000
1000
0000
,  // measure 57
0010
0000
1001
0000
,  // measure 58
0001
0100
0001
0001
,  // measure 59
1000
0100
1000
1000
,  // measure 60
0010
0100
0010
0010
,  // measure 61
0100
0000
1001
0000
,  // measure 62
0001
0010
0001
0001
,  // measure 63
1000
0100
1000
1000
,  // measure 64
0010
0100
0001
1000
,  // measure 65
0002
0000
1003
0000
,  // measure 66
0010
0010
0000
0110
,  // measure 67
0100
0100
0000
0110
,  // measure 68
0001
0001
0000
1001
,  // measure 69
1000
1000
0000
1001
,  // measure 70
0010
0100
0000
1001
,  // measure 71
0100
0010
0000
1001
,  // measure 72
1000
0001
0000
0110
,  // measure 73
0001
1000
0000
0110
,  // measure 74
0010
0010
1001
0000
;

//---------------dance-single - ----------------
#NOTES:
     dance-single:
     :
     Beginner:
     2:
     0.101425,0.164182,0.017749,0.097622,0.000000,80.000000,78.000000,2.000000,11.000000,0.000000,0.000000,0.101425,0.164182,0.017749,0.097622,0.000000,80.000000,78.000000,2.000000,11.000000,0.000000,0.000000:
// measure 0
0000
0000
0000
0000
,  // measure 1
0000
0000
0000
0000
,  // measure 2
0000
0000
0000
0000
,  // measure 3
0000
0000
0000
0000
,  // measure 4
0000
0000
0000
0000
,  // measure 5
0000
0000
0000
0000
,  // measure 6
1000
0000
0000
0000
,  // measure 7
0001
0000
0000
0000
,  // measure 8
0100
0000
0100
0000
,  // measure 9
0200
0000
0300
0000
,  // measure 10
0100
0000
0000
0000
,  // measure 11
0010
0000
0000
0000
,  // measure 12
1000
0000
0000
0000
,  // measure 13
0001
0000
0000
0000
,  // measure 14
1000
0000
1000
0000
,  // measure 15
0000
0000
0001
0000
,  // measure 16
0000
0000
1000
0000
,  // measure 17
2000
0000
3000
0000
,  // measure 18
1000
0000
0000
0000
,  // measure 19
0001
0000
0000
0000
,  // measure 20
0100
0000
0000
0000
,  // measure 21
0010
0000
0010
0000
,  // measure 22
0010
0000
0000
0000
,  // measure 23
0100
0000
0000
0000
,  // measure 24
0001
0000
0001
0000
,  // measure 25
0001
0000
0000
0000
,  // measure 26
1000
0000
0000
0000
,  // measure 27
0001
0000
0000
0000
,  // measure 28
0100
0000
0100
0000
,  // measure 29
0100
0000
0000
0000
,  // measure 30
0010
0000
0000
0000
,  // measure 31
1000
0000
0000
0000
,  // measure 32
0002
0000
0000
0000
,  // measure 33
0003
0000
0000
0000
,  // measure 34
0010
0000
0000
0000
,  // measure 35
1000
0000
0000
0000
,  // measure 36
0200
0000
0000
0000
,  // measure 37
0300
0000
0000
0000
,  // measure 38
0010
0000
0000
0000
,  // measure 39
0001
0000
0000
0000
,  // measure 40
0200
0000
0000
0000
,  // measure 41
0300
0000
0000
0000
,  // measure 42
0010
0000
0000
0000
,  // measure 43
0100
0000
0000
0000
,  // measure 44
0001
0000
0000
0000
,  // measure 45
1000
0000
0000
0000
,  // measure 46
0100
0000
0100
0000
,  // measure 47
0010
0000
0010
0000
,  // measure 48
1000
0000
1000
0000
,  // measure 49
0001
0000
0000
0000
,  // measure 50
0200
0000
0300
0000
,  // measure 51
0020
0000
0030
0000
,  // measure 52
2000
0000
3000
0000
,  // measure 53
0002
0000
0003
0000
,  // measure 54
2000
0000
3000
0000
,  // measure 55
0020
0000
0030
0000
,  // measure 56
0100
0000
0100
0000
,  // measure 57
1001
0000
0000
0000
,  // measure 58
0010
0000
0000
0000
,  // measure 59
1000
0000
0000
0000
,  // measure 60
0100
0000
0000
0000
,  // measure 61
0001
0000
0000
0000
,  // measure 62
0010
0000
0010
0000
,  // measure 63
0100
0000
0100
0000
,  // measure 64
0001
0000
0000
0000
,  // measure 65
1000
0000
0000
0000
,  // measure 66
0010
0000
0000
0000
,  // measure 67
0100
0000
0000
0000
,  // measure 68
0010
0000
0000
0000
,  // measure 69
0100
0000
0100
0000
,  // measure 70
0100
0000
0000
0000
,  // measure 71
0001
0000
0000
0000
,  // measure 72
1000
0000
0000
0000
,  // measure 73
0001
0000
0000
0000
,  // measure 74
1001
0000
0000
0000
;
