#TITLE:Wonderland;
#SUBTITLE:;
#ARTIST:kors k;
#TITLETRANSLIT:;
#SUBTITLETRANSLIT:;
#ARTISTTRANSLIT:;
#GENRE:beatmaniaIIDX;
#CREDIT:;
#BANNER:Wonderland.png;
#BACKGROUND:Wonderland-bg.png;
#LYRICSPATH:;
#CDTITLE:;
#MUSIC:Wonderland.ogg;
#OFFSET:1.020000;
#SAMPLESTART:20.293335;
#SAMPLELENGTH:12.000000;
#LASTBEATHINT:0.060000;
#SELECTABLE:YES;
#BPMS:0.000000=180.000000
;
#STOPS:
;
#BGCHANGES:0.500=Wonderland.avi=1.000=1=0=0=StretchNoLoop==CrossFade==,
99999=-nosongbg-=1.000=0=0=0 // don't automatically add -songbackground-
;
#KEYSOUNDS:;
#ATTACKS:;

//---------------dance-single - ----------------
#NOTES:
     dance-single:
     :
     Hard:
     15:
     0.810882,0.913855,0.451794,0.238218,0.427150,691.000000,636.000000,55.000000,29.000000,0.000000,0.000000,0.810882,0.913855,0.451794,0.238218,0.427150,691.000000,636.000000,55.000000,29.000000,0.000000,0.000000:
0000
0000
0000
0000
,
0000
0000
0000
0000
,
0000
0000
0000
0000
,
0000
0000
0000
0000
,
0000
0000
0000
0000
,
0000
0000
0000
0000
,
0000
0000
0000
0000
,
0000
0000
0000
0000
,
0000
0000
0000
0000
,
1000
0000
0001
0000
1000
0000
0010
0000
1000
0000
0000
0001
0000
0000
1000
0000
,
0010
0000
0100
0000
0001
0000
1000
0000
0010
0000
0000
1000
0000
0000
0001
0000
,
1000
0000
0100
0000
0010
0000
0001
0000
1000
0000
0000
1000
0000
0000
1000
0000
,
0001
0000
0100
0000
0010
0000
1000
0000
0001
0000
0000
0001
0000
0000
0001
0000
,
0100
0000
0010
0000
1000
0000
0001
0000
0010
0000
0001
0010
0000
0001
0010
0000
,
0001
0000
1000
0000
0010
0000
0100
0000
0001
0000
1000
0001
0000
1000
0001
0000
,
1000
0010
0100
0001
0100
1000
0100
0001
,
1000
0000
0001
0000
0000
0000
1001
0000
0000
0000
1001
0000
0000
0000
1000
0010
,
1000
0001
1000
1100
0001
0101
0001
1001
,
0000
0000
1000
0000
0001
0000
0100
0000
0010
1000
0010
0000
0100
0000
0001
0000
,
1000
0000
0010
0000
1010
0000
0010
0000
1000
0010
1000
0000
0001
0000
0100
0000
,
0010
0000
1000
0000
0001
0000
0100
0000
0001
0000
1000
0000
0001
0000
1000
0010
,
0100
0000
0100
0010
0100
0000
0010
0000
1000
0000
1010
0000
1000
0000
1001
0000
,
0000
0000
0001
0000
0100
0000
0100
0000
0001
1000
0010
0000
1000
0000
0010
0000
,
1000
0000
0001
0000
1001
0000
0001
0000
1000
0010
1000
0000
0001
0000
0100
0000
,
0010
1000
0100
0010
0001
0000
1001
0000
,
1000
0000
0001
1000
0001
0000
1000
0001
1000
0000
0000
1001
0000
0000
0101
0000
,
0101
0000
0001
0100
0010
0000
0010
0100
0001
0000
0000
0000
1001
0000
0000
0000
,
1100
0000
0100
1000
0100
0000
1000
0100
1000
0000
0000
1100
0000
0000
1001
0000
,
1001
0000
0001
1000
0010
0000
1000
0001
0010
0000
0000
0000
1001
0000
0000
0000
,
0202
0000
0303
0000
2200
0000
3300
0000
0101
0000
0000
0101
0000
0000
1001
0000
,
2002
3003
2020
3030
1001
0100
0010
0000
,
0022
0000
0033
0000
0202
0000
0303
0000
0001
0000
1000
0001
0000
0100
0001
0000
,
0010
0001
1000
0100
0010
0001
1000
0001
,
1000
0000
0010
0000
1000
0000
0010
0000
1000
0000
0001
1000
0000
0001
1000
0000
,
0010
0100
0001
1000
0100
0010
0011
0000
,
0001
0000
0100
0000
0001
0000
0100
0000
0010
0000
1000
0001
0000
1000
0001
0000
,
1000
0100
0010
0001
1000
0001
0101
0000
,
0010
0000
0010
0000
0010
0000
0010
0000
1000
0000
0001
1000
0000
0001
1000
0000
,
0100
0100
0100
0100
1000
0010
1001
0000
,
0001
0000
0001
0000
1000
0000
1000
0000
0001
1000
0001
1000
0001
1000
0001
1000
,
0020
0230
0302
1003
,
0020
0000
0000
0000
,
2030
0000
0000
3002
,
1003
0000
1000
0000
0000
0010
0000
0000
0010
0000
0000
0010
0000
0000
0010
0000
,
0100
0000
0100
0000
0000
0001
0000
0000
0001
0000
0000
0001
0000
0000
0001
0000
,
2000
0000
0000
0000
,
3002
0000
0000
0203
,
0310
0000
1000
0000
0000
0010
0000
0000
0010
0000
0000
0010
0000
0000
0100
0000
,
0001
0000
1000
0000
0000
1000
0000
0000
0010
0000
0000
0010
0000
0000
0100
0000
,
0001
1000
0001
1000
0010
0100
0001
1000
,
0100
0010
0100
0010
0001
1000
0100
0010
,
0001
1000
0001
1000
0001
0010
0100
1000
,
0010
0100
0010
0100
0001
0100
1000
0100
,
0001
0010
0001
1000
0100
1000
0001
0010
,
0100
1000
0010
0100
0001
0010
0001
1000
,
0010
0010
0100
0100
0001
0001
1000
1000
,
0001
0000
0100
0000
0000
0000
1001
0000
0000
0000
1001
0000
0000
0000
1000
0001
,
0100
0000
0001
1000
0001
1000
0001
1000
0001
0000
1000
0000
0010
0000
0100
0000
,
0000
0000
0001
0000
1000
0000
1000
0000
0001
0010
0001
0000
1000
0100
1000
0000
,
0010
0000
1000
0001
1000
0001
1000
0001
1000
0000
0010
0000
0100
0000
0001
0000
,
1000
0000
0100
0000
0010
0000
0001
0000
2000
0000
0000
0000
3001
0000
0100
0001
,
0100
0000
0010
1000
0010
1000
0010
0100
0010
0000
1000
0000
0100
0000
0010
0000
,
0000
0000
0001
0000
0100
0000
0100
0000
0010
1000
0010
0000
0100
0000
0001
0000
,
1000
0000
0001
0000
1000
0010
1000
0010
1000
0000
0001
0000
0100
0000
0010
0000
,
1000
0100
0010
0001
2000
0100
3100
0000
,
0002
0000
1003
0010
1000
0000
0010
1000
0010
0000
1000
0000
0100
0000
0010
0000
,
0002
0000
1003
0010
1000
0000
0100
1000
0100
0000
1000
0000
0010
0000
0100
0000
,
0002
0000
0103
0010
0100
0000
0001
0100
0001
0000
0100
0000
0010
0000
1000
0000
,
0200
0000
1300
0010
1000
0000
0001
0100
0001
0000
1000
0000
0100
0000
0010
0000
,
0001
0000
1000
0001
1000
0000
0010
0000
1010
0000
0100
0000
0001
0000
1000
0000
,
0010
0000
1000
0100
1000
0000
1000
0000
1010
0000
0010
0000
0100
0000
0001
0000
,
0010
0001
0010
0000
0001
0100
0001
0000
1000
0010
1000
0010
0100
0001
0100
0001
,
1000
0000
0001
0000
0000
0000
1001
0000
0000
0000
0110
0000
0000
0000
1000
0100
,
1000
0000
0100
1000
0100
0000
1000
0000
0100
0000
0110
0000
0010
0000
0110
0000
,
0100
0000
0001
0000
1000
0000
0010
0000
1000
0010
1000
0000
0001
0000
0100
0000
,
0010
0000
1010
0000
0010
0000
0110
0000
0010
1000
0010
0000
0100
0000
0001
0000
,
0010
0000
0001
0000
0100
0000
0010
0000
1010
0000
0000
0000
0101
0000
0100
0001
,
0100
0000
0010
1000
0010
0000
0100
0010
0100
0000
0110
0000
0010
0000
1010
0000
,
0000
0000
1001
0000
0001
0000
0100
0000
0010
1000
0100
0000
1000
0000
0001
0000
,
0010
0001
0100
0110
0010
0110
0010
1000
,
0001
0100
0010
1000
1001
0000
0110
0000
,
1000
0000
0001
0100
0001
0000
1000
0100
1000
0000
0001
0000
0100
0000
0010
0000
,
1000
0010
1000
0010
0100
0001
0100
0001
1000
0000
0001
0000
0100
0000
0010
0000
,
1000
0000
1001
0000
0001
0000
0100
0000
0010
1000
0010
0000
0100
0000
0110
0000
,
0010
0000
1000
0000
0100
0000
0010
0000
0001
0000
1000
0000
1100
0000
1000
0010
,
1000
0000
0001
0100
0001
0000
0100
0010
0100
0000
0010
0000
1000
0000
0100
0000
,
0010
0001
0010
0001
1000
0100
1000
0100
0010
0000
0001
0000
0100
0000
0010
0000
,
1000
0000
0001
1000
0000
0001
1000
0000
0010
0000
0100
0010
0000
0100
0010
0000
,
2000
0000
0002
3003
,
1001
0000
0000
0000
;

//---------------dance-double - ----------------
#NOTES:
     dance-double:
     :
     Hard:
     15:
     0.779197,0.950410,0.517509,0.082144,0.414829,664.000000,601.000000,63.000000,10.000000,0.000000,0.000000,0.779197,0.950410,0.517509,0.082144,0.414829,664.000000,601.000000,63.000000,10.000000,0.000000,0.000000:
00000000
00000000
00000000
00000000
,
00000000
00000000
00000000
00000000
,
00000000
00000000
00000000
00000000
,
00000000
00000000
00000000
00000000
,
00000000
00000000
00000000
00000000
,
00000000
00000000
00000000
00000000
,
00000000
00000000
00000000
00000000
,
00000000
00000000
00000000
00000000
,
00000000
00000000
00000000
00000000
,
10000000
00000000
00100000
00000000
00000000
00100000
00000000
00000000
01000000
00000000
00000000
01000000
00000000
00000000
00001000
00000000
,
00010000
00000000
00000100
00000000
00000000
00000100
00000000
00000000
00001000
00000000
00000000
00001000
00000000
00000000
00000010
00000000
,
00000100
00000000
00000001
00000000
00000000
00000001
00000000
00000000
00001000
00000000
00000000
00001000
00000000
00000000
00000100
00000000
,
00010000
00000000
00001000
00000000
00000000
00001000
00000000
00000000
00100000
00000000
00000000
00100000
00000000
00000000
00010000
00000000
,
01000000
00000000
00100000
00000000
00000000
10100000
00000000
00000000
00100000
00000000
00000000
01000000
00000000
00000000
00010000
00000000
,
00100000
00000000
00001000
00000000
00000000
00011000
00000000
00000000
00001000
00000000
00000000
00010000
00000000
00000000
00000100
00000000
,
00001000
00000100
00000010
00000001
00001000
00000100
00010000
00001000
,
00010000
00000000
00010000
00000000
00000000
00000000
00011000
00000000
00000000
00000000
01001000
00000000
00000000
00000000
00010000
01000000
,
00010000
00000000
10000000
00100000
10000000
00000000
00010000
01000000
00010000
00000000
00100000
00000000
00001000
00000000
00010000
00000000
,
00000100
00000000
00001000
00000000
00000010
00000000
00000100
00000000
00000001
00000100
00000010
00000000
00001000
00000000
00000100
00000000
,
00010000
00000000
00001000
00000000
00001000
00000000
00001000
00000000
00100000
00001000
00100000
00000000
00010000
00000000
01000000
00000000
,
00100000
10000000
01000000
00100000
00010000
00001000
00011000
00010000
,
00000100
00000000
00001000
00000100
00001000
00000000
00000001
00000010
00000001
00000000
00001000
00000000
00000100
00000000
00000010
00000000
,
00000001
00000000
00001000
00000000
00000100
00000000
00010000
00000000
00001000
00010000
00001000
00000000
00100000
00000000
00010000
00000000
,
01000000
00000000
00100000
00000000
10000000
00000000
00010000
00000000
00100000
00001000
00010000
00000000
00000100
00000000
00010000
00000000
,
00001000
00010000
00001000
00010000
00011000
00000000
00101000
00000000
,
01001000
00000000
00000000
00000000
01010000
00000000
00000000
00000000
01001000
00000000
00000000
01001000
00000000
00000000
00010000
00000000
,
00001000
00011000
00010100
00001010
,
00001001
00000000
00000000
00000000
00001001
00000000
00000000
00000000
00001001
00000000
00000000
00001001
00000000
00000000
00000010
00000000
,
00001000
00001100
00010100
00011000
,
00101000
00000000
00000000
00000000
00110000
00000000
00000000
00000000
01010000
00000000
00000000
01010000
00000000
00000000
10000000
00000000
,
10010000
00110000
01100000
10010000
,
00110000
00000000
00000000
00000000
00101000
00000000
00000000
00000000
00011000
00000000
00000000
00011000
00000000
00000000
00010000
00000000
,
00000100
00001100
00000110
00000011
,
00001000
00000000
00000001
00000000
00001000
00000000
00000001
00000000
00001000
00000000
00000001
00001000
00000000
00000010
00001000
00000000
,
00000100
00010000
00001000
00010000
00000100
00010000
00011000
00001000
,
00100000
00000000
00010000
00000000
01000000
00000000
00010000
00000000
00100000
00000000
00010000
00100000
00000000
01000000
10000000
00000000
,
00100000
01000000
00010000
01000000
00100000
10000000
10010000
00000000
,
00100000
00000000
00100000
00000000
00100000
00000000
00100000
00000000
10000000
00000000
00010000
10000000
00000000
00010000
10000000
00000000
,
01000000
01000000
01000000
00100000
00010000
00100000
00101000
00000000
,
00001000
00000000
00010000
00000000
00001000
00000000
00010000
00000000
00000100
00000000
00000000
00001000
00000000
00000000
00000010
00000000
,
00000200
00000302
00002003
00003200
,
00020300
00000000
00000000
00000000
,
00032000
00000000
00000000
00103000
,
00010000
00000000
01000000
00000000
00000000
01000000
00000000
00000000
10000000
00000000
00000000
00010000
00000000
00000000
10000000
00000000
,
00100000
00000000
01000000
00000000
00000000
01000000
00000000
00000000
00001000
00000000
00000000
00001000
00000000
00000000
00010000
00000000
,
00000200
00000000
00000000
00000000
,
00002300
00000000
00000000
00000000
,
00003010
00000000
00000100
00000000
00000000
00000100
00000000
00000000
00000001
00000000
00000000
00001000
00000000
00000000
00000001
00000000
,
00001000
00000000
00000100
00000000
00000000
00000100
00000000
00000000
00010000
00000000
00000000
00010000
00000000
00000000
00010000
00000000
,
00001000
00100000
00001000
00100000
00010000
00000000
00010000
01000000
,
00100000
10000000
01000000
00100000
00010000
00000000
00100000
00001000
,
00010000
00000100
00010000
00001000
00010000
00000000
00000100
00001000
,
00000010
00000100
00000001
00001000
00000100
00000000
00010000
00001000
,
00011000
00001000
00010000
00001000
00100000
00000000
00100000
00010000
,
01010000
01000000
00100000
10000000
01000000
00000000
11000000
00000000
,
01000000
00010000
01000000
00000000
00100000
00000000
10000000
00000000
01000000
10000000
01000000
00000000
10000000
00000000
00100000
00000000
,
01000000
00000000
01010000
00000000
00000000
00000000
10100000
00000000
00000000
00000000
01010000
00000000
00000000
00000000
10000000
01000000
,
00100000
00000000
01000000
00010000
01000000
00010000
01000000
00010000
01000000
00000000
00100000
00000000
10000000
00000000
01000000
00000000
,
00000000
00000000
00100000
00000000
00001000
00000000
00010000
00000000
00001000
00010000
00001000
00000000
00010000
00000000
00000100
00000000
,
00001000
00000000
00000010
00000100
00000010
00000100
00000010
00000100
00000010
00000000
00001000
00000000
00000100
00000000
00000010
00000000
,
00000001
00000000
00001000
00000000
00000100
00000000
00010000
00000000
00001000
00000000
01000000
00000000
00010000
00000000
10000000
01000000
,
00100000
00000000
00100000
00010000
00100000
00010000
00100000
00010000
00100000
00000000
00001000
00000000
00010000
00000000
00000100
00000000
,
00001000
00000000
00000001
00000000
00000100
00000000
00000010
00000000
00001000
00000100
00001000
00000000
00000010
00000000
00001000
00000000
,
00000100
00000000
00010000
00001000
00010000
00001000
00010000
00001000
00010000
00000000
00001000
00000000
00100000
00000000
00010000
00000000
,
01000000
00100000
10000000
00010000
00100000
00000000
00101000
00000000
,
00100000
00000000
00010000
00000000
01000000
00100000
01000000
00100000
01000000
00000000
00100000
00000000
10000000
00000000
01000000
00000000
,
00100000
00000000
00010000
00100000
00010000
00100000
00010000
00100000
00010000
00000000
00100000
00000000
00001000
00000000
00001000
00000000
,
00010000
00000000
00000100
00000000
00001000
00000100
00000010
00000000
00000100
00000000
00000010
00000000
00000001
00000000
00000100
00000000
,
00000010
00000000
00001000
00000000
00000100
00010000
00000100
00000000
00010000
00000000
00001000
00000000
00100000
00000000
00010000
00000000
,
10000000
00000000
01000000
00000000
00100000
00010000
01000000
00010000
00100000
00000000
00001000
00000000
00010000
00000000
00000100
00000000
,
00001000
00000000
00000001
00000000
00001000
00000100
00000010
00000001
00001000
00000000
00000100
00000000
00010000
00000000
00001000
00000000
,
00010000
00001000
00010000
00000000
00001000
00100000
00001000
00000000
00100000
00010000
00100000
00000000
00010000
01000000
00100000
00000000
,
10000000
00000000
10010000
00000000
00000000
00000000
01100000
00000000
00000000
00000000
10010000
00000000
00000000
00000000
10000000
01000000
,
00100000
00100000
00100000
00001000
00010000
00000100
00001000
00000010
,
00000000
00001001
00001000
00001010
00001000
00000100
00010000
00001000
,
00100000
00000000
00010000
00000000
01000000
00000000
01010000
00000000
01000000
00010000
01000000
00000000
00100000
00000000
10100000
00000000
,
10000000
00000000
10010000
00000000
00010000
00000000
00110000
00000000
00100000
00001000
00010000
00000000
00001000
00000000
00010000
00000100
,
00001000
00000000
00000010
00001000
00000010
00000000
00001000
00000001
00001000
00000000
00001010
00000000
00000010
00000000
00000110
00000000
,
00000100
00000000
00000101
00000000
00000001
00000000
00001001
00000000
00001000
00000100
00001000
00000000
00000010
00000000
00001000
00000000
,
00000100
00010000
00001000
00100000
00010000
10000000
01000000
00100000
,
00010000
00000000
00100000
00000000
00001000
00000000
00010000
00000000
00011000
00000000
00000000
00000000
00010000
00000000
00000100
00010000
,
00000100
00000000
00010000
00001000
00010000
00000000
00001000
00100000
00001000
00000000
00100000
00000000
00010000
00000000
01000000
00000000
,
00100000
10000000
00100000
10000000
00010000
01000000
00010000
01000000
00100000
00000000
10000000
00000000
00010000
00000000
00100000
00000000
,
00001000
00000000
00010000
00001000
00010000
00000000
00000100
00000000
00001000
00000010
00001000
00000000
00000001
00000000
00000100
00000000
,
00000010
00000000
00001000
00000100
00000010
00000000
00000001
00000000
00001001
00000000
00001000
00000000
00001010
00000000
00000010
00001000
,
00000010
00000000
00001000
00000100
00001000
00000000
00000100
00010000
00000100
00000000
00010000
00000000
00001000
00000000
00100000
00000000
,
00010000
01000000
00010000
01000000
00100000
10000000
00100000
10000000
00010000
00000000
00100000
00000000
00001000
00000000
00010000
00000000
,
00000100
00000000
00001000
00000100
00000000
00000010
00000001
00000000
00001000
00000000
00000100
00001000
00000000
00000100
00001000
00000000
,
00000200
00000000
00020000
00030300
,
00011000
00000000
00000000
00000000
;

//---------------dance-double - ----------------
#NOTES:
     dance-double:
     :
     Medium:
     10:
     0.458835,0.584867,0.238218,0.427150,0.090359,391.000000,362.000000,29.000000,52.000000,0.000000,0.000000,0.458835,0.584867,0.238218,0.427150,0.090359,391.000000,362.000000,29.000000,52.000000,0.000000,0.000000:
00000000
00000000
00000000
00000000
,
00000000
00000000
00000000
00000000
,
00000000
00000000
00000000
00000000
,
00000000
00000000
00000000
00000000
,
00000000
00000000
00000000
00000000
,
00000000
00000000
00000000
00000000
,
00000000
00000000
00000000
00000000
,
00000000
00000000
00000000
00000000
,
00000000
00000000
00000000
00000000
,
20000000
00000000
00000000
30010000
,
00200000
00000000
00000000
00301000
,
00020000
00000000
00000000
00030010
,
00002000
00000000
00000000
00003001
,
00002010
00000000
00000000
00003100
,
00020000
00000000
00000000
00031000
,
00200000
00000000
00000000
00310000
,
01000000
00100000
00000000
01100000
00000000
01100000
00000000
00000000
,
10000000
00010000
10000000
00000000
00010000
10000000
00010000
10000000
,
00000000
00100000
01000000
00000000
00001000
00000000
00010000
00000000
,
00001000
00000100
00001000
00000100
00001000
00000000
00000010
00000000
,
00000100
00000001
00000100
00000001
00000100
00000000
00000010
00000000
,
00001000
00000100
00001000
00000000
00000100
00001000
00000100
00001000
,
00000000
00000100
00010000
00000000
00001000
00000000
00100000
00000000
,
00010000
01000000
00010000
00100000
00010000
01000000
00010000
00000000
,
10000000
00100000
01000000
10010000
,
10010000
00000000
00000000
00000000
00100000
00000000
00000000
00000000
01000000
00000000
00000000
01000000
00000000
00000000
10000000
00000000
,
00010000
01000000
00001000
00011000
,
00001010
00000000
00000000
00000000
00000100
00000000
00000000
00000000
00000001
00000000
00000000
00000001
00000000
00000000
00001000
00000000
,
00000100
00001000
00001010
00011000
,
00110000
00000000
00000000
00000000
01010000
00000000
00000000
00000000
00100000
00000000
00000000
00100000
00000000
00000000
10000000
00000000
,
00010000
01010000
00110000
00001000
,
00011000
00000000
00000000
00000000
00010010
00000000
00000000
00000000
00001000
00000000
00000000
00001000
00000000
00000000
00000001
00000000
,
00000100
00000110
00001010
00010010
,
00010000
00000000
00001000
00000000
00010000
00000000
00001000
00000000
00010000
00000000
00000000
00010000
00000000
00000000
00010000
00000000
,
00001000
00100000
00001000
00100000
00010000
00000000
01100000
00000000
,
10000000
00000000
00100000
00000000
10000000
00000000
00100000
00000000
10000000
00000000
00000000
10000000
00000000
00000000
00010000
00000000
,
00100000
00001000
00100000
00001000
00010000
00000000
00011000
00000000
,
00010000
00000000
00010000
00000000
00010000
00000000
00010000
00000000
00000100
00000000
00000000
00000100
00000000
00000000
00001000
00000000
,
00000001
00000001
00000001
00001000
00000100
00000000
00010000
00000000
,
00001000
00000000
00001000
00000000
00100000
00000000
00100000
00000000
00010000
00000000
00000000
01000000
00000000
00000000
10000000
00000000
,
00020000
00230000
02300000
23000000
,
30020000
00000000
00000000
00030000
,
02000000
00000000
00000000
03100000
,
20000000
00000000
00000000
31000000
,
00200000
00000000
00000000
00301000
,
00022000
00000000
00000000
00033000
,
00020000
00000000
00000000
00030010
,
00002000
00000000
00000000
00003100
,
00000020
00000000
00000000
00000031
,
00000100
00000000
00000010
00000000
00000000
00000010
00000000
00000000
00001000
00000000
00000000
00001000
00000000
00000000
00001000
00000000
,
00000100
00000000
00010000
00000000
00000000
00010000
00000000
00000000
00001000
00000000
00000000
00001000
00000000
00000000
00001000
00000000
,
00100000
00000000
00010000
00000000
00000000
00010000
00000000
00000000
01000000
00000000
00000000
01000000
00000000
00000000
00100000
00000000
,
10000000
00000000
00010000
00000000
00000000
00010000
00000000
00000000
00100000
00000000
00000000
00100000
00000000
00000000
00100000
00000000
,
00001000
00000000
00010000
00000000
00000000
00010000
00000000
00000000
00010000
00000000
00000000
00010000
00000000
00000000
00000100
00000000
,
00001000
00000000
00000010
00000000
00000000
00000010
00000000
00000000
00000010
00000000
00000000
00000010
00000000
00000000
00000100
00000000
,
00000001
00001000
00000100
00010000
,
00001000
00010000
00000000
00011000
00000000
00011000
00000000
00010000
,
00001000
00000000
00001000
00000000
00100000
00010000
01000000
00100000
,
00000000
10000000
01000000
00000000
00100000
00000000
00001000
00000000
,
00010000
00000000
00001000
00001000
00001000
00000000
00010000
00000000
,
00000100
00001000
00000010
00000000
00000100
00000000
00000001
00000000
,
00001000
00000000
00000100
00000000
00010000
00001000
00010000
00001000
,
00000000
00001000
00100000
00000000
00010000
00000000
01000000
00000000
,
00100000
00000000
10000000
10000000
10000000
00000000
00010000
00000000
,
00100000
00001000
00010000
00011000
,
00020000
00030200
00002300
00003000
,
00000002
00000203
00000320
00000030
,
00020000
00032000
02003000
03000000
,
00200000
20300000
30020000
00030000
,
00200000
00302000
00023000
00030000
,
00000020
00002030
00003200
00000300
,
00000202
00000303
00002200
00003300
,
00000100
00010000
00000000
00010100
00000000
00010100
00000000
00010000
,
00001000
00010000
00001000
00000000
00100000
00010000
00100000
00010000
,
00000000
10000000
01000000
00000000
00100000
00000000
00001000
00000000
,
00010000
00001000
00010000
00001000
00010000
00000000
00000100
00000000
,
00001000
00000010
00001000
00000001
00001000
00000000
00000100
00000000
,
00010000
00001000
00010000
00000000
00001000
00100000
00001000
00100000
,
00000000
00010000
00100000
00000000
00010000
01000000
00100000
00000000
,
10000000
00010000
10000000
00010000
10000000
00000000
00100000
00000000
,
01000000
00010000
00100000
00010000
01000000
00000000
00001000
00000000
,
00010000
00001000
00010000
00000000
00000100
00001000
00000100
00001000
,
00000020
00000230
00000302
00002003
,
00003100
00001000
00000100
00000000
00010000
00001000
00010000
00000000
,
00001000
00100000
00001000
00100000
00001000
00000000
00100000
00000000
,
00010000
01000000
00100000
00000000
10000000
00100000
01000000
00100000
,
20000000
30020000
00230000
00302000
,
00013000
00000000
00000000
00010000
00000000
00000000
00010000
00000000
00000100
00000000
00000000
00000100
00000000
00000000
00000100
00000000
,
00002000
00000000
00000002
00003003
,
00001001
00000000
00000000
00000000
;

//---------------dance-double - ----------------
#NOTES:
     dance-double:
     :
     Easy:
     7:
     0.448273,0.657976,1.281451,0.427150,0.000000,382.000000,226.000000,156.000000,52.000000,0.000000,0.000000,0.448273,0.657976,1.281451,0.427150,0.000000,382.000000,226.000000,156.000000,52.000000,0.000000,0.000000:
00000000
00000000
00000000
00000000
,
00000000
00000000
00000000
00000000
,
00000000
00000000
00000000
00000000
,
00000000
00000000
00000000
00000000
,
00000000
00000000
00000000
00000000
,
00000000
00000000
00000000
00000000
,
00000000
00000000
00000000
00000000
,
00000000
00000000
00000000
00000000
,
00000000
00000000
00000000
00000000
,
00200000
00000000
00000000
00300000
,
00002000
00000000
00000000
00003000
,
00020000
00000000
00000000
00030000
,
00000020
00000000
00000000
00000030
,
00002000
00000000
00000000
00003000
,
00000002
00000000
00000000
00000003
,
00002002
00000000
00000000
00003003
,
00001010
00000000
00000000
00000000
,
00001100
00001100
00001010
00001010
,
00001001
00001001
00001010
00001010
,
00001100
00001100
00011000
00011000
,
01010000
01010000
10010000
10010000
,
00110000
00110000
00011000
00011000
,
00001010
00001010
00001001
00001001
,
00001100
00001100
00011000
00011000
,
00110000
01010000
10010000
00000000
,
10100000
10100000
20200000
30300000
,
00110000
00110000
00220000
00330000
,
00011000
00011000
00022000
00033000
,
00010100
00010100
00020200
00030300
,
00001010
00001010
00000202
00000303
,
00001010
00001010
00002200
00003300
,
00011000
00011000
00202000
00303000
,
00220000
00330000
22000000
33000000
,
01100000
01100000
10010000
10010000
,
00110000
00110000
00220000
00330000
,
00011000
00011000
00010100
00010100
,
00001010
00001001
00002200
00003300
,
00010100
00010100
00011000
00011000
,
00101000
01001000
02020000
03030000
,
10100000
10100000
01010000
01010000
,
00220000
00000000
00330000
00000000
,
00200000
00000000
00000000
00000000
,
00302000
00000000
00000000
00000000
,
00023000
00000000
00000000
00000000
,
00030020
00000000
00000000
00000000
,
00002030
00000000
00000000
00000000
,
00003200
00000000
00000000
00000000
,
00000320
00000000
00000000
00000000
,
00000032
00000000
00000000
00000000
,
00000103
00000010
00000110
00000110
,
00001000
00000001
00001001
00001001
,
00001000
00000100
00011000
00011000
,
00100000
00010000
10010000
10010000
,
01000000
00100000
00110000
00110000
,
00001000
00010000
00010100
00010100
,
00001000
00000100
00000011
00000011
,
00002002
00000000
00003003
00000000
,
00000010
00000000
00001001
00001001
,
00000000
00001000
00000100
00010000
,
00001000
00000000
00011000
00011000
,
00000000
00100000
00010000
01000000
,
00100000
00000000
10010000
10010000
,
00000000
01000000
00001000
00010000
,
00001000
00000000
00011000
00000000
,
00010000
00000100
00001000
00000000
,
00000002
00000000
00001003
00000000
,
00002000
00000000
00013000
00000000
,
00020000
00000000
10030000
00000000
,
10010000
00000000
01100000
00000000
,
20000000
00000000
30010000
00000000
,
00020000
00000000
00031000
00000000
,
00002000
00000000
00003001
00000000
,
00000220
00000000
00000330
00000000
,
00000101
00000101
00001100
00001100
,
00000011
00000101
00001001
00000101
,
00001010
00001010
00001100
00001100
,
00010100
00011000
00010100
00011000
,
00101000
00101000
01001000
01001000
,
10010000
01010000
00110000
01010000
,
00110000
00110000
00101000
00101000
,
00011000
00010100
00011000
00000000
,
00001100
00001100
00000011
00000011
,
00001000
00000001
00001000
00000000
00000001
00001000
00000001
00000000
,
00001001
00001001
00001100
00001100
,
00000100
00010000
00011000
00000000
,
00110000
00110000
01010000
01010000
,
10000000
00010000
10000000
00000000
00010000
10000000
00010000
00000000
,
10010000
00000000
00011000
00000000
,
00001001
00000000
00011000
00000000
,
10010000
00000000
00000000
00000000
;

//---------------dance-single - ----------------
#NOTES:
     dance-single:
     :
     Easy:
     7:
     0.454141,0.657976,1.215736,0.443579,0.000000,387.000000,239.000000,148.000000,54.000000,0.000000,0.000000,0.454141,0.657976,1.215736,0.443579,0.000000,387.000000,239.000000,148.000000,54.000000,0.000000,0.000000:
0000
0000
0000
0000
,
0000
0000
0000
0000
,
0000
0000
0000
0000
,
0000
0000
0000
0000
,
0000
0000
0000
0000
,
0000
0000
0000
0000
,
0000
0000
0000
0000
,
0000
0000
0000
0000
,
0000
0000
0000
0000
,
0020
0000
0000
0000
,
2030
0000
0000
0000
,
3200
0000
0000
0000
,
0302
0000
0000
0000
,
0023
0000
2030
0000
,
3200
0000
0302
0000
,
2003
0000
3020
0030
,
1001
0000
0000
0000
,
1100
1100
0101
0101
,
1100
0101
1100
0101
,
0011
0011
1010
1010
,
0011
1010
0011
1010
,
0110
0110
1001
1001
,
0011
1100
0011
1100
,
1001
1001
0110
0110
,
1010
0101
2002
3003
,
0110
0110
0220
0330
,
1100
0110
0022
0033
,
1001
1001
1001
0000
,
0011
0110
2200
3300
,
0110
0110
2002
3003
,
1100
1100
0022
0033
,
0011
0011
2200
3300
,
1001
1001
0220
0330
,
0000
1100
0000
1100
0000
0011
0000
0011
,
0000
0110
0000
0100
0010
0000
1001
0000
,
0000
0011
0000
0011
0000
1100
0000
1100
,
0000
0110
0000
0010
0100
0000
1001
0000
,
1100
1100
0011
0011
,
0110
0110
2002
3003
,
0011
0011
1100
1100
,
0020
0000
0200
0330
,
0002
0000
0000
0000
,
2003
0000
0000
0000
,
3020
0000
0000
0000
,
0230
0000
0000
0000
,
0302
0000
0000
0000
,
2003
0000
0000
0000
,
3200
0000
0000
0000
,
0320
0000
0000
0031
,
0002
0100
0100
0103
,
2000
0010
0010
3010
,
0200
0010
0010
0310
,
0002
1000
1000
1003
,
0220
0000
0000
0330
,
2002
0000
0000
3003
,
1000
0100
0010
0001
,
0220
0000
0000
0330
,
1000
0000
1001
1000
,
0000
0001
1001
0000
,
0010
0000
0110
0100
,
0000
0010
0110
0000
,
1000
0000
1100
1000
,
0000
0001
0011
0000
,
0100
0000
0011
0001
,
0000
1000
1100
0000
,
0010
0100
0010
0100
,
0001
1000
0001
1000
,
0001
0010
0100
1000
,
0001
0010
0100
1000
,
0101
0101
1001
1001
,
1100
1100
1001
1001
,
0110
1001
0110
1001
,
2002
0000
0000
3003
,
0001
0011
0011
0101
,
1000
1100
1100
1010
,
0010
0110
0110
1001
,
0100
0110
0110
1001
,
0011
0011
1100
1100
,
0011
1100
0011
1100
,
1010
1010
0101
0101
,
1010
0101
2002
3003
,
0110
0110
1001
1001
,
0001
1000
0001
0000
1000
0001
1000
0000
,
1001
1001
0110
0110
,
1100
0110
0011
0000
,
0110
0110
1001
1001
,
1000
0001
1000
0000
0001
1000
0001
0000
,
2000
3000
0002
0003
,
1001
0000
0110
0000
,
1001
0000
0000
0000
;

//---------------dance-single - ----------------
#NOTES:
     dance-single:
     :
     Beginner:
     3:
     0.161942,0.255879,0.065715,0.049287,0.000000,138.000000,130.000000,8.000000,6.000000,0.000000,0.000000,0.161942,0.255879,0.065715,0.049287,0.000000,138.000000,130.000000,8.000000,6.000000,0.000000,0.000000:
0000
0000
0000
0000
,
0000
0000
0000
0000
,
0000
0000
0000
0000
,
0000
0000
0000
0000
,
0000
0000
0000
0000
,
0000
0000
0000
0000
,
0000
0000
0000
0000
,
0000
0000
0000
0000
,
0000
0000
0000
0000
,
0010
0000
0000
0000
,
0001
0000
0000
0000
,
0100
0000
0000
0000
,
1000
0000
0000
0000
,
0010
0000
0000
0000
,
1000
0000
0000
0000
,
0100
0000
0000
0000
,
0001
0000
0000
0000
,
1000
0000
1000
0000
,
1000
0000
1000
0000
,
0001
0000
0001
0000
,
0001
0000
0001
0000
,
1000
0000
1000
0000
,
0001
0000
0001
0000
,
1000
0000
0001
0000
,
1000
0000
0001
0000
,
0200
0000
0300
0000
,
0100
0100
0100
0000
,
0020
0000
0030
0000
,
0010
0010
0010
0000
,
2000
0000
3000
0000
,
1000
1000
1000
0000
,
0002
0000
0003
0000
,
0001
0001
0001
0000
,
1000
0000
1000
0000
,
1000
1000
1000
0000
,
0001
0000
0001
0000
,
0001
0001
0001
0000
,
0100
0000
0100
0000
,
0100
0100
0100
0000
,
0010
0000
0010
0000
,
0020
0000
0030
0000
,
1000
0000
0000
0000
,
0100
0000
0000
0000
,
0010
0000
0000
0000
,
0001
0000
0000
0000
,
0001
0000
0000
0000
,
0010
0000
0000
0000
,
0100
0000
0000
0000
,
1000
0000
0000
0000
,
0010
0000
0000
0000
,
0100
0000
0000
0000
,
0001
0000
0000
0000
,
1000
0000
0000
0000
,
0010
0000
0000
0000
,
0010
0000
0000
0000
,
0100
0000
0000
0000
,
1001
0000
0000
0000
,
0010
0000
1001
0000
,
0000
0000
1001
0000
,
0000
0000
0001
0000
,
0000
0000
1000
0000
,
0000
0000
1001
0000
,
0000
0000
1001
0000
,
0000
0000
1000
0000
,
0000
0000
0001
0000
,
0001
0000
0000
0000
,
0100
0000
0000
0000
,
0010
0000
0000
0000
,
1000
0000
0000
0000
,
0100
0000
0000
0000
,
0010
0000
0000
0000
,
0001
0000
0000
0000
,
1001
0000
0000
0000
,
0010
0010
0010
0000
,
1000
0000
0001
0000
,
0100
0100
0100
0000
,
0001
0000
1000
0000
,
0010
0010
0010
0000
,
1000
0000
0001
0000
,
0100
0100
0100
0000
,
1001
0000
0000
0000
,
0010
0000
1000
0000
,
0001
0001
0001
0000
,
1000
1000
1000
0000
,
0010
0000
0100
0000
,
0001
0001
0001
0000
,
1000
1000
1000
0000
,
0010
0000
0100
0000
,
0020
0000
0030
0000
,
1001
0000
0000
0000
;

//---------------dance-single - ----------------
#NOTES:
     dance-single:
     :
     Medium:
     10:
     0.456488,0.584867,0.238218,0.418936,0.090359,389.000000,360.000000,29.000000,51.000000,0.000000,0.000000,0.456488,0.584867,0.238218,0.418936,0.090359,389.000000,360.000000,29.000000,51.000000,0.000000,0.000000:
0000
0000
0000
0000
,
0000
0000
0000
0000
,
0000
0000
0000
0000
,
0000
0000
0000
0000
,
0000
0000
0000
0000
,
0000
0000
0000
0000
,
0000
0000
0000
0000
,
0000
0000
0000
0000
,
0000
0000
0000
0000
,
2000
0000
0000
3001
,
0020
0000
0000
0130
,
2000
0000
0000
3100
,
0020
0000
0000
0031
,
0210
0000
0000
0301
,
2000
0000
0000
3001
,
0020
0000
0000
0031
,
0100
0010
0000
0110
0000
0110
0000
0000
,
1000
0001
1000
0000
0001
1000
0001
1000
,
0000
0010
0100
0000
0001
0000
0010
0000
,
0100
0010
0100
0010
0100
0000
1000
0000
,
0010
0100
0001
1001
,
1000
0010
1000
0000
0010
1000
0010
1000
,
0000
0001
0100
0000
0010
0000
1000
0000
,
0001
0100
0001
0010
0001
0100
0001
0000
,
1000
0010
0100
1001
,
1001
0000
0000
0000
0010
0000
0000
0000
0100
0000
0000
0100
0000
0000
1000
0000
,
0001
0100
0010
1001
,
0010
0000
0000
0000
0010
0000
0000
0000
0100
0000
0000
0100
0000
0000
0001
0000
,
1000
0010
0110
1001
,
0011
0000
0000
0000
0101
0000
0000
0000
0010
0000
0000
0010
0000
0000
1000
0000
,
0001
0101
0011
1000
,
1001
0000
0000
0000
0110
0000
0000
0000
0010
0000
0000
0010
0000
0000
1000
0000
,
0001
0100
0110
1001
,
0001
0000
1000
0000
0001
0000
1000
0000
0001
0000
0000
0001
0000
0000
0001
0000
,
1000
0010
0100
0010
1000
0000
0110
0000
,
1000
0000
0010
0000
1000
0000
0010
0000
1000
0000
0000
1000
0000
0000
0001
0000
,
0010
0001
0010
0001
0100
0000
1001
0000
,
0001
0000
0001
0000
0001
0000
0001
0000
0100
0000
0000
0100
0000
0000
0010
0000
,
1000
1000
1000
0001
0100
0000
1001
0000
,
0010
0000
0010
0000
0010
0000
0000
0000
0001
0000
0000
0100
0000
0000
1000
0000
,
0002
0023
0230
2300
,
3002
0000
0000
0003
,
0200
0000
0000
0310
,
2000
0000
0000
3100
,
0020
0000
0000
0031
,
2000
0000
0000
3010
,
0200
0000
0000
0301
,
2000
0000
0000
3010
,
0200
0000
0000
0301
,
0100
0000
0010
0000
0000
0010
0000
0000
1000
0000
0000
1000
0000
0000
0001
0000
,
0100
0000
0001
0000
0000
0001
0000
0000
1000
0000
0000
1000
0000
0000
0010
0000
,
0100
0000
0001
0000
0000
0001
0000
0000
0100
0000
0000
0100
0000
0000
0010
0000
,
1000
0000
0001
0000
0000
0001
0000
0000
0010
0000
0000
0010
0000
0000
0010
0000
,
1000
0000
0001
0000
0000
0001
0000
0000
0001
0000
0000
0001
0000
0000
0100
0000
,
0010
0000
1000
0000
0000
1000
0000
0000
1000
0000
0000
1000
0000
0000
0001
0000
,
0100
0010
1000
1001
,
0100
0001
0000
1001
0000
1001
0000
0001
,
1000
0000
0010
0000
0010
0001
0100
0010
,
0000
1000
0100
0000
0010
0000
0001
0000
,
1000
0000
0001
0001
0001
0000
1000
0000
,
0010
0100
0001
0000
1000
0000
0100
0000
,
0010
0000
0001
0000
1000
0001
1000
0001
,
0000
1000
0010
0000
0100
0000
0001
0000
,
1000
0000
0010
0010
0010
0000
0100
0000
,
0001
1000
0001
1001
,
0002
0203
2300
3000
,
0002
0023
2030
3000
,
0002
0023
0230
0300
,
0020
2030
3002
0003
,
2000
3200
0320
0030
,
0002
0023
2030
3000
,
0220
0330
2002
3003
,
1000
0001
0000
1001
0000
1001
0000
0001
,
0100
0001
0100
0000
0001
1000
0001
0100
,
0000
0010
0100
0000
0010
0000
1000
0000
,
0001
0100
0001
0100
0001
0000
0010
0000
,
1000
0100
1000
0100
1000
0000
0010
0000
,
0001
0100
0001
0000
0010
1000
0010
1000
,
0000
0001
0010
0000
0001
0100
0010
0000
,
1000
0001
1000
0001
1000
0000
0010
0000
,
0100
0001
0010
0001
0100
0000
0001
0000
,
0001
1000
0001
0000
0010
0100
0010
0100
,
0002
0023
0230
2300
,
3001
0010
0001
0000
1000
0100
1000
0000
,
0010
0100
0010
0100
0010
0000
1000
0000
,
0001
0100
0010
0000
1000
0010
0100
0010
,
2000
3002
0023
0032
,
1003
0000
0000
1000
0000
0000
1000
0000
0001
0000
0000
0001
0000
0000
0100
0000
,
0020
0000
0200
0330
,
1001
0000
0000
0000
;
