#TITLE:Welcome to the Mosh Pit;
#SUBTITLE:;
#ARTIST:lapix;
#TITLETRANSLIT:;
#SUBTITLETRANSLIT:;
#ARTISTTRANSLIT:;
#GENRE:;
#CREDIT:;
#BANNER:Welcome to the Mosh Pit.png;
#BACKGROUND:Welcome to the Mosh Pit-bg.png;
#LYRICSPATH:;
#CDTITLE:;
#MUSIC:Welcome to the Mosh Pit.ogg;
#OFFSET:1.000000;
#SAMPLESTART:88.302322;
#SAMPLELENGTH:13.953491;
#SELECTABLE:YES;
#BPMS:0.000000=172.000000
,64.000000=86.000000
,70.000000=172.000000
,74.000000=86.000000
,78.000000=172.000000
;
#STOPS:38.500000=0.349000,
41.500000=0.349000,
44.500000=0.349000,
47.500000=0.349000,
216.500000=0.349000,
219.500000=0.349000,
222.500000=0.349000,
225.500000=0.349000
;
#BGCHANGES:;
#KEYSOUNDS:;
#ATTACKS:;

//---------------dance-single - ----------------
#NOTES:
     dance-single:
     :
     Hard:
     17:
     0.899992,1.085331,0.490268,0.212450,0.919253,771.000000,711.000000,60.000000,26.000000,0.000000,0.000000,0.899992,1.085331,0.490268,0.212450,0.919253,771.000000,711.000000,60.000000,26.000000,0.000000,0.000000:
0000
0000
0000
0000
,
0000
0000
0000
0000
,
0000
0000
0000
0000
,
0000
0000
0000
0000
,
0000
0000
0000
0000
0000
0000
0000
0000
0000
0000
0000
0000
0001
1000
0010
1000
,
0100
0000
0000
0000
0000
0000
0000
0000
0001
1000
0010
0100
0001
0000
2002
0000
,
3003
0010
0100
2002
3003
0010
1000
0202
,
0000
0303
0000
0000
0010
1000
0001
1000
,
0001
0010
0100
0000
0001
0000
2000
0000
0000
0000
3001
0100
0010
0000
0000
0000
,
1010
0010
0110
0100
0101
0001
1100
0100
,
0101
0001
0011
0010
1001
0001
0101
0100
,
0110
0010
1001
0001
0101
0100
1100
1000
,
0001
1001
1000
1001
0001
0011
0010
0110
,
0100
0110
0010
1010
1000
1001
0001
0011
,
0001
0010
0001
0100
0001
1000
0010
1000
0001
0100
0001
0010
0001
1000
0100
0010
,
0001
1000
0010
0100
0001
0000
1001
0000
,
1001
0000
0000
0010
0000
0010
1000
0000
0000
1001
0000
0000
1000
0000
0000
0010
0000
0010
0100
0000
0000
0001
0000
0000
,
1001
0000
0000
1000
0000
1000
0010
0000
0000
0110
0000
0000
1000
0000
0000
0001
0000
0000
1000
0000
0000
0001
0000
0000
,
1000
0000
0000
0010
0000
0000
0100
0000
0000
0001
0000
0000
1000
0000
0000
1001
0000
0001
0100
0000
0000
0110
0000
0000
,
0001
0000
0000
1001
0000
1000
0010
0000
0000
1001
0000
0000
0001
0000
0000
0010
0000
0000
0001
0000
0000
0010
0000
0000
,
0100
1000
0010
0000
1000
0010
1000
0010
,
0100
0001
0010
0000
1001
0000
0010
0001
,
1000
0100
1000
0000
0010
1000
0010
0000
1000
0100
1000
0000
1000
0001
1000
0000
,
1000
0010
1000
0000
1000
0001
1000
0000
0001
0000
0100
0000
0010
1000
0010
0000
,
0010
0100
0010
0000
0010
1000
0010
0000
0100
0010
1000
0000
0001
0000
0010
0000
,
0001
0100
0010
1000
0001
0000
0000
0000
1000
0000
0010
0000
1000
0100
1000
0000
,
0001
0100
0001
0000
1000
0100
1000
0000
0001
0100
0001
0000
1000
0010
0100
0000
,
0001
0100
0010
0000
1000
0001
0100
0000
0001
0000
0000
0000
1000
0010
1000
0010
,
0100
0001
0100
0001
1000
0010
0100
0001
1000
0100
1000
0000
0001
0100
0001
0000
,
1010
0000
0000
0000
0101
0000
0000
0000
1000
0000
0010
1000
0000
0010
1000
0000
,
0001
0100
0010
0000
1000
0010
0100
0000
0001
0000
1000
0010
0000
1000
0010
0000
,
1000
0001
0100
0001
1000
0010
0100
0010
0100
0000
0001
0100
0000
0001
0100
0000
,
1000
0001
0100
0001
0000
1000
0010
1000
0001
0000
0100
0001
0000
1000
0010
1000
,
0001
0000
1000
0010
0000
1000
0001
0000
0100
0000
0010
1000
0000
0001
0100
0000
,
0010
0000
1000
0100
0000
0010
0001
0000
0100
0000
0001
1000
0000
0010
0100
0000
,
0001
0000
1000
0100
0000
0010
0001
0000
1000
0100
1000
0100
1000
0100
1000
0100
,
1000
0100
1000
0100
0010
0001
0010
0001
0010
0001
0010
0001
0010
0001
0010
0001
,
1000
0100
0010
0001
1000
0100
0010
0001
2000
0000
0000
0000
0002
0000
0000
0000
,
3003
0000
0020
0200
0000
0000
0330
0000
,
0000
0001
2000
0020
,
3030
0000
0002
0200
0000
0000
0303
0000
,
0000
0000
0001
0000
1000
0000
0001
0000
0100
0000
0000
0000
0001
0000
1000
0100
,
0010
0100
1000
0000
0001
0000
1000
0000
0010
0000
0000
0000
0100
0000
0001
0100
,
0010
0100
0001
0000
1000
0000
0001
0000
0100
0000
0000
0000
0010
0000
1000
0001
,
0010
0001
1000
0000
0010
0000
1000
0100
0010
0000
0001
0100
0010
1000
0010
0000
,
1000
0010
0100
0001
0100
0000
0000
0000
0020
0000
0000
0000
0030
0000
0000
0000
,
1000
0100
0010
0002
0000
1003
0010
0200
,
0000
0301
1000
0020
0000
0030
0000
0000
,
1000
0001
1000
0020
0000
0130
0001
2000
,
0000
3010
1000
0000
0002
0000
0003
0000
,
1000
0001
1000
0010
1000
0000
0002
0000
0000
0000
0103
0000
0010
0000
2000
0000
,
0000
3001
0100
0020
0000
0030
0000
0000
,
1000
0000
0001
0000
0100
0000
0001
0000
1000
0001
1000
0000
0010
0000
0200
0000
,
0000
0301
0000
1000
1010
0010
0110
0100
,
0101
0001
1010
0010
1010
1000
1001
0001
,
1100
0100
0110
0010
0011
0001
1010
0010
,
0110
0000
0100
0000
0101
0000
0001
0000
1000
0000
0010
1000
0000
0001
0100
0010
,
1000
0000
0001
0100
0000
0010
1000
0100
1000
0000
0001
0100
0000
0001
0010
0100
,
1000
0000
0001
0010
0000
0001
0100
0010
1000
0010
1000
0010
0100
0001
0100
0001
,
1000
0100
0010
0001
1000
0010
0100
0001
1000
0000
1000
0000
0001
0000
0001
0000
,
1001
0000
0000
0000
0110
0000
0000
0000
0001
0000
0100
0001
0000
1000
0100
0010
,
0001
0000
1000
0010
0000
1000
0100
0010
0001
0000
1000
0100
0000
1000
0010
0100
,
0001
0000
0100
0010
0000
1000
0010
1000
0100
0000
1000
0001
0000
0010
0001
0100
,
0001
0000
1000
0010
0000
0100
0001
1000
0001
0000
0010
0001
0000
1000
0100
1000
,
0010
0000
0100
0001
0000
1000
0001
0100
0001
0000
1000
0010
0000
1000
0100
1000
,
0010
0000
0100
0001
0000
1000
0001
1000
0001
0000
0100
0010
0000
1000
0100
1000
,
0100
0000
0010
0001
0000
1000
0010
1000
0100
0000
1000
0001
0000
0010
0001
0100
,
0001
0000
0010
0001
0000
1000
0010
0100
0001
0000
1000
0010
0000
1000
0001
0000
,
1000
0100
1000
0010
1000
0001
0100
0001
0010
0000
0001
1000
0000
0010
1000
0100
,
1000
0000
0001
0010
0000
1000
0100
1000
0010
1000
0100
1000
0000
0001
0100
0000
,
0001
0010
0001
0010
0000
0001
0100
0000
0010
1000
0010
1000
0000
0100
1000
0000
,
0001
0010
0100
1000
0000
0010
0100
0000
0001
1000
0010
1000
0000
0001
0010
0000
,
1000
0100
0010
0001
1000
0100
0010
0001
1000
0100
1000
0100
0000
1000
0001
0000
,
0100
0010
0100
0010
0000
1000
0001
0000
0010
0001
0010
0001
0000
1000
0010
0000
,
0100
0001
0100
0001
0000
1000
0001
0000
0100
0001
0100
0000
0100
0001
0100
0000
,
0100
1000
0100
0000
0100
1000
0100
0000
0100
0001
0100
0000
0100
1000
0100
0000
,
0100
0001
1000
0010
0100
0001
1000
0010
0100
0000
0000
0000
1001
0000
0001
0000
,
0101
0000
0000
0000
1001
0000
0000
0000
1000
0001
0100
0000
0010
0000
0110
0000
,
0110
0000
0000
1001
0000
0000
1100
0000
0000
0101
0000
0001
,
1000
0000
0000
0110
0000
0000
1001
0000
0000
0011
0000
0001
,
1000
0000
0000
0000
0001
0010
0100
1000
0001
0000
0000
0000
0000
0000
0000
0000
;

//---------------dance-double - ----------------
#NOTES:
     dance-double:
     :
     Hard:
     17:
     0.839292,0.986665,0.433070,0.245134,0.661862,719.000000,666.000000,53.000000,30.000000,0.000000,0.000000,0.839292,0.986665,0.433070,0.245134,0.661862,719.000000,666.000000,53.000000,30.000000,0.000000,0.000000:
// measure 0
00000000
00000000
00000000
00000000
,  // measure 1
00000000
00000000
00000000
00000000
,  // measure 2
00000000
00000000
00000000
00000000
,  // measure 3
00000000
00000000
00000000
00000000
,  // measure 4
00000000
00000000
00000000
00000000
00000000
00000000
00000000
00000000
00000000
00000000
00000000
00000000
10000000
00100000
01000000
00010000
,  // measure 5
02000000
00000000
00000000
00000000
03200000
00000000
00000000
00000000
10300000
00010000
01000000
00010000
00100000
00000000
00002000
00000000
,  // measure 6
00000000
00013000
00000100
00002000
00000000
00003020
00000000
00000230
,  // measure 7
00000000
00000010
00000000
00000301
,  // measure 8
00000001
00000010
00000001
00000000
00000200
00000000
00000020
00000000
00000000
00000000
00000330
00000000
00001001
00000000
00000000
00000000
,  // measure 9
00001000
00000100
00010000
00001000
00011000
00001000
00101000
00100000
,  // measure 10
00110000
00010000
10010000
10000000
01010000
01000000
01001000
00001000
,  // measure 11
00011000
00010000
00010010
00000010
00000110
00000100
00000101
00000001
,  // measure 12
00001000
00000010
00000100
00000001
00001000
00000100
00010000
00001000
,  // measure 13
00100000
00010000
01000000
00100000
10000000
01000000
00100000
00010000
,  // measure 14
10000000
00100000
10000000
00010000
10000000
00100000
01000000
00010000
00100000
00001000
00100000
00010000
00100000
00001000
00010000
00001000
,  // measure 15
00010000
00000100
00001000
00000001
00000010
00000000
00001001
00000000
,  // measure 16
00001100
00000000
00000000
00001001
00000000
00000001
00001000
00000000
00000000
00000100
00000000
00000000
00010100
00000000
00000000
00011000
00000000
00001000
00100000
00000000
00000000
00110000
00000000
00000000
,  // measure 17
01010000
00000000
00000000
10010000
00000000
10000000
00010000
00000000
00000000
01010000
00000000
00000000
00010000
00000000
00000000
10000000
00000000
00000000
00100000
00000000
00000000
10000000
00000000
00000000
,  // measure 18
01000000
00000000
00000000
00100000
00000000
00000000
00010000
00000000
00000000
00001000
00000000
00000000
00010000
00000000
00000000
00011000
00000000
00010000
00000100
00000000
00000000
00001100
00000000
00000000
,  // measure 19
00001010
00000000
00000000
00001001
00000000
00000001
00001000
00000000
00000000
00001100
00000000
00000000
00000100
00000000
00000000
00010000
00000000
00000000
00001000
00000000
00000000
01000000
00000000
00000000
,  // measure 20
00100000
00000000
10000000
00000000
01000000
00000000
00100000
00000000
00010000
01000000
00010000
00000000
10000000
00000000
00200000
00000000
,  // measure 21
00000000
01300000
10010000
00000000
10000000
00010000
10000000
01000000
,  // measure 22
10000000
00100000
10000000
00000000
10000000
00010000
10000000
00000000
10000000
01000000
10000000
00000000
10000000
00100000
10000000
00000000
,  // measure 23
00100000
00000000
01000000
00000000
00010000
00000000
00001000
00000000
00010000
00000000
00000100
00000000
00001000
00000010
00001000
00000000
,  // measure 24
00001000
00000001
00001000
00000000
00001000
00000010
00001000
00000000
00000001
00000100
00000010
00000000
00001000
00000010
00000100
00000000
,  // measure 25
00000010
00001000
00000100
00000000
00001000
00000000
00000100
00000000
00010000
00000000
00000000
00000000
00001000
00000000
00010000
00000000
,  // measure 26
00000000
00001000
00010000
00000000
00001000
00000000
00100000
00000000
00000000
00010000
00100000
00000000
00010000
00000000
01000000
00000000
,  // measure 27
00000000
00100000
10000000
00000000
00100000
00000000
01000000
00000000
00010000
00000000
00100000
00000000
01000000
00000000
10000000
00000000
,  // measure 28
00010000
00100000
00010000
00100000
00001000
00010000
00000100
00001000
00000100
00000000
00000100
00000000
00000100
00000000
00001000
00000000
,  // measure 29
00000001
00000000
00000000
00000000
00001001
00000000
00000000
00000000
00001000
00000000
00000010
00001000
00000000
00000100
00001000
00000000
,  // measure 30
00000010
00001000
00000100
00000000
00000100
00010000
00001000
00000000
00001000
00000000
00010000
00001000
00000000
00010000
00001000
00000000
,  // measure 31
00010000
00001000
00100000
00000000
00100000
00010000
01000000
00000000
00100000
00000000
10000000
00010000
00000000
10000000
01000000
00000000
,  // measure 32
10000000
00100000
10000000
00010000
00000000
10000000
01000000
00000000
00100000
00000000
00010000
00100000
00000000
00001000
00100000
00000000
,  // measure 33
00001000
00010000
00000100
00010000
00000000
00001000
00010000
00000000
00000100
00000000
00001000
00000010
00000000
00001000
00000001
00000000
,  // measure 34
00001000
00000000
00000100
00010000
00000000
00001000
00010000
00000000
00001000
00000000
00100000
00010000
00000000
01000000
00010000
00000000
,  // measure 35
00100000
00000000
10000000
00010000
00000000
10000000
01000000
00000000
10000000
00100000
10000000
00100000
10000000
00100000
10000000
00100000
,  // measure 36
10000000
00100000
10000000
00100000
01000000
00010000
01000000
00010000
01000000
00010000
01000000
00010000
01000000
00010000
01000000
00010000
,  // measure 37
00100000
00001000
00010000
00000100
00002000
00000000
00000020
00000000
,  // measure 38
00003030
00000000
00000002
00000200
00000000
00000000
00000303
00000000
,  // measure 39
00000010
00001000
00000200
00020000
,  // measure 40
00030300
00000000
00002000
00020000
00000000
00000000
00033000
00000000
,  // measure 41
00200000
00000000
00000000
00000000
00320000
00000000
00000000
00000000
01030000
00000000
00100000
00000000
10000000
00000000
00010000
01000000
,  // measure 42
00010000
01000000
00010000
00000000
10000000
00000000
00100000
00000000
01000000
00000000
00001000
00000000
00010000
00000000
00000100
00010000
,  // measure 43
00000100
00010000
00000100
00000000
00001000
00000000
00000010
00000000
00000100
00000000
00000001
00000000
00001000
00000000
00000001
00000010
,  // measure 44
00000001
00000100
00000001
00000000
00001000
00000000
00000100
00000000
00010000
00000000
00001000
00000000
00100000
00000000
00010000
00000000
,  // measure 45
01000000
00000000
00100000
00000000
10000000
00010000
01000000
00100000
20000000
00000000
00000000
00000000
30000000
00000000
00000000
00000000
,  // measure 46
01000000
00100000
00010000
00002000
00000000
00013000
00001000
00000200
,  // measure 47
00000000
00000310
00000001
00002000
00000000
00000000
00003001
00000000
,  // measure 48
00000100
00000010
00001000
00000000
00000001
00000100
00000010
00002000
,  // measure 49
00000000
00003100
00010000
00001000
02000000
00000000
03000000
00000000
,  // measure 50
00010000
00100000
01000000
20000000
00000000
30010000
00100000
00002000
,  // measure 51
00000000
00013000
00000100
00001000
00000010
00001000
00000001
00001000
,  // measure 52
00000100
00000000
00001000
00000000
00000010
00000000
00001000
00000000
00000001
00000010
00000001
00000000
00002000
00000000
00000200
00000000
,  // measure 53
00000000
00003300
00001100
00000000
00010100
00010000
00011000
00001000
,  // measure 54
01001000
01000000
10010000
00010000
00110000
00100000
00101000
00001000
,  // measure 55
00001010
00000010
00000110
00000100
00000101
00000001
00001100
00000100
,  // measure 56
00010100
00000000
00010000
00000000
00011000
00000000
00001000
00000000
00100000
00000000
00010000
01000000
00000000
00100000
10000000
00000000
,  // measure 57
00100000
00000000
01000000
00010000
00000000
00100000
00001000
00000000
00010000
00000000
00000100
00001000
00000000
00000010
00001000
00000000
,  // measure 58
00000001
00000000
00001000
00000100
00000000
00001000
00000010
00000000
00001000
00000100
00001000
00000100
00010000
00000100
00010000
00000100
,  // measure 59
00010000
00001000
00010000
00000100
00010000
00001000
00010000
00000100
00001000
00000000
00000010
00000000
00000100
00000000
00000001
00000000
,  // measure 60
00001010
00000000
00000000
00000000
00000101
00000000
00000000
00000000
00001000
00000000
00000001
00001000
00000000
00000010
00001000
00000000
,  // measure 61
00000100
00000000
00001000
00000010
00000000
00001000
00000001
00000000
00001000
00000000
00000100
00010000
00000000
00000100
00010000
00000000
,  // measure 62
00001000
00000000
00010000
00001000
00000000
00010000
00001000
00000000
00100000
00000000
00010000
01000000
00000000
00010000
00100000
00000000
,  // measure 63
00010000
00000000
10000000
00100000
00000000
10000000
00010000
00000000
10000000
00000000
10000000
01000000
00000000
00100000
00010000
00000000
,  // measure 64
00100000
00000000
00001000
00000000
00010000
00000000
00000100
00000000
00001000
00000000
00000010
00000100
00000000
00000001
00001000
00000001
,  // measure 65
00001000
00000000
00000010
00001000
00000000
00000100
00001000
00000100
00001000
00000000
00000100
00010000
00000000
00001000
00010000
00001000
,  // measure 66
00010000
00000000
00001000
00100000
00000000
00010000
00100000
00010000
01000000
00000000
00010000
01000000
00000000
10000000
00010000
10000000
,  // measure 67
00010000
00000000
10000000
01000000
00000000
00100000
00010000
00000000
01000000
00000000
00100000
10000000
00000000
00010000
01000000
00000000
,  // measure 68
00010000
00100000
00010000
00100000
00001000
00010000
00001000
00010000
00000100
00000000
00001000
00000000
00000001
00000000
00001000
00000000
,  // measure 69
00000100
00001000
00000100
00000000
00010000
00000100
00010000
00000000
00001000
00000000
00100000
00000000
00010000
00000000
01000000
00000000
,  // measure 70
00010000
01000000
10000000
00000000
10000000
01000000
00010000
00000000
00100000
00000000
00001000
00000000
00010000
00000000
00000100
00000000
,  // measure 71
00001000
00000010
00000100
00000000
00000010
00000000
00001000
00000000
00000100
00000000
00001000
00000000
00010000
00000000
00001000
00000000
,  // measure 72
00010000
00001000
00100000
00000000
00010000
00000000
01000000
00000000
00010000
00000000
10000000
00000000
00100000
10000000
00010000
10000000
,  // measure 73
00100000
00000000
01000000
00000000
00001000
00010000
00001000
00100000
00001000
00000000
00010000
00000000
00000100
00001000
00000010
00001000
,  // measure 74
00000001
00000000
00001000
00000000
00000100
00000000
00000010
00000000
00000001
00000000
00000100
00000000
00000010
00001000
00000100
00001000
,  // measure 75
00000010
00000000
00001000
00000000
00000100
00010000
00001000
00010000
00000100
00000000
00010000
00000000
00001000
00100000
00010000
00100000
,  // measure 76
00010000
01000000
00100000
01000000
00100000
10000000
00100000
10000000
00010000
00000000
10000000
00000000
10010000
00000000
00000000
00000000
,  // measure 77
11000000
00000000
00110000
00000000
00101000
00001000
00011000
00010000
,  // measure 78
00010100
00000000
00000000
00001010
00000000
00000000
00001002
00000000
00000000
00000103
00000000
00000010
,  // measure 79
00001000
00000000
00000000
00001100
00000000
00000000
00010100
00000000
00000000
01001000
00000000
01000000
,  // measure 80
00010000
00000000
10000000
00000000
00100000
01000000
00010000
10000000
00100000
00000000
00000000
00000000
00000000
00000000
00000000
00000000
;

//---------------dance-double - ----------------
#NOTES:
     dance-double:
     :
     Medium:
     11:
     0.515949,0.657776,0.433070,0.228792,0.126653,442.000000,389.000000,53.000000,28.000000,0.000000,0.000000,0.515949,0.657776,0.433070,0.228792,0.126653,442.000000,389.000000,53.000000,28.000000,0.000000,0.000000:
// measure 0
00000000
00000000
00000000
00000000
,  // measure 1
00000000
00000000
00000000
00000000
,  // measure 2
00000000
00000000
00000000
00000000
,  // measure 3
00000000
00000000
00000000
00000000
,  // measure 4
00000000
00000000
00000000
00000000
,  // measure 5
00011000
00000000
00000000
00000000
00010000
00000000
00000100
00002000
,  // measure 6
00000000
00003010
00000100
00000002
00000000
00001003
00000010
00000200
,  // measure 7
00000000
00000000
00000000
00000300
,  // measure 8
00000010
00001000
00000100
00002000
00000000
00000000
00003001
00000000
,  // measure 9
00001010
00001100
00010100
00011000
,  // measure 10
00110000
01010000
10010000
00110000
,  // measure 11
00011000
00001010
00000101
00001001
,  // measure 12
00000010
00001000
00000100
00000000
00010000
00001000
00100000
00000000
,  // measure 13
01000000
00010000
10000000
00000000
00010000
00100000
00001000
00000000
,  // measure 14
00010000
00010000
00000100
00000100
00001000
00001000
00000001
00000001
,  // measure 15
00001000
00000100
00000010
00000001
00001000
00000000
00001001
00000000
,  // measure 16
00001100
00000100
00010100
00000000
00011000
00001000
00101000
00000000
,  // measure 17
00110000
00010000
01010000
00000000
00200000
00000000
20300000
00000000
,  // measure 18
30020000
00000000
00230000
00000000
00301000
00010000
00010100
00000100
,  // measure 19
00001000
00000001
00001001
00000001
00002000
00000000
00003200
00000000
,  // measure 20
00020300
00000000
00032000
00000000
00103000
00010000
01000000
00020000
,  // measure 21
00000000
00030000
10010000
00000000
10000000
00010000
10000000
00000000
,  // measure 22
00010000
00100000
00010000
00100000
00010000
01000000
00010000
01000000
,  // measure 23
00010000
10000000
00010000
00000000
00100000
00001000
00100000
00000000
,  // measure 24
00001000
00010000
00001000
00000000
00010000
00000100
00001000
00000100
,  // measure 25
00010000
00000000
00000100
00000000
00001000
00000000
00000001
00001000
,  // measure 26
00000000
00000000
00000000
00001000
00000100
00000000
00001000
00000000
00000000
00000000
00000000
00000100
00010000
00000000
00000100
00000000
,  // measure 27
00000000
00010000
00001000
00100000
00010000
01000000
00010000
01000000
,  // measure 28
00010000
10000000
00010000
10000000
00100000
01000000
00100000
01000000
,  // measure 29
00010000
00000000
00000000
00000000
10010000
00000000
00000000
00000000
00010000
00000000
00000000
00100000
00000000
00000000
00010000
00000000
,  // measure 30
00000000
00000000
00100000
00000000
00001000
00000000
00010000
00000000
00000100
00000000
00000000
00001000
00000000
00000000
00000010
00000000
,  // measure 31
00000000
00000000
00001000
00000000
00000001
00000000
00000100
00000000
00000010
00000000
00000000
00000010
00000000
00000000
00001000
00000000
,  // measure 32
00000100
00000000
00000000
00000100
00000000
00000000
00010000
00000000
00001000
00000000
00000000
00001000
00000000
00000000
00100000
00000000
,  // measure 33
00010000
00000000
00000000
00010000
00000000
00000000
01000000
00000000
00100000
00000000
00000000
10000000
00000000
00000000
00100000
00000000
,  // measure 34
01000000
00000000
00000000
00010000
00000000
00000000
01000000
00000000
00010000
00000000
00000000
00100000
00000000
00000000
00001000
00000000
,  // measure 35
00010000
00000000
00000000
00000100
00000000
00000000
00001000
00000000
00000001
00000000
00000000
00001001
00000000
00000000
00001000
00000000
,  // measure 36
00000000
00001100
00000000
00000000
00000100
00000000
00000000
00010100
00000000
00000000
00010000
00000000
00000000
00011000
00000000
00000000
,  // measure 37
00001000
00100000
00010000
00000000
02000000
00000000
00000000
00000000
,  // measure 38
03000000
20020000
00000000
30030000
,  // measure 39
00200000
00302000
00023000
00000000
,  // measure 40
00030000
00002200
00000000
00003300
,  // measure 41
00000010
00000001
00001000
00000100
,  // measure 42
00001000
00000100
00010000
00001000
,  // measure 43
01000000
00010000
10000000
01000000
,  // measure 44
00100000
00000000
00001000
00000000
00010000
00000000
00001000
00010000
,  // measure 45
00000000
00000100
00001000
00000000
00000020
00000000
00000030
00000000
,  // measure 46
00000001
00000000
00000000
00001001
00000000
00001000
00000000
00000100
,  // measure 47
00000000
00000010
00000000
00000001
00000000
00000000
00001000
00000000
,  // measure 48
00000000
00000100
00000000
00010000
,  // measure 49
00000000
00001000
00101000
00000000
,  // measure 50
00100000
00000000
00010000
10000000
00000000
00010000
00100000
00010000
,  // measure 51
00000000
10000000
01000000
20000000
00000000
00000000
00000000
00000000
,  // measure 52
00000000
00000000
30000000
00000000
00010000
00100000
00010000
00200000
,  // measure 53
00000000
00301000
00011000
00010100
,  // measure 54
00001100
00001001
00010100
00101000
,  // measure 55
00110000
10100000
01010000
00011000
,  // measure 56
00001010
00000000
00001001
00000000
00000010
00001000
00000100
00000000
,  // measure 57
00010000
00001000
01000000
00000000
00010000
10000000
00100000
00000000
,  // measure 58
10000000
00010000
00100000
00000000
00001000
00010000
00001000
00010000
,  // measure 59
00001000
00010000
00001000
00000000
00010000
00000010
00001000
00000010
,  // measure 60
00010000
00000000
00000000
00000000
00011000
00000000
00000000
00000000
00001000
00000000
00000000
00001000
00000000
00000000
00010000
00000000
,  // measure 61
00001000
00000000
00000000
00001000
00000000
00000000
00100000
00000000
00010000
00000000
00000000
00010000
00000000
00000000
01000000
00000000
,  // measure 62
00100000
00000000
00000000
00100000
00000000
00000000
10000000
00000000
00010000
00000000
00000000
00100000
00000000
00000000
00010000
00000000
,  // measure 63
10000000
00000000
00000000
00010000
00000000
00000000
00100000
00000000
00001000
00000000
00000000
00010000
00000000
00000000
00000100
00000000
,  // measure 64
00010000
00000000
00000000
00001000
00000000
00000000
00010000
00000000
00000010
00000000
00001000
00000010
00000000
00000000
00001000
00000000
,  // measure 65
00000001
00000000
00000100
00000001
00000000
00000000
00001000
00000000
00000010
00000000
00000000
00001000
00000000
00000000
00000100
00000000
,  // measure 66
00010000
00000000
00000000
00001000
00000000
00000000
00100000
00000000
00010000
00000000
10000000
00010000
00000000
00000000
00100000
00000000
,  // measure 67
00010000
00000000
10000000
00010000
00000000
00000000
00100000
00000000
00001000
00000000
00000000
00010000
00000000
00000000
00000100
00000000
,  // measure 68
00001000
00000010
00000100
00000001
00001000
00000000
00000100
00010000
,  // measure 69
00001000
00100000
00010000
00000000
01000000
00000000
00100000
10000000
,  // measure 70
00010000
01000000
00010000
00000000
00100000
00000000
00001000
00010000
,  // measure 71
00000100
00010000
00001000
00000000
00010000
00000010
00000100
00000001
,  // measure 72
00001000
00000010
00001000
00000000
00000001
00000000
00001000
00000010
,  // measure 73
00001000
00000001
00001000
00000000
00000100
00000000
00010000
00001000
,  // measure 74
00010000
00000100
00010000
00000000
00001000
00100000
00010000
00000000
,  // measure 75
00100000
00010000
01000000
00000000
00200000
00000000
20300000
00000000
,  // measure 76
30020000
02030000
03001000
00010000
,  // measure 77
00011000
00000000
00011000
00000000
00010000
00000100
00010000
00000100
,  // measure 78
00010000
00011000
00001000
00100000
,  // measure 79
01010000
00100000
10000000
01100000
,  // measure 80
00110000
00011000
00010100
00000000
;

//---------------dance-single - ----------------
#NOTES:
     dance-single:
     :
     Medium:
     11:
     0.526455,0.657776,0.457584,0.228792,0.130738,451.000000,395.000000,56.000000,28.000000,0.000000,0.000000,0.526455,0.657776,0.457584,0.228792,0.130738,451.000000,395.000000,56.000000,28.000000,0.000000,0.000000:
0000
0000
0000
0000
,
0000
0000
0000
0000
,
0000
0000
0000
0000
,
0000
0000
0000
0000
,
0000
0000
0000
0000
,
1001
0000
0000
0000
0001
0000
1000
0002
,
0000
0103
0001
2000
0000
3001
0100
0020
,
0000
0000
0000
0030
,
0010
1000
0001
2000
0000
0000
3001
0000
,
1010
0101
1001
0101
,
0011
0101
1001
0011
,
1001
1100
1010
1100
,
0001
1000
0001
0000
0001
1000
0010
0000
,
0100
0001
1000
0000
0001
0010
0001
0000
,
1000
0001
1000
0001
0100
0010
0100
0010
,
1000
0100
0010
0001
1000
0000
1001
0000
,
0011
0001
1001
0000
1001
1000
1010
0000
,
0011
0001
0101
0000
0020
0000
2030
0000
,
3002
0000
0023
0000
1030
0001
1001
0001
,
0100
0010
0110
0100
0002
0000
0023
0000
,
0230
0000
2300
0000
3010
0100
0001
2000
,
0000
3000
1001
0000
1000
0001
1000
0000
,
0001
0010
0001
0010
0001
0100
0001
0100
,
0001
1000
0001
0000
0010
1000
0010
0000
,
0100
0001
0100
0000
0001
0100
0010
0100
,
0001
0000
1000
0000
0010
0000
1000
0001
,
0000
0000
0000
1000
0010
0000
1000
0000
0000
0000
0000
0001
0100
0000
0001
0000
,
0000
0000
1000
0001
1000
0000
0000
0000
0001
0000
0100
0000
0001
0000
0100
0000
,
0001
1000
0001
1000
0010
0100
0010
0100
,
0001
0000
0000
0000
1001
0000
0000
0000
0001
0000
0000
0010
0000
0000
0001
0000
,
0000
0000
1000
0000
0001
0000
1000
0000
0010
0000
0000
1000
0000
0000
0001
0000
,
0000
0000
1000
0000
0010
0000
1000
0000
0001
0000
0000
0001
0000
0000
0100
0000
,
0010
0000
0000
0010
0000
0000
0100
0000
0001
0000
0000
0001
0000
0000
1000
0000
,
0001
0000
0000
0001
0000
0000
1000
0000
0010
0000
0000
1000
0000
0000
0010
0000
,
0100
0000
0000
0001
0000
0000
0100
0000
0001
0000
0000
1000
0000
0000
0001
0000
,
1000
0000
0000
0001
0000
0000
0100
0000
0010
0000
0000
0110
0000
0000
0100
0000
,
0000
0101
0000
0000
0001
0000
0000
1001
0000
0000
1000
0000
0000
1001
0000
0000
,
0001
1000
0010
0000
0200
0000
0000
0000
,
0300
2002
0000
3003
,
0020
2030
3002
0000
,
0003
0220
0000
0330
,
0001
1000
0010
0100
,
0010
0100
0001
0010
,
0100
1000
0010
0100
,
0010
0000
0100
0000
1000
0000
0100
0001
,
1000
0001
0100
0000
0020
0000
0030
0000
,
1000
0000
0000
1001
0000
0001
0000
0010
,
0000
0100
0000
1000
0000
0000
0001
0000
,
0000
0100
0000
1000
,
0000
0010
0110
0000
,
0010
0000
0001
1000
0000
0001
0010
0001
,
0000
1000
0100
2000
0000
0000
0000
0000
,
0000
0000
3000
0000
0001
1000
0001
2000
,
0000
3100
1001
1001
,
0110
0011
0110
1100
,
0011
1010
0101
1010
,
0101
0000
1010
0000
0010
0001
1000
0000
,
0010
1000
0001
0000
0001
1000
0010
0000
,
1000
0001
0010
0000
1000
0001
1000
0001
,
1000
0001
1000
0000
0010
0001
0100
0001
,
0010
0000
0000
0000
1001
0000
0000
0000
1000
0000
0000
1000
0000
0000
0001
0000
,
1000
0000
0000
1000
0000
0000
0010
0000
0100
0000
0000
0100
0000
0000
0100
0000
,
0010
0000
0000
0010
0000
0000
0010
0000
1000
0000
0000
0100
0000
0000
1000
0000
,
0001
0000
0000
0010
0000
0000
0001
0000
1000
0000
0000
0001
0000
0000
1000
0000
,
0010
0000
0000
1000
0000
0000
0001
0000
1000
0000
0010
1000
0000
0000
0001
0000
,
1000
0000
0010
1000
0000
0000
0001
0000
1000
0000
0100
1000
0000
0000
0001
0000
,
1000
0000
0010
1000
0000
0000
0001
0000
1000
0000
0001
1000
0000
0000
0001
0000
,
0100
0000
0010
0100
0000
0000
0010
0000
1000
0000
0000
0001
0000
0000
1000
0000
,
0010
0100
0001
1000
0001
0000
0010
0001
,
0100
0001
0010
0000
0001
1000
0010
1000
,
0001
0100
0001
0000
0001
0100
1000
0100
,
0001
0100
1000
0100
0001
0100
0010
0100
,
0001
1000
0001
0000
1001
0000
1000
0100
,
0010
0001
1000
0000
0010
0000
0001
0100
,
0001
1000
0001
0000
1000
0010
0001
0000
,
0010
0001
0100
0000
0020
0000
2030
0000
,
3002
0203
0310
0001
,
1001
0000
1001
0000
0001
0010
0100
1000
,
0001
1001
1000
0110
,
1001
0110
1000
0110
,
0011
1100
1001
0000
;

//---------------dance-single - ----------------
#NOTES:
     dance-single:
     :
     Easy:
     7:
     0.438907,0.591999,0.719060,0.204278,0.000000,376.000000,288.000000,88.000000,25.000000,0.000000,0.000000,0.438907,0.591999,0.719060,0.204278,0.000000,376.000000,288.000000,88.000000,25.000000,0.000000,0.000000:
0000
0000
0000
0000
,
0000
0000
0000
0000
,
0000
0000
0000
0000
,
0000
0000
0000
0000
,
0000
0000
0000
0000
,
1001
0000
0000
0000
0000
0000
0000
0220
,
0000
0330
0000
2002
0000
3003
0000
0220
,
0000
0000
0000
0330
,
1001
0000
0000
2000
0000
0000
3001
0000
,
0010
0100
1001
0010
,
0100
1001
0010
1001
,
1100
0010
1001
0101
,
0010
0001
0100
1000
,
0010
0001
0100
1000
,
0010
0100
0010
0000
0100
0010
0100
0000
,
0010
0100
0010
0100
0010
0000
1001
0000
,
1000
0001
1001
0000
0001
1000
1001
0000
,
1000
0001
1001
0000
0100
0000
0100
0000
,
0100
0000
0100
0000
0001
1000
1001
0000
,
1000
0001
1001
0000
0010
0000
0010
0000
,
0100
0000
0100
0000
1000
0001
1000
0001
,
0000
0001
1000
1001
,
0001
0011
1000
1010
,
0001
0101
0010
1010
,
0100
0101
1001
1001
,
0101
1001
0010
1000
,
0001
1010
1000
0101
,
0001
1001
0101
0101
,
1001
1001
0011
0101
,
1001
0101
0010
0001
,
0100
1000
0010
1000
,
0100
0001
0010
0001
,
0010
0001
0010
0001
,
0100
1000
0010
1000
,
0010
1000
0010
0001
,
0100
0000
1000
0000
0010
0000
0000
0110
,
0000
0000
0001
0000
0000
1001
0000
0000
,
1001
0000
0200
0000
,
0300
2002
0000
3003
,
0020
2030
3002
0000
,
0003
0220
0000
0330
,
0001
1000
0010
0100
,
0010
0100
0001
0010
,
0100
1000
0010
0100
,
0010
0100
1000
0100
,
0010
0001
0020
0000
,
0030
0000
0002
0000
,
0003
0000
0200
0000
,
0300
0000
2000
0000
,
3000
0000
0010
1000
,
0001
1000
0010
1000
,
0100
0001
0010
0010
,
0100
0000
0100
0000
1000
0001
1000
0001
,
0000
0110
1000
0100
,
0011
0001
0010
1100
,
0010
1010
0101
0010
,
0101
1010
0010
1001
,
0010
1001
0100
1001
,
0100
0000
1001
0000
1000
0001
1000
0001
,
1000
0001
1000
0000
0011
0000
0101
0000
,
1001
0000
0110
0000
1000
0001
1000
0000
,
0001
1000
0001
0000
1000
0000
0100
0000
,
0010
0000
0001
0000
1000
0001
1000
0000
,
0001
1000
0001
0000
0001
0000
0010
0000
,
0100
1000
1001
1010
,
1001
1010
1001
0101
,
1001
0101
0010
0001
,
0100
1000
0010
0110
,
2002
3003
0001
0010
,
0100
1001
1000
0100
,
0010
1001
0001
1100
,
0001
1100
1000
0101
,
1000
0101
1000
0100
,
0010
1001
0001
0010
,
0100
1001
1000
0011
,
1000
0011
0020
2030
,
3002
0203
0310
0001
,
1001
1001
0001
0110
,
1001
1001
1000
0010
,
1001
0010
1000
0101
,
0011
0101
1001
0000
;

//---------------dance-single - ----------------
#NOTES:
     dance-single:
     :
     Beginner:
     5:
     0.207780,0.361777,0.114396,0.171594,0.000000,178.000000,164.000000,14.000000,21.000000,0.000000,0.000000,0.207780,0.361777,0.114396,0.171594,0.000000,178.000000,164.000000,14.000000,21.000000,0.000000,0.000000:
0000
0000
0000
0000
,
0000
0000
0000
0000
,
0000
0000
0000
0000
,
0000
0000
0000
0000
,
0000
0000
0000
0000
,
1001
0000
0000
0000
0000
0000
0000
0020
,
0000
0030
0000
0002
0000
0003
0000
0200
,
0000
0000
0000
0300
,
0001
0000
0000
1000
0000
0000
0000
0000
,
0020
0000
0030
0200
,
0000
0300
0020
0000
,
0030
0200
0000
0300
,
0010
0000
0010
0000
,
0100
0000
0100
0000
,
0010
0010
0010
0010
,
0100
0100
0100
0000
,
1000
1001
0001
1001
,
1000
1001
0100
0000
,
0100
0000
0001
1001
,
1000
1001
0100
0000
,
0100
0000
2002
0000
,
3003
0000
1000
1000
,
1000
0000
0001
0001
,
0001
0000
0010
0010
,
0010
0000
0100
0100
,
0100
0000
0010
0000
,
1000
0000
0100
0000
,
0001
0000
0010
0010
,
0010
0000
0100
0100
,
0100
0000
0010
0000
,
0100
0000
0010
0000
,
0100
0000
0001
0000
,
1000
0000
0001
0000
,
1000
0000
0010
0000
,
1000
0000
0100
0000
,
0001
0000
1001
0000
,
0000
1001
0000
0000
,
1001
0000
0200
0000
,
0000
0000
0300
0000
,
0000
0000
0020
0000
,
0000
0000
0030
0000
,
0000
0000
0010
0000
,
0010
0000
0100
0000
,
0100
0000
1000
0000
,
0001
0000
1000
0000
,
0001
0000
0020
0000
,
0030
0000
0002
0000
,
0003
0000
0200
0000
,
0300
0000
2000
0000
,
3000
0000
0010
0010
,
0010
0000
0100
0100
,
0100
0000
1000
0001
,
1000
0000
0001
1000
,
0001
0000
2000
0000
,
3000
0002
0000
0003
,
2000
0000
3000
0002
,
0000
0003
0010
0000
,
0010
0000
0100
0000
,
0100
0000
1000
0001
,
1000
0001
1000
1000
,
1000
0000
1000
0000
,
0001
0000
1000
0000
,
0001
0000
1000
1000
,
0001
0001
1000
0001
,
1000
0001
1000
0000
,
0001
0000
1000
0000
,
0001
0000
1000
1000
,
0001
0001
1000
0001
,
2002
3003
1000
0000
,
0010
0000
0001
0000
,
0100
0000
1000
0000
,
0100
0000
0010
0000
,
0001
0000
1000
0000
,
0001
0000
1000
0000
,
0001
0000
0100
0000
,
0100
0000
0010
0000
,
0010
0000
0001
0001
,
0001
0000
1000
1000
,
1000
0000
1000
0000
,
1001
0000
0001
0000
,
1001
0000
1001
0000
;

//---------------dance-double - ----------------
#NOTES:
     dance-double:
     :
     Easy:
     7:
     0.394549,0.591999,0.555637,0.220621,0.000000,338.000000,270.000000,68.000000,27.000000,0.000000,0.000000,0.394549,0.591999,0.555637,0.220621,0.000000,338.000000,270.000000,68.000000,27.000000,0.000000,0.000000:
// measure 0
00000000
00000000
00000000
00000000
,  // measure 1
00000000
00000000
00000000
00000000
,  // measure 2
00000000
00000000
00000000
00000000
,  // measure 3
00000000
00000000
00000000
00000000
,  // measure 4
00000000
00000000
00000000
00000000
,  // measure 5
00011000
00000000
00000000
00000000
00000000
00000000
00000000
00011000
,  // measure 6
00000000
00000000
00000000
00011000
00000000
00000000
00000000
00022000
,  // measure 7
00000000
00000000
00000000
00033000
,  // measure 8
00010000
00000000
00001000
00020000
00000000
00000000
00030000
00000000
,  // measure 9
00001000
00100000
00010000
10000000
,  // measure 10
00100000
00010000
00100000
00001000
,  // measure 11
00010000
00000010
00001000
00000001
,  // measure 12
00000100
00000100
00000010
00000010
,  // measure 13
00000100
00000100
00000010
00000010
,  // measure 14
00000100
00000100
00000100
00000000
00000010
00000010
00000010
00000000
,  // measure 15
00000001
00000010
00000100
00000000
,  // measure 16
00001000
00001100
00010000
00011000
,  // measure 17
00100000
00110000
20000000
30200000
,  // measure 18
00320000
00030000
10000000
10100000
,  // measure 19
00100000
00110000
00020000
00032000
,  // measure 20
00023000
00000000
00030000
00000000
00001000
00000000
00010000
00002000
,  // measure 21
00000000
00003000
00100000
00010000
,  // measure 22
01000000
00100000
10000000
00100000
,  // measure 23
01000000
00001000
00010000
00000100
,  // measure 24
00001000
00000001
00001000
00000001
,  // measure 25
00001000
00001000
00001000
00000000
00000001
00000000
00000100
00000000
,  // measure 26
00001000
00000000
00010000
01000000
,  // measure 27
10000000
00000000
00010000
00100000
,  // measure 28
00001000
00010000
00000010
00000010
,  // measure 29
00000010
00001000
00000001
00000100
,  // measure 30
00001000
00001001
00001000
00000100
,  // measure 31
00000001
00001001
00001000
00001100
,  // measure 32
00000100
00010100
00010000
00011000
,  // measure 33
00001000
01001000
00010000
00110000
,  // measure 34
11000000
00110000
01000000
01001000
,  // measure 35
01010000
00000000
01001000
00000000
00011000
00000000
00000000
00011000
,  // measure 36
00000000
00000000
00011000
00000000
00000000
00011000
00000000
00000000
,  // measure 37
00010000
00000100
00010000
00000000
00002000
00000000
00000000
00000000
,  // measure 38
00000000
00200000
00000000
00000000
,  // measure 39
00000000
00303000
00200000
00000000
,  // measure 40
00000000
00020000
00000000
00000000
,  // measure 41
00000000
00330000
10000000
00100000
,  // measure 42
10000000
00100000
10000000
00010000
,  // measure 43
00100000
00001000
00010000
00000010
,  // measure 44
00010000
00000010
00001000
00000100
,  // measure 45
00000010
00000001
00000100
00000000
,  // measure 46
00000000
00000000
00000010
00001000
00000000
00000000
00000000
00001000
,  // measure 47
00000000
00000000
00000000
00001000
00000000
00000000
00000000
00000000
,  // measure 48
00000000
00000100
00000000
00010000
,  // measure 49
00000000
00001000
00200000
00300000
,  // measure 50
00010000
01000000
00100000
00100000
,  // measure 51
10100000
01010000
00100000
00100000
,  // measure 52
00101000
00000000
00011000
00000000
00010000
00000100
00010000
00000200
,  // measure 53
00000000
00010300
00011000
00011000
,  // measure 54
00101000
10100000
10100000
10010000
,  // measure 55
00110000
00110000
00010100
00010010
,  // measure 56
00010010
00001001
00000001
00000100
,  // measure 57
00001001
00001100
00000100
00010000
,  // measure 58
00001000
00101000
01010000
01010000
,  // measure 59
10010000
10010000
00110000
01010000
,  // measure 60
10010000
01010000
00020000
10030000
,  // measure 61
00020000
10030000
00020000
10030000
,  // measure 62
00010000
00100000
00002000
00013000
,  // measure 63
00002000
00013000
00000200
00010300
,  // measure 64
00000100
00001000
00000002
00000103
,  // measure 65
00000002
00000103
00000002
00000103
,  // measure 66
00000010
00001000
00000200
00010300
,  // measure 67
00000200
00010300
00001000
01000000
,  // measure 68
00010000
01000000
00010000
00100000
,  // measure 69
01000000
10000000
00010000
00100000
,  // measure 70
00001000
00010000
00001000
00000100
,  // measure 71
00000010
00000001
00001000
00000010
,  // measure 72
00010000
00001000
00100000
00100000
,  // measure 73
10010000
10010000
00100000
00100000
,  // measure 74
00011000
00011000
00000100
00000100
,  // measure 75
00011000
00011000
00100000
00010000
,  // measure 76
01000000
10010000
00100000
01100000
,  // measure 77
10010000
10010000
00100000
00001000
,  // measure 78
00010000
00011000
00010000
00000100
,  // measure 79
00001100
00000101
00001000
00000100
,  // measure 80
00001010
00010100
00011000
00000000
;
