#TITLE:Wedding Crashers;
#SUBTITLE:;
#ARTIST:SHK 「PUMP IT UP」 より;
#TITLETRANSLIT:;
#SUBTITLETRANSLIT:;
#ARTISTTRANSLIT:MAX from "PUMP IT UP";
#GENRE:;
#CREDIT:Toxsa Dalton;
#BANNER:Wedding Crashers.png;
#BACKGROUND:Wedding Crashers-bg.png;
#LYRICSPATH:;
#CDTITLE:;
#MUSIC:Wedding Crashers.ogg;
#OFFSET:1.342000;
#SAMPLESTART:35.021637;
#SAMPLELENGTH:14.545452;
#LASTBEATHINT:0.940501;
#SELECTABLE:YES;
#BPMS:0.000000=165.000000
;
#STOPS:132.000000=1.454544
;
#BGCHANGES:;
#KEYSOUNDS:;
#ATTACKS:;

//---------------dance-single - ----------------
#NOTES:
     dance-single:
     :
     Hard:
     11:
     0.558129,0.564191,0.184843,0.462107,0.201647,465.000000,443.000000,22.000000,55.000000,0.000000,0.000000,0.558129,0.564191,0.184843,0.462107,0.201647,465.000000,443.000000,22.000000,55.000000,0.000000,0.000000:
0000
0000
0000
0000
,
0000
0000
0000
0000
,
0000
0000
0000
0000
,
0000
0000
0000
0000
,
0000
0000
0000
0000
,
2001
0000
0000
0000
3020
0000
0000
0130
,
0002
2003
3020
0230
,
0301
0100
0001
0100
0010
0000
1000
0000
,
2002
0000
3003
0000
0100
0010
1000
0001
,
2000
0000
3100
0000
0002
0000
0103
0010
,
1000
0000
0000
1000
0001
0000
0000
0001
0100
0000
0000
0100
0001
0000
0000
0001
,
1000
0010
1000
0100
1000
0000
0001
0100
,
0010
0000
1000
0100
0010
0001
0100
0010
,
2000
0000
3001
0000
0020
0000
0031
0100
,
0010
0000
0000
0010
1000
0000
0000
1000
0100
0000
0000
0100
1000
0000
0000
1000
,
0010
0000
0100
0000
0010
0000
0100
0000
0010
0000
0000
0000
1000
0000
0000
1000
,
0002
0103
2002
3003
,
0020
0000
1030
0001
0200
0000
0301
1000
,
0010
0000
0000
0010
1000
0000
0000
1000
0010
0000
0000
0010
0100
0000
0000
0100
,
0002
0000
1003
0010
0200
0000
0310
1000
,
0100
0000
0000
0100
1000
0000
0000
1000
0001
0000
0000
0001
0100
0000
0000
0100
,
0002
0000
0103
0010
2000
0000
3001
0100
,
0002
0000
1003
0010
2000
0000
3020
0000
,
0130
0000
0000
0000
0001
0000
0000
0001
1000
0000
0000
0000
0010
0000
0100
0000
,
0002
0000
0103
0010
1000
0100
0010
0001
,
2000
0000
3001
0100
0002
0000
1003
0010
,
0100
0000
0000
0100
0001
0000
0000
0001
1000
0000
0000
1000
0010
0000
0000
0010
,
0100
0010
0100
0001
0100
0000
0001
1000
,
0010
0000
0001
0100
0010
0100
0001
1000
,
0020
0000
1030
0001
0200
0000
0301
1000
,
0010
0000
0000
0010
1000
0000
0000
1000
0001
0000
0000
0001
0100
0000
0000
0100
,
0001
0000
0010
0000
0001
0000
0100
0000
0001
0000
0000
0000
1000
0000
0000
1000
,
0002
0103
2002
3003
,
0110
0000
0000
0001
0000
0000
1000
0000
0000
1000
0000
0000
0100
0000
0000
0000
,
1000
0000
0000
1000
0000
0000
0001
0000
0000
1000
0000
0000
0010
0000
0100
0000
,
0001
0000
0000
0001
0000
0000
1000
0000
0000
1000
0000
0000
0010
0000
0100
0000
,
0001
0000
1000
0001
0000
0000
1000
0001
0000
0000
1000
0000
0100
0000
0010
0000
,
0001
0000
0100
0000
0010
0000
0100
0000
0000
0001
0000
0000
0001
0000
1000
0000
,
0100
0000
0010
0000
0001
0000
1000
0000
0000
0010
0000
0000
0010
0000
1000
0000
,
0100
0000
0010
0000
0100
0000
1000
0000
0000
0001
0000
0000
1000
0000
0010
0000
,
0000
0100
0100
0100
0100
0100
0100
0000
,
0001
1000
0100
1000
0010
0010
1000
0001
,
1000
0100
0010
0001
1000
0010
0100
0010
,
1000
0001
0010
0001
0100
0100
0001
1000
,
0001
1000
0100
0010
0001
0010
0100
1000
,
0001
0010
0001
0100
0010
0010
0100
0010
,
0100
0001
1000
0010
0100
0010
1000
0001
,
1000
0000
0001
0000
0100
0000
0000
0100
0000
0000
0001
0000
1000
0000
0010
0000
,
1000
0100
0010
0001
0200
0000
0301
0000
,
1002
0000
0103
0000
2001
0000
0000
3010
,
0100
0110
1001
1100
,
0010
0100
0001
0100
0010
1000
0010
0100
,
0001
0101
1100
0101
,
2010
0000
3001
0000
0102
0000
0000
1003
,
0010
0100
0001
0000
1000
0010
0100
0000
,
0001
0010
0100
0010
0001
0100
0001
0100
,
0010
1000
0100
1000
0010
0100
0010
0000
,
2000
0000
3001
0100
0002
0000
0023
0000
,
0032
0000
0103
0010
0200
0000
0301
0000
,
1000
0100
1000
0010
1000
0001
1000
0100
,
0010
0001
0010
0001
0100
0000
0110
0000
,
1001
0000
0100
0001
0100
0000
0010
0000
,
1001
0000
1000
0010
1000
0000
0100
0000
,
1000
0001
0100
0001
1000
0100
0010
0001
,
0100
0010
0100
0010
1000
0000
1001
0000
,
0002
0000
0103
0010
2000
0000
3010
0100
,
0001
0000
0000
0001
1000
0000
0000
1000
0010
0000
0000
0010
0100
0000
0000
0100
,
0001
1000
0001
1000
0001
0000
1000
0100
,
0010
0000
1000
0001
1000
0100
1000
0010
,
0200
0000
0301
0010
0002
0000
1003
0100
,
0010
0000
0000
0010
0001
0000
0000
0001
1000
0000
0000
1000
0100
0000
0000
0100
,
0010
0001
0010
0100
0010
0000
0001
0100
,
0020
1030
2002
3003
,
0020
0000
0030
0000
2000
0000
3000
0001
,
0100
0001
1000
0100
,
0020
0000
0000
0000
0030
0000
0000
0000
1001
0000
0000
0000
0001
0000
0000
0001
,
2000
0000
0000
3000
,
2002
0000
0000
0000
,
0000
0000
0000
0000
,
3003
0000
0000
0000
;

//---------------dance-double - ----------------
#NOTES:
     dance-double:
     :
     Hard:
     10:
     0.498116,0.531003,0.268862,0.462107,0.050412,415.000000,383.000000,32.000000,55.000000,0.000000,0.000000,0.498116,0.531003,0.268862,0.462107,0.050412,415.000000,383.000000,32.000000,55.000000,0.000000,0.000000:
00000000
00000000
00000000
00000000
,
00000000
00000000
00000000
00000000
,
00000000
00000000
00000000
00000000
,
00000000
00000000
00000000
00000000
,
00000000
00000000
00000000
00000000
,
00200000
00000000
00000000
00000000
00302000
00000000
00000000
00013000
,
00001000
00010000
00000010
00001000
,
00000001
00000100
00000010
00000100
00000001
00000000
00001000
00000000
,
00002002
00000000
00003003
00000000
00000010
00001000
00000100
00000000
,
00020000
00000000
00031000
00000000
00200000
00000000
00000000
00301000
,
00100000
00010000
01010000
01000000
,
00100000
10000000
01000000
10000000
00100000
00000000
01000000
00010000
,
00100000
00000000
00100000
00001000
00010000
00001000
00000100
00001000
,
00000020
00000000
00001030
00000000
00000002
00000000
00000000
00000103
,
00000010
00001000
00000001
00001000
,
00000100
00001000
00000010
00001000
00000100
00000000
00010000
00001000
,
00200000
00300000
20020000
30030000
,
01100000
00000000
00100000
10000000
01000000
00000000
10000000
00100000
,
02000000
03020000
00230000
00302000
,
00013000
00000000
00000100
00001000
00000001
00000000
00000001
00001000
,
00000200
00020300
00032000
02003000
,
03100000
00000000
10000000
01000000
00100000
00000000
01000000
00100000
,
00010000
00000000
00100000
00001000
00010000
00000000
00010100
00000000
,
00001100
00000000
00001000
00000010
00000100
00000000
00000001
00000000
,
00001100
00000110
00000011
00001001
,
00000002
00000000
00000103
00000000
00002000
00000000
00003100
00000010
,
00000001
00001100
00000010
00001100
,
00000100
00010000
00001000
00010000
00000100
00000000
00010000
00001000
,
01000000
00000000
00010000
00100000
01000000
10000000
01000000
00100000
,
00020000
00000000
01030000
00000000
00100000
00000000
10000000
01000000
,
00100000
01010000
00100000
11000000
,
00100000
00010000
00100000
00001000
00100000
00000000
00001000
00010000
,
00000020
00000030
00002002
00003003
,
00000110
00000000
00000000
00000001
00000000
00000000
00000001
00000000
00000000
00001000
00000000
00000000
00000100
00000000
00000000
00000000
,
00001000
00000000
00000000
00001000
00000000
00000000
00000100
00000000
00000000
00010000
00000000
00000000
00001000
00000000
00010000
00000000
,
00001000
00000000
00000000
00001000
00000000
00000000
01000000
00000000
00000000
01000000
00000000
00000000
00010000
00000000
10000000
00000000
,
00000000
00000000
00100000
01000000
00000000
00000000
00100000
01000000
00000000
00000000
00010000
00000000
10000000
00000000
00100000
00000000
,
01000000
00000000
00010000
00000000
00100000
00000000
00010000
00000000
00000000
00010000
00000000
00000000
00100000
00000000
00001000
00000000
,
00010000
00000000
00000010
00000000
00001000
00000000
00000001
00000000
00000000
00000001
00000000
00000000
00001000
00000000
00000100
00000000
,
00010000
00000000
00001000
00000000
00010000
00000000
00010000
00000000
00000000
00001000
00000000
00000000
00001000
00000000
01000000
00000000
,
00000000
00100000
00100000
00100000
00100000
00100000
00100000
00000000
,
10000000
00010000
00100000
00000000
00100000
00001000
00000000
00001000
,
00010000
00000100
00010000
00001000
00010000
00000100
00001000
00000000
,
00000010
00000100
00000001
00000000
00001000
00000100
00000000
00000100
,
00010000
00000100
00010000
00002000
00000000
00103000
00001000
00100000
,
00010000
01000000
00100000
10000000
00100000
00100000
00000000
00100000
,
10000000
01000000
00100000
00010000
00000000
00100000
00001000
00010000
,
00001000
00000000
00010000
00000000
00000100
00000000
00000000
00000100
00000000
00000000
00001000
00000000
00000010
00000000
00000100
00000000
,
00000001
00001000
00000100
00000020
00000001
00000000
00000031
00000000
,
00002000
00000000
00003100
00000000
00000020
00000000
00000031
00000100
,
00000002
00002003
00003200
00020300
,
00031000
00000000
00100000
00010000
01000000
00000000
00100000
10000000
,
01000000
11000000
01100000
00110000
,
02000000
00000000
03100000
00000000
20000000
00000000
30010000
00100000
,
00020000
02030000
03002000
00023000
,
00030100
00001000
00000100
00001000
00000010
00000000
00000100
00000001
,
00001000
00000110
00002002
00003003
,
00001001
00000000
00001000
00000100
00000010
00000000
00001100
00000000
,
00000101
00000000
00001000
00000100
00010000
00000000
00001000
00000000
,
00100000
00010000
01000000
00010000
10000000
00010000
00100000
00010000
,
01000000
00000000
00010000
00100000
00001000
00000000
00011000
00000000
,
00010100
00000000
00000100
00001000
00000010
00000000
00000110
00000000
,
00001001
00000000
00001000
00000001
00000100
00000000
00000010
00000000
,
00001000
00000100
00000010
00000001
00001000
00000100
00010000
00001000
,
01000000
00010000
10000000
00100000
02000000
00000000
03010000
00000000
,
10200000
00000000
10300000
00000000
02010000
00000000
00000000
03010000
,
10000000
00100000
10000000
00000000
00010000
00100000
00010000
00000000
,
00100000
00001000
00010000
00001000
00100000
00000000
00000010
00001000
,
00000010
00000000
00001000
00000100
00000010
00000001
00001000
00000100
,
00000020
00000000
00000031
00000100
00000002
00000000
00000000
00001003
,
00000100
00001000
00000001
00000000
00001000
00000100
00010000
00000000
,
00001000
00100000
00001000
00010000
00001000
00000000
00100000
00010000
,
02000000
03100000
20020000
30030000
,
20000000
00000000
30000000
00000000
00200000
00000000
00300000
01000000
,
00100000
01000000
00001000
00010000
,
00002000
00003000
00010000
00000100
,
00002000
00000000
00000000
00003000
,
00022000
00000000
00000000
00000000
,
00000000
00000000
00000000
00000000
,
00033000
00000000
00000000
00000000
;

//---------------dance-double - ----------------
#NOTES:
     dance-double:
     :
     Medium:
     8:
     0.345680,0.431440,0.100823,0.403294,0.004201,288.000000,276.000000,12.000000,48.000000,0.000000,0.000000,0.345680,0.431440,0.100823,0.403294,0.004201,288.000000,276.000000,12.000000,48.000000,0.000000,0.000000:
00000000
00000000
00000000
00000000
,
00000000
00000000
00000000
00000000
,
00000000
00000000
00000000
00000000
,
00000000
00000000
00000000
00000000
,
00000000
00000000
00000000
00000000
,
00020000
00000000
20030000
00000000
,
30100000
01000000
00001000
00010000
,
00000020
00000000
00000130
00000001
,
00002002
00003003
00000220
00000330
,
00000020
00000000
00002030
00000000
,
00003001
00000100
00000010
00001000
,
00000200
00000000
00000000
00000000
00010300
00000000
00001000
00010000
,
00001000
00010000
00001000
01000000
,
00020000
00000000
20030000
00000000
,
30100000
01000000
00010000
10000000
,
00020000
00000000
00000000
00000000
00130000
00000000
00010000
00100000
,
00020000
00000000
01030000
00000000
,
00200000
00300000
02000000
03000000
,
00001000
00010000
00000010
00000100
,
00000002
00000003
00002000
00003000
,
00000100
00010000
00001000
01000000
,
00200000
00300000
02000000
03000000
,
00010000
10000000
00100000
01000000
,
00010000
00000000
00100000
00010000
00100000
00000000
00001000
00000000
,
00010000
00000010
00001001
00000110
,
00001002
00000000
00000003
00000000
00002001
00000000
00000000
00003000
,
00000010
00001000
00000010
00000000
00001000
00000010
00000100
00000000
,
00000010
00000000
00001000
00000000
00000100
00000000
00010000
00001000
,
00010000
00001000
00100000
00010000
,
10020000
00030000
20010000
30000000
,
01000000
00100000
01000000
00000000
00010000
10000000
00010000
00000000
,
00100000
00000000
00001000
00000000
00010000
00000000
00000010
00001000
,
00000200
00000000
00010300
00000000
,
00011000
00000000
00000000
00100000
00000000
00100000
00000000
00001000
,
00000000
00010000
00000000
00010000
00000000
00000010
00000000
00001000
,
00000000
00000001
00000000
00000001
00000000
00001000
00000000
00000100
,
00000000
00010000
00000000
00010000
00000000
00010000
00001000
00000000
,
00100000
00000000
00010000
00000000
01000000
00010000
01000000
00000000
,
00100000
00000000
10000000
00000000
00100000
10000000
00100000
00000000
,
01000000
00000000
00010000
00000000
00100000
00010000
00100000
00000000
,
00000000
00001000
00010000
00001000
00010000
00001000
00010000
00000000
,
00000100
00000000
00000100
00000000
00001000
00000100
00000000
00000010
,
00000000
00000001
00000100
00001000
,
00000100
00000000
00000100
00000000
00000100
00010000
00000000
00001000
,
00010000
00001000
00010000
00001000
00000000
00000000
00100000
00000000
,
00010000
00000000
00010000
00000000
01000000
00010000
00000000
00010000
,
00000000
10000000
01000000
00000000
00100000
00000000
00010000
00000000
,
00100000
00000000
00000000
00000000
00001000
00000000
00000000
00001000
00000000
00000000
00001000
00000000
00000000
00000000
00000000
00000000
,
00010000
00000000
00001000
00020000
00000000
00000000
00030000
00000000
,
00000200
00000300
00000020
00000030
,
00001000
00000100
00000010
00000001
,
00001000
00000000
00000100
00001000
00000100
00000000
00010000
00000100
,
00010000
00000000
00001000
00000000
00100000
00010000
00100000
00010000
,
02000000
03000000
00200000
00300000
,
10000000
01000000
00100000
00010000
,
01000000
00000000
00010000
01000000
00010000
00000000
10000000
00100000
,
10000000
00010000
20020000
30030000
,
00100000
00000000
10000000
00100000
10000000
00000000
00100000
00000000
,
01000000
00000000
00010000
00100000
00010000
00000000
00100000
00000000
,
00001000
00000000
00010000
00001000
00010000
00000000
00000100
00000000
,
00001000
00000010
00000220
00000330
,
00000001
00000000
00001000
00000100
00001000
00000000
00000010
00000000
,
00010000
00000000
00001000
00010000
00001000
00000000
00100000
00000000
,
00010000
00000000
01000000
00100000
10000000
00000000
00100000
00000000
,
01000000
00000000
00010000
10000000
00020000
00000000
00030000
00000000
,
00200000
00300000
00002000
00003000
,
00010000
00000010
00000100
00000001
,
00001000
00000100
00001000
00000100
00001000
00000000
00000010
00000000
,
00000100
00000001
00001000
00000100
,
00020000
00030000
00002000
00003000
,
00100000
00010000
01000000
10000000
,
01000000
00000000
00010000
01000000
00010000
00000000
01000000
00000000
,
00020000
00030000
00200000
00300000
,
00002000
00003000
00020000
00030000
,
00000100
00001000
00000001
00001000
,
00000200
00000300
00020000
00030000
,
00002000
00000000
00000000
00003000
,
00022000
00000000
00000000
00000000
,
00000000
00000000
00000000
00000000
,
00033000
00000000
00000000
00000000
;

//---------------dance-double - ----------------
#NOTES:
     dance-double:
     :
     Easy:
     5:
     0.259260,0.365065,0.075618,0.411696,0.000000,216.000000,207.000000,9.000000,49.000000,0.000000,0.000000,0.259260,0.365065,0.075618,0.411696,0.000000,216.000000,207.000000,9.000000,49.000000,0.000000,0.000000:
00000000
00000000
00000000
00000000
,
00000000
00000000
00000000
00000000
,
00000000
00000000
00000000
00000000
,
00000000
00000000
00000000
00000000
,
00000000
00000000
00000000
00000000
,
00100000
00000000
01000000
00000000
,
00010000
00000000
10000000
00000000
,
00100000
00000000
01000000
00000000
,
00001000
00000000
00010000
00000000
,
00002000
00000000
00023000
00000000
,
00030010
00000010
00000100
00000100
,
00000001
00000010
00000100
00001000
,
00000010
00000000
00010000
00000000
,
00002000
00000000
00023000
00000000
,
00031000
00001000
00100000
00100000
,
00010000
01000000
00100000
10000000
,
00200000
00000000
01300000
00000000
,
20000000
30000000
00020000
00030000
,
10000000
01000000
00100000
00010000
,
00200000
00300000
00002000
00003000
,
00010000
00010000
00000100
00000100
,
00002000
00003000
00000002
00000003
,
00001000
00000100
00000010
00000001
,
00000100
00000010
00000100
00000010
,
00001000
00000100
00000010
00000001
,
00002000
00003000
00000200
00000300
,
00010000
00010000
00001000
00001000
,
02000000
03000000
00200000
00300000
,
10010000
10000000
01000000
00100000
,
00020000
00030000
20000000
30000000
,
00100000
00100000
01000000
01000000
,
00002000
00003000
00020000
00030000
,
00000020
00000030
00000100
00000000
,
00001001
00000000
00000000
00000000
,
00000000
00000000
00000000
00000000
,
00000000
00000000
00000000
00000000
,
00000100
00000100
00000100
00000100
,
00000001
00001000
00000001
00001000
,
00000100
00010000
00001000
01000000
,
00100000
00100000
01000000
01000000
,
00000000
10010000
10010000
10010000
,
00000000
10000000
00100000
10000000
,
00010000
00100000
01000000
10000000
,
00100000
00100000
01000000
01000000
,
00001000
00010000
00000020
00000030
,
00000000
00000100
00000001
00001000
,
00000010
00000010
00001000
00001000
,
00000001
00000010
00000100
00001000
,
00000200
00000300
00020000
00030000
,
00002000
00003000
00020000
00030000
,
00001000
01000000
00010000
10000000
,
00100000
00100000
10000000
01000000
,
00200000
00300000
00020000
01030000
,
00002000
00003000
00020000
00030000
,
00010000
00000100
00001000
00000010
,
00000100
00000001
00001000
00000100
,
00000020
00000030
00000002
00000103
,
00000200
00000300
00000020
00000030
,
00001000
00000100
00001000
00000000
,
00000200
00000300
00020000
00030000
,
00001000
01000000
00020000
00030000
,
02000000
03000000
00200000
00300000
,
10000000
01000000
00020000
00030000
,
00200000
00300000
00002000
00003000
,
00010000
00000010
00000200
00000300
,
00001001
00000000
00000110
00000000
,
00000001
00000010
00000100
00001000
,
00000010
00000010
00000100
00000100
,
00000010
00001000
00000100
00010000
,
00002000
00003000
02000000
03000000
,
00010000
00100000
01000000
10000000
,
00100000
00100000
01000000
00001000
,
00020000
00030000
00002000
00003000
,
00011000
00000000
00010000
00000000
,
00000010
00000000
00000100
00000000
,
00000001
00000000
00001000
00000000
,
00000200
00000000
00000000
00000300
,
00022000
00000000
00000000
00000000
,
00000000
00000000
00000000
00000000
,
00033000
00000000
00000000
00000000
;

//---------------dance-single - ----------------
#NOTES:
     dance-single:
     :
     Medium:
     8:
     0.356483,0.464628,0.159637,0.378088,0.004201,297.000000,278.000000,19.000000,45.000000,0.000000,0.000000,0.356483,0.464628,0.159637,0.378088,0.004201,297.000000,278.000000,19.000000,45.000000,0.000000,0.000000:
0000
0000
0000
0000
,
0000
0000
0000
0000
,
0000
0000
0000
0000
,
0000
0000
0000
0000
,
0000
0000
0000
0000
,
1001
0000
0010
0000
,
0001
0010
0100
1000
,
0001
1000
0010
0100
,
0002
0003
1001
0000
,
2000
3000
0002
0003
,
1000
0100
0010
0001
,
1000
0000
0001
1000
0001
0000
1000
0001
,
1000
0010
0100
0001
,
2000
3000
0002
0003
,
0100
0010
0100
0001
,
1000
0000
0010
1000
0010
0000
1000
0010
,
2000
3000
1001
0000
,
0020
0030
0200
0300
,
0001
0010
0100
1000
,
0200
0300
0020
0030
,
1000
0100
0010
0001
,
0200
0300
0020
0030
,
2000
3000
0001
1000
,
0010
0000
0100
0010
0100
0000
0010
0000
,
1000
0100
0010
0001
,
2000
3000
0002
0003
,
0100
0001
1000
0010
,
0100
0000
0100
0010
0100
0000
0010
0100
,
0010
1000
0100
0010
,
0002
0003
0200
0300
,
0010
1000
0110
0001
,
0020
0000
0030
0000
0100
0000
0001
1000
,
0002
0003
1001
0000
,
0110
0000
0000
0001
0000
0001
0000
0001
,
1000
0100
0000
0100
0000
0100
0000
0010
,
0001
1000
0000
1000
0000
1000
0000
0010
,
0100
0010
0000
0010
0000
0010
0100
0000
,
0001
0010
0001
1001
,
1000
0010
1000
1001
,
0100
0010
0001
1001
,
0000
0010
0100
0010
0100
0010
0100
0000
,
0001
0000
0001
0000
1000
0001
0000
0001
,
0000
1000
0001
0000
1000
0000
0100
0000
,
0010
0000
0010
0000
0100
0010
0000
0010
,
0000
1000
0001
0000
1000
0000
0001
0000
,
0100
0000
0100
0000
0010
0100
0000
0100
,
0000
0001
0100
0000
0010
0000
1000
0000
,
0001
0000
0000
0000
0100
0000
0000
0100
0000
0000
0100
0000
0000
0000
0010
0000
,
1000
0000
0001
0200
0000
0000
0300
0000
,
0002
0003
2000
3000
,
0010
0100
1001
1001
,
0001
0000
0100
0001
0100
0000
0001
0100
,
0001
1000
0100
0010
,
2002
3003
0220
0330
,
1000
0001
1001
1001
,
1000
0000
0010
0100
0010
0000
1000
0001
,
1000
0001
2002
3003
,
1000
0000
0001
1000
0001
0000
0100
0000
,
0010
0000
1000
0001
2000
0000
3000
0000
,
0001
0000
0100
0010
0100
0000
0001
0000
,
1000
0000
0010
0100
0020
0000
0030
0000
,
0001
0000
0100
0010
0100
0000
0001
0000
,
1000
0000
0001
0100
0001
0000
0000
0000
,
1000
0100
1000
0100
1000
0000
0010
0000
,
0100
0001
2002
3003
,
0002
0003
2000
3000
,
0010
0100
0001
1000
,
0001
0000
1000
0100
1000
0000
0001
0100
,
0001
0000
1000
0010
1000
0010
1000
0000
,
0020
0030
0200
0300
,
0001
0100
0010
1000
,
0001
0000
0010
0001
0010
0000
0001
0100
,
0002
0003
2002
3003
,
0020
0030
0002
0003
,
0100
0001
1000
0001
,
2000
3000
0001
0100
,
2000
0000
0000
3000
,
2002
0000
0000
0000
,
0000
0000
0000
0000
,
3003
0000
0000
0000
;

//---------------dance-single - ----------------
#NOTES:
     dance-single:
     :
     Easy:
     5:
     0.261661,0.365065,0.092421,0.352882,0.000000,218.000000,207.000000,11.000000,42.000000,0.000000,0.000000,0.261661,0.365065,0.092421,0.352882,0.000000,218.000000,207.000000,11.000000,42.000000,0.000000,0.000000:
0000
0000
0000
0000
,
0000
0000
0000
0000
,
0000
0000
0000
0000
,
0000
0000
0000
0000
,
0000
0000
0000
0000
,
0100
0000
0010
0000
,
1000
0001
1000
0001
,
0100
0000
0010
0000
,
2002
3003
1001
0000
,
2000
3000
0002
0003
,
1000
0100
0010
0001
,
1000
0000
0001
0000
,
1000
0100
0010
0001
,
2000
3000
0002
0003
,
1000
0100
0010
0001
,
1000
0000
0001
0000
,
2000
0000
3001
0000
,
0020
0030
0200
0300
,
0001
1000
0001
0000
,
0200
0300
0020
0030
,
1000
0001
1000
0000
,
0200
0300
0020
0030
,
2000
3000
0002
0003
,
1000
0100
0010
0001
,
1000
0100
0010
0001
,
2000
3000
0002
0003
,
0100
0100
0010
0010
,
2000
3000
0002
0003
,
1000
0100
0010
0001
,
2000
3000
0002
0003
,
1000
0100
0010
0001
,
0200
0300
0010
0100
,
0002
0000
1003
0000
,
0110
0000
0000
0000
0000
0000
0000
0001
,
1000
0000
0000
0000
0000
0000
0000
0001
,
1000
0000
0000
0000
,
0100
0100
0100
0100
,
0001
1000
0001
0001
,
1000
0001
1000
1000
,
0001
0001
1000
1000
,
0000
1001
1001
1001
,
0001
0001
1000
0000
,
0001
1000
0001
0000
,
1000
1000
0001
0000
,
1000
0001
1000
0000
,
0100
0100
0010
0000
,
0010
0100
0010
0000
,
0010
0000
1000
0000
,
0100
0000
1001
0000
,
0002
0003
2000
3000
,
0010
0100
1000
0001
,
1000
0000
0100
0000
,
1000
0100
0010
0001
,
2000
3000
0002
0003
,
1000
0001
1000
0001
,
1000
0010
0100
0001
,
1000
0000
2002
3003
,
1000
0001
0001
0000
,
0001
1000
1000
0000
,
0001
0100
0010
1000
,
0001
1000
0020
0030
,
0001
0100
0010
0000
,
1000
0100
0010
0000
,
1000
0001
1000
0010
,
0100
0001
2002
3003
,
0002
0003
2000
3000
,
0010
0100
0001
1000
,
0001
1000
0001
1000
,
0010
0010
0100
0100
,
0020
0030
0200
0300
,
0001
0100
0010
1000
,
0001
0001
1000
1000
,
0020
0030
2002
3003
,
0001
0000
0100
0000
,
1000
0000
0010
0000
,
0001
0000
0100
0000
,
0020
0000
0000
0030
,
2002
0000
0000
0000
,
0000
0000
0000
0000
,
3003
0000
0000
0000
;

//---------------dance-single - ----------------
#NOTES:
     dance-single:
     :
     Beginner:
     1:
     0.105625,0.132751,0.008402,0.016804,0.000000,88.000000,87.000000,1.000000,2.000000,0.000000,0.000000,0.105625,0.132751,0.008402,0.016804,0.000000,88.000000,87.000000,1.000000,2.000000,0.000000,0.000000:
// measure 0
0000
0000
0000
0000
,  // measure 1
0000
0000
0000
0000
,  // measure 2
0000
0000
0000
0000
,  // measure 3
0000
0000
0000
0000
,  // measure 4
0000
0000
0000
0000
,  // measure 5
0001
0000
0000
0000
,  // measure 6
1000
0000
0000
0000
,  // measure 7
0010
0000
0000
0000
,  // measure 8
0100
0000
0100
0000
,  // measure 9
0100
0000
0000
0000
,  // measure 10
0001
0000
0000
0000
,  // measure 11
1000
0000
1000
0000
,  // measure 12
1000
0000
0000
0000
,  // measure 13
0001
0000
0000
0000
,  // measure 14
0100
0000
0000
0000
,  // measure 15
0010
0000
0010
0000
,  // measure 16
0010
0000
0000
0000
,  // measure 17
1000
0000
1000
0000
,  // measure 18
1000
0000
0000
0000
,  // measure 19
0001
0000
0001
0000
,  // measure 20
0001
0000
0000
0000
,  // measure 21
0100
0000
0100
0000
,  // measure 22
0100
0000
0000
0000
,  // measure 23
0010
0000
0010
0000
,  // measure 24
0010
0000
0000
0000
,  // measure 25
1000
0000
1000
0000
,  // measure 26
1000
0000
0000
0000
,  // measure 27
0001
0000
0000
0000
,  // measure 28
1000
0000
0000
0000
,  // measure 29
0001
0000
0001
0000
,  // measure 30
0001
0000
0000
0000
,  // measure 31
1000
0000
0000
0000
,  // measure 32
0001
0000
0001
0000
,  // measure 33
0000
0000
0000
0000
,  // measure 34
0000
0000
0000
0000
,  // measure 35
0000
0000
0000
0000
,  // measure 36
0000
0000
0000
0000
,  // measure 37
1000
0000
0000
0000
,  // measure 38
0001
0000
0000
0000
,  // measure 39
0100
0000
0000
0000
,  // measure 40
0000
0010
0010
0010
,  // measure 41
0000
0000
0100
0000
,  // measure 42
0000
0000
0001
0000
,  // measure 43
0000
0000
0010
0000
,  // measure 44
0000
0000
1000
0000
,  // measure 45
0000
0000
0010
0000
,  // measure 46
0000
0000
0001
0000
,  // measure 47
0000
0000
0100
0000
,  // measure 48
0100
0000
0000
0000
,  // measure 49
0001
0000
0000
0000
,  // measure 50
1000
0000
1000
0000
,  // measure 51
1000
0000
0000
0000
,  // measure 52
0010
0000
0000
0000
,  // measure 53
0100
0000
0000
0000
,  // measure 54
0001
0000
0001
0000
,  // measure 55
0001
0000
0000
0000
,  // measure 56
0010
0000
0000
0000
,  // measure 57
1000
0000
0000
0000
,  // measure 58
0001
0000
0000
0000
,  // measure 59
1000
0000
1000
0000
,  // measure 60
1000
0000
0000
0000
,  // measure 61
0001
0000
0000
0000
,  // measure 62
1000
0000
0000
0000
,  // measure 63
0001
0000
0001
0000
,  // measure 64
0001
0000
0000
0000
,  // measure 65
0010
0000
0000
0000
,  // measure 66
0001
0000
0000
0000
,  // measure 67
1000
0000
0001
0000
,  // measure 68
1000
0000
0000
0000
,  // measure 69
0100
0000
0000
0000
,  // measure 70
1000
0000
0000
0000
,  // measure 71
0001
0000
1000
0000
,  // measure 72
0001
0000
0000
0000
,  // measure 73
0010
0000
0000
0000
,  // measure 74
0001
0000
0000
0000
,  // measure 75
0100
0000
0000
0000
,  // measure 76
1000
0000
0000
0000
,  // measure 77
2002
0000
0000
0000
,  // measure 78
0000
0000
0000
0000
,  // measure 79
3003
0000
0000
0000
;
