#TITLE:Wake Me Up;
#SUBTITLE:;
#ARTIST:TWICE;
#TITLETRANSLIT:;
#SUBTITLETRANSLIT:;
#ARTISTTRANSLIT:;
#GENRE:;
#CREDIT:;
#MENUCOLOR:;
#METERTYPE:DDR X;
#BANNER:Wake Me Up.png;
#BACKGROUND:Wake Me Up-bg.png;
#LYRICSPATH:;
#CDTITLE:;
#MUSIC:Wake Me Up.ogg;
#OFFSET:0.000;
#SAMPLESTART:97.135;
#SAMPLELENGTH:12.000;
#SELECTABLE:YES;
#LISTSORT:;
#BPMS:0.000=126.000;
#STOPS:;
#BGCHANGES:0.000=Wake Me Up.avi=1.000=0=0=0,
99999=-nosongbg-=1.000=0=0=0 // don't automatically add -songbackground-
;
#ATTACKS:;

//---------------dance-single - ----------------
#NOTES:
     dance-single:
     :
     Hard:
     13:
     0.594,0.570,0.197,0.287,0.404: // measure 1
0000
0000
0000
0000
,  // measure 2
0000
0000
0000
0000
,  // measure 3
0000
0000
0000
0000
,  // measure 4
0000
0000
0000
0000
,  // measure 5
0000
0000
0000
0000
,  // measure 6
0010
0000
0000
1000
0010
0000
1000
0000
0001
0000
0100
0001
0000
0000
1000
0000
,  // measure 7
0001
0000
0100
0000
0001
0000
1000
0100
1000
0000
0001
0100
0000
0000
0010
0000
,  // measure 8
1000
0000
0000
0001
1000
0000
0010
0000
0100
0000
0001
0100
0000
0000
0010
0000
,  // measure 9
0200
0000
0000
0310
0000
0000
1000
0000
0002
0000
0000
2000
0000
0000
3003
0000
,  // measure 10
0010
0000
1000
0000
0100
0000
1000
0000
0010
0000
0010
1000
0000
1000
0010
0000
,  // measure 11
0100
0000
0001
0000
0010
0000
0001
0000
0100
0000
0001
1000
0000
1000
0001
0000
,  // measure 12
1000
0000
0100
0000
0010
0000
0001
0000
0100
0000
0001
0010
0000
0010
0001
0000
,  // measure 13
0100
0000
0010
0100
0000
0000
0001
0000
1000
0000
0001
1000
0000
0000
0020
0000
,  // measure 14
0130
0000
0001
1000
0001
0000
1000
0001
1000
0000
0010
0100
0000
0100
0010
0000
,  // measure 15
1000
0000
0001
0100
0001
0000
1000
0001
1000
0000
0010
0100
0000
0100
0001
0000
,  // measure 16
1000
0000
0001
0100
0002
0000
0000
0000
1003
0000
0010
1000
0020
0000
0000
0000
,  // measure 17
0130
0000
0001
1000
0000
0000
0010
0000
1000
0000
0001
0000
0200
0000
0300
0000
,  // measure 18
0010
0000
0001
0100
0001
0000
1000
0000
0020
0000
0130
0000
0200
0000
0301
0000
,  // measure 19
0001
0000
1000
0010
1000
0000
0001
0000
0200
0000
0310
0000
0020
0000
1030
0000
,  // measure 20
0100
0000
1000
0001
1000
0000
0010
0000
0000
0000
1000
0000
0001
0000
1000
0000
,  // measure 21
0010
0000
1000
0100
0000
0000
0010
0000
0001
0000
0100
0001
0000
0000
1000
0000
,  // measure 22
0010
0000
0000
1000
0100
0000
1000
0000
0010
0000
0100
0001
0000
1000
0000
0001
,  // measure 23
0000
0100
0000
0010
1000
0000
0010
0000
0100
0000
0001
2000
0000
0000
3000
0000
,  // measure 24
0001
0000
0000
0010
0000
0000
1000
0000
0100
0000
0000
1000
0000
0000
0010
0000
,  // measure 25
0100
0000
0001
0100
0000
0100
0001
0000
1000
0000
0100
0000
0010
0000
0001
0000
,  // measure 26
0200
0302
2003
3010
,  // measure 27
1010
0000
0000
1000
0010
0000
0100
0000
0001
0000
0001
0010
0000
0000
0001
0000
,  // measure 28
0100
0000
0010
0000
0010
0000
1000
0001
1000
0000
1000
0020
0000
0000
0130
0000
,  // measure 29
0001
0000
0000
0100
0000
0000
1000
0000
0010
0000
0110
0000
0110
0000
0010
0000
,  // measure 30
1000
0000
0000
0100
0000
0000
0001
0000
0100
0000
0010
1000
0010
0000
0100
0000
,  // measure 31
0010
0000
0000
1000
0010
0000
0000
1000
0001
0000
1000
0010
0000
0000
0100
0000
,  // measure 32
0001
0000
0001
0000
1000
0000
1000
0000
0010
0000
0000
0110
0000
0000
0010
0000
,  // measure 33
1000
0000
0000
0001
0000
0000
0100
0000
0010
0000
0110
0000
0110
0000
0001
0000
,  // measure 34
2000
0000
3020
0000
0230
0000
0301
0010
,  // measure 35
1001
0100
0200
0300
0010
0020
0030
1000
,  // measure 36
0001
0000
0100
0001
0000
0000
1000
0000
0010
0000
0100
0010
0100
0000
0001
0000
,  // measure 37
1000
0100
0110
0000
0001
0101
0000
0010
,  // measure 38
2000
0000
0000
3010
0000
0000
0100
0000
0002
0000
0000
0103
0000
0000
0010
0000
,  // measure 39
1000
0000
0000
1000
0010
0000
0100
0001
0100
0000
0010
2000
0000
0000
3001
0000
,  // measure 40
0010
1000
0010
0000
0100
0000
0001
0010
0001
0000
0100
0020
0000
0000
1030
0000
,  // measure 41
0001
0000
0100
0000
0010
0000
1000
0000
0001
0000
0100
0001
0100
0000
0010
0000
,  // measure 42
2000
0000
0000
0100
0000
0000
3100
0000
0001
0000
0100
0000
0010
0000
1000
0000
,  // measure 43
0010
0000
0000
1000
0010
0000
0000
0001
1000
0000
1000
0010
0000
0000
0000
0000
,  // measure 44
1001
0000
1001
0000
0010
0000
0001
1000
0001
0000
1000
0010
0000
0000
0100
0000
,  // measure 45
0010
0000
0000
0000
0010
0000
1000
0001
1000
0000
1000
0010
0000
0000
0000
0000
,  // measure 46
0101
0000
0000
0101
0000
0000
0000
0000
1010
0000
0000
1010
0000
0000
0000
0000
,  // measure 47
0010
0000
0000
0100
0010
0000
0000
0001
0100
0000
0100
0010
0000
0000
0000
0000
,  // measure 48
1001
0000
1001
0000
0010
0000
0001
1000
0100
0000
1000
0010
0000
0000
1000
0000
,  // measure 49
1010
0000
0000
0000
1010
0000
0100
0001
1000
0000
1000
0010
0000
0000
1000
0000
,  // measure 50
0101
0000
0000
0101
0000
0000
0000
0000
1010
0000
0000
1010
0000
0000
0000
0000
,  // measure 51
0020
0100
1000
0130
,  // measure 52
0010
0000
1000
0000
0010
0000
1000
0000
0100
0000
1000
0001
0000
0000
1000
0000
,  // measure 53
0010
0000
0010
0000
0010
0000
0100
0000
0001
0000
0001
1000
0000
0000
0010
0000
,  // measure 54
2000
0000
0000
0100
0000
0000
3100
0000
1000
0000
0010
0000
0100
0000
0001
0000
,  // measure 55
0020
0000
0000
0001
0000
0000
0031
0000
0100
0000
0010
0000
2000
0000
0000
0000
,  // measure 56
3010
0000
0100
0000
0010
0000
1000
0000
0001
0000
1000
0010
0000
0000
1000
0000
,  // measure 57
0010
0000
0010
0000
0100
0000
0100
0000
0001
0000
1000
0001
0000
0000
1000
0000
,  // measure 58
0010
0000
0000
0010
0000
0000
0010
0000
1000
0000
0100
0000
0010
0000
0001
0000
,  // measure 59
0200
0301
0002
1003
2000
3010
0020
1030
,  // measure 60
1001
0000
0000
1000
0001
0000
0100
0000
0010
0000
0000
1000
0000
0000
0100
0000
,  // measure 61
1000
0000
0000
0001
0100
0000
0010
0000
1000
0000
0000
0010
0000
0000
0100
0000
,  // measure 62
0001
0000
0000
0100
0001
0000
0100
0000
0010
0000
0000
1000
0000
0000
0001
0000
,  // measure 63
2000
3010
0020
0130
0200
0301
0002
1003
,  // measure 64
0010
0000
1000
0000
0010
0000
0100
0000
0001
0000
1000
0010
0000
0000
1000
0000
,  // measure 65
0001
0000
0001
0000
0001
0000
1000
0000
0010
0000
0100
0010
0000
0000
1000
0000
,  // measure 66
0001
0000
0000
0001
0000
0000
1000
0000
0010
0000
0100
0000
0001
0000
0100
0000
,  // measure 67
1010
0000
0000
1000
0100
0000
0000
0100
0001
0000
0000
0001
0100
0000
0010
0000
,  // measure 68
1000
0000
0000
0010
1000
0000
0010
0000
0100
0000
0001
0010
0001
0000
0100
0000
,  // measure 69
0010
0000
1000
0100
0010
0000
0001
0000
1001
0000
0000
0000
0000
0000
0000
0000
;

//---------------dance-double - ----------------
#NOTES:
     dance-double:
     :
     Hard:
     13:
     0.550,0.596,0.242,0.159,0.344:
00000000
00000000
00000000
00000000
,
00000000
00000000
00000000
00000000
,
00000000
00000000
00000000
00000000
,
00000000
00000000
00000000
00000000
,
00000000
00000000
00000000
00000000
,
00000010
00000000
00000000
00001000
00000010
00000000
00010000
00000000
00001000
00000000
00001000
00100000
00000000
00000000
00000000
00000000
,
00010000
00000000
01000000
00000000
00100000
00000000
10000000
00100000
10000000
00000000
00010000
01000000
00000000
00000000
00001000
00000000
,
00100000
00000000
00000000
00000000
00100000
00000000
00001000
00000000
00010000
00000000
00010000
00000010
00000000
00000000
00000100
00000000
,
00000001
00000000
00000000
00001001
00000000
00000000
00000000
00000000
00001000
00000000
00000000
00001001
00000000
00000000
00000000
00000000
,
00000001
00000000
00000100
00000000
00001000
00000000
00010000
00000000
00001000
00000000
00100000
00010000
00000000
00010000
10000000
00000000
,
01000000
00000000
00010000
00000000
00001000
00000000
00010000
00000000
00000100
00000000
00001000
00000010
00000000
00000010
00000100
00000000
,
00000001
00000000
00001000
00000000
00000100
00000000
00010000
00000000
00001000
00000000
00100000
00010000
00000000
00010000
01000000
00000000
,
00100000
00000000
00000000
00100000
00000000
00000000
10000000
00000000
00010000
00000000
00000000
00010000
00000000
00000000
00100000
00000000
,
00001000
00000000
00010000
00001000
00010000
00000000
00000100
00000000
00001000
00000000
00000000
00000010
00000000
00000000
00000100
00000000
,
00000001
00000000
00001000
00000100
00001000
00000000
00000010
00000000
00010000
00000000
00000000
00001000
00000000
00000000
00100000
00000000
,
00010000
00000000
10000000
01000000
10000000
00000000
00010000
00000000
00100000
00000000
00001000
00010000
00001000
00000000
00010000
00000000
,
00000100
00000000
00000000
00000100
00000000
00000000
00000010
00000000
00001000
00000000
00000100
00000000
00000010
00000000
00000001
00000000
,
00001000
00000000
00000000
00000100
00001000
00000000
00000100
00000000
00010000
00000000
00001000
00000000
01000000
00000000
00100000
00000000
,
10000000
00000000
00000000
00010000
10000000
00000000
00010000
00000000
00100000
00000000
00001000
00000000
00010000
00000000
00000010
00000000
,
00001000
00000000
00000000
00000010
00001000
00000000
00000100
00000000
00000010
00000000
00000001
00000000
00001000
00000000
00000100
00000000
,
00010000
00000000
00000000
00001000
00000000
00000000
00100000
00000000
00010000
00000000
00000000
10000000
00000000
00000000
00010000
00000000
,
00100000
00000000
00000000
00100000
00001000
00000000
00000000
00001000
00010000
00000000
00000100
00001000
00000000
00000010
00000000
00000100
,
00000000
00000001
00000000
00001000
00000100
00000000
00010000
00000000
00001000
00000000
00100000
00010000
00000000
00000000
10000000
01000000
,
10000000
00000000
00000000
00010000
00000000
00000000
10000000
00000000
00100000
00000000
00000000
01000000
00000000
00000000
00002000
00000000
,
00020000
00000000
00000000
00033000
,
00002000
00100000
00010000
00003100
,
00000011
00000000
00000000
00000000
00001010
00000000
00000000
00000000
00010000
00000000
00001000
00100000
00000000
00000000
00010000
00000000
,
01000000
00000000
00100000
00000000
00100000
00000000
10000000
00000000
00010000
00000000
01000000
00010000
00000000
00000000
00100000
00000000
,
00001000
00000000
00000000
00001000
00000000
00000000
00010000
00000000
00000100
00000000
00000010
00000000
00000001
00000000
00000100
00000000
,
00000010
00000000
00000000
00000010
00000000
00000000
00010000
00000000
00001000
00000000
00100000
00000000
00100000
00000000
00000000
00000000
,
10100000
00000000
00000000
00000000
00110000
00000000
00000000
00000000
10000000
00000000
00010000
00100000
00000000
00000000
00001000
00000000
,
00010000
00000000
00000100
00000000
00001000
00000000
00000001
00000000
00000010
00000000
00000000
00000010
00000000
00000000
00000010
00000000
,
00000001
00000000
00000000
00001000
00000000
00000000
00000100
00000000
00010000
00000000
00010000
00000000
00010000
00000000
00001000
00000000
,
00200000
00000000
00310000
01000000
20000000
00000000
30200000
00000000
,
01300000
01100000
01100000
00000000
10010000
10010000
00000000
10000000
,
00100000
00000000
01000000
00010000
00000000
01000000
00010000
00000000
00100000
00000000
00001000
00000000
00010000
00000000
00000100
00000000
,
00001000
00001100
00001100
00000000
00000011
00000011
00000000
00000001
,
00001000
00000000
00001000
00000100
00000000
00000000
00010000
00000000
00001000
00000000
00100000
00010000
00000000
00000000
00100000
00000000
,
00020000
00000000
00000000
00000000
00000000
00000000
01030000
00000000
00100000
00000000
10000000
00100000
00000000
00000000
00000000
00000000
,
01000000
00000000
00010000
00000000
00100000
00000000
00001000
00000000
00010000
00000000
00000010
00001000
00000000
00000000
00000001
00000000
,
00001000
00000100
00010000
00001000
01000000
00010000
10000000
01000000
,
00010000
01000000
00001000
00010000
00000100
00001000
00000100
00000000
,
00000010
00000000
00000000
00000000
00000011
00000000
00000001
00000000
00000100
00000000
00000100
00000010
00000000
00000000
00001000
00000000
,
00000100
00000000
00010000
00000000
00000010
00000000
00010000
00000000
00001000
00000000
00100000
00010000
00000000
00000000
10000000
00000000
,
00100000
00000000
00000000
00000000
10100000
00000000
10000000
00100000
01000000
00000000
00010000
00100000
00000000
00000000
00001000
00000000
,
00011000
00000000
00000000
00011000
00000000
00000000
00010000
00000000
00000100
00000000
00000000
00010100
00000000
00000000
00000000
00000000
,
00001010
00000000
00000000
00000000
00000110
00000000
00001000
00000000
00000001
00000000
00001000
00000010
00000000
00000000
00000100
00000000
,
00010000
00000000
00001000
00000000
00100000
00000000
00010000
01000000
00100000
00000000
10000000
01000000
00000000
00000000
00010000
00000000
,
00100000
00000000
00001000
00000000
00010000
00000000
00000100
00001000
00000010
00000000
00000100
00000002
00000000
00000000
00001003
00000000
,
00000010
00000000
00001000
00000100
00000000
00000000
00010000
00000000
00001000
00000000
00100000
00010000
00000000
00000000
01000000
00000000
,
02200000
00000000
00000000
03300000
,
10100000
00000000
00000000
00000000
01100000
00000000
00000000
00000000
10000000
00000000
00010000
00100000
00000000
00000000
00010000
00000000
,
00100000
00000000
00001000
00000000
00010000
00000000
00000100
00000000
00001000
00000000
00000010
00000100
00000000
00000000
00000001
00000000
,
00001001
00000000
00000000
00001100
00000000
00000000
00000001
00000000
00001000
00000000
00000100
00000000
00010000
00000000
00001000
00000000
,
00100000
00000000
00000000
00110000
00000000
00000000
00010000
00000000
01000000
00000000
00100000
00000000
10010000
00000000
00000000
00000000
,
00100000
00000000
00000000
10000000
00100000
00000000
00000000
10000000
00010000
00000000
00010000
00100000
00000000
00000000
00001000
00000000
,
00010000
00000000
00000010
00000000
00001000
00000000
00000001
00000000
00000100
00000000
00000000
00000100
00000000
00000000
00000010
00000000
,
00001000
00000000
00000000
00000100
00000000
00000000
00010000
00000000
00002000
00000000
00000000
00000000
00103000
00000000
00010000
00000000
,
02000000
03010000
00020000
00130000
00200000
00310000
00020000
01030000
,
02000000
00000000
03000000
10000000
01000000
00000000
10000000
00000000
00010000
00000000
01000000
00001000
00000000
00010000
00000000
00000100
,
00001000
00000000
00000000
00000010
00000100
00000000
00000001
00000000
00001000
00000000
00000100
00010000
00000000
00001000
00000000
01000000
,
00010000
00000000
00000000
00100000
10000000
00000000
00010000
00000000
10000000
00000000
10000000
00100000
00000000
01000000
00000000
00010000
,
00200000
00301000
00002000
00013000
00020000
00030010
00000020
00000130
,
00000110
00000000
00000000
00000000
00001010
00000000
00000000
00000000
00001000
00000000
00000100
00010000
00000000
00000000
00001000
00000000
,
00100000
00000000
00010000
00000000
01000000
00000000
00100000
00000000
10000000
00000000
00000000
10000000
00000000
00000000
00010000
00000000
,
01000000
00000000
00000000
01000000
00000000
00000000
00001000
00000000
00010000
00000000
00000100
00000000
00001000
00000000
00000010
00000000
,
00000101
00000000
00001000
00000100
00020000
00000000
00031000
00100000
,
00010000
00000000
10000000
00100000
10000000
00000000
00010000
00000000
00100000
00000000
00001000
00010000
00001000
00000000
00010000
00000000
,
00000100
00000000
00001000
00000010
00000100
00000000
00000001
00000000
00001001
00000000
00000000
00000000
00000000
00000000
00000000
00000000
;

//---------------dance-double - ----------------
#NOTES:
     dance-double:
     :
     Medium:
     9:
     0.328,0.363,0.121,0.310,0.000:
00000000
00000000
00000000
00000000
,
00000000
00000000
00000000
00000000
,
00000000
00000000
00000000
00000000
,
00000000
00000000
00000000
00000000
,
00000000
00000000
00000000
00000000
,
00100000
00000000
00100000
00000000
10000000
00010000
00100000
00000000
,
10010000
00100000
00001000
00010000
,
00000010
00000000
00000010
00000000
00001000
00000001
00000010
00000000
,
00000020
00000030
00002000
00003000
,
00000100
00000000
00010000
00000000
00001000
00010000
00001000
00000000
,
00100000
00000000
00010000
00000000
01000000
00100000
01000000
00000000
,
00100000
00000000
10000000
00000000
00010000
01000000
00010000
00000000
,
00200000
00300000
00002000
00003000
,
00010000
00000000
00010000
00000000
00000100
00001000
00000100
00000000
,
00000010
00000000
00000010
00000000
00001000
00000001
00001000
00000000
,
00000200
00000300
00020000
00030000
,
00001000
00100000
00010000
01000000
,
00200000
00300000
10000000
00010000
,
00200000
00300000
00001000
00010000
,
00000020
00000030
00001000
00000100
,
00000020
00000030
00000001
00000100
,
00000010
00000000
00001000
00000000
00000100
00001000
00000100
00000000
,
00010000
00000000
00001000
00000000
00100000
00010000
01000000
00000000
,
00200000
00300000
02000000
03000000
,
20020000
00000000
00000000
30030000
,
00100000
00001000
00010000
00000010
,
00000010
00000000
00000010
00000000
00000001
00001000
00000100
00000000
,
00010000
00010000
00001000
00100000
,
00010000
00010000
20020000
30030000
,
00100000
00100000
00220000
00330000
,
00100000
00000000
00100000
00000000
00001000
00010000
00001000
00000000
,
00010000
00000100
00002000
00003000
,
00000010
00000010
00002002
00003003
,
00000001
00000010
00000100
00001000
,
00020000
00000000
00031000
00000000
00100000
00100000
00000000
00010000
,
01000000
00100000
10000000
10100000
,
00000000
01000000
01000000
00000000
00010000
00010000
00000000
00000000
,
00100000
00001000
00020000
00030000
,
00000200
00000000
00000300
00000000
00001000
00000001
00001000
00000000
,
00000200
00000000
00000300
00000000
00010000
00001000
00010000
00000000
,
00001000
00000000
00100000
00000000
00010000
00000000
01000000
00100000
,
20000000
00000000
00000000
30000000
,
00100000
00000000
00100000
00000000
10000000
00010000
00100000
00000000
,
00001000
00010000
00000010
00000000
00000100
00000000
00001001
00000000
,
00000010
00000000
00000010
00000000
00010000
00001000
00100000
00000000
,
20020000
30030000
02200000
03300000
,
00100000
00000000
00100000
00000000
10000000
01000000
00100000
00000000
,
00001000
00010000
00000010
00000000
00000100
00000100
00000010
00000000
,
00000010
00000000
00000010
00000000
00010000
00001000
00100000
00000000
,
20020000
30030000
02200000
03300000
,
20000000
00000000
00000000
30010000
,
00100000
00000000
00100000
00000000
00001000
00010000
00000010
00000000
,
00000100
00000100
00020000
00030000
,
00001000
00000000
00100000
00010000
01000000
00000000
00000000
00000000
,
00010000
00000000
00100000
00001000
00010000
00000000
00000000
00000000
,
00000010
00000000
00000010
00000000
00001000
00000100
00000010
00000000
,
00001000
00001000
00000100
00010000
,
00001000
00001000
00200000
00300000
,
00010000
00000000
01000000
00000000
10000000
00100000
01000000
00000000
,
00020000
00030000
00100000
00001000
,
00020000
00030000
00000010
00001000
,
00000002
00000003
00001000
00000100
,
00010000
00001000
01000000
00010000
,
00100000
00000000
00100000
00000000
00001000
00010000
00000010
00000000
,
00000100
00001000
00020000
00030000
,
00100000
00100000
11000000
00110000
,
00001000
00001000
00010000
00001100
,
00000011
00000000
00000001
00001000
00000100
00000000
00001000
00000100
,
00010000
00000000
00001000
00010000
00011000
00000000
00000000
00000000
;

//---------------dance-double - ----------------
#NOTES:
     dance-double:
     :
     Easy:
     5:
     0.280,0.337,0.098,0.446,0.000:
00000000
00000000
00000000
00000000
,
00000000
00000000
00000000
00000000
,
00000000
00000000
00000000
00000000
,
00000000
00000000
00000000
00000000
,
00000000
00000000
00000000
00000000
,
00100000
00100000
00020000
00030000
,
00100000
00100000
20000000
30000000
,
00100000
00100000
00020000
00030000
,
00002000
00003000
00000200
00000300
,
00000001
00000001
00001000
00000100
,
00010000
00010000
00001000
01000000
,
00100000
00100000
10000000
01000000
,
00200000
00300000
00002000
00003000
,
00100000
00100000
00001000
00010000
,
00000010
00000010
00001000
00000001
,
00000200
00000300
00020000
00030000
,
00001000
00001000
00002000
00003000
,
00200000
00300000
00010000
10000000
,
00200000
00300000
10000000
00010000
,
00200000
00300000
00001000
00010000
,
00000020
00000030
00010000
00001000
,
00100000
00100000
20020000
30030000
,
00100000
00100000
00022000
00033000
,
00000100
00000100
00000200
00000300
,
00020000
00030000
00002000
00003000
,
02000000
00000000
00000000
03000000
,
00100000
00100000
00001000
00010000
,
00000010
00000010
00010000
00001000
,
00000200
00000300
00002002
00003003
,
00000200
00000300
00020000
00030000
,
00001000
00001000
00100000
00010000
,
01000000
01000000
00100000
10000000
,
00020000
00030000
00022000
00033000
,
00000010
00001000
00000100
00000001
,
00000010
00000000
00000000
00000000
,
00000001
00000010
00000100
00001000
,
00020000
00030000
00002000
00003000
,
00010000
00100000
01000000
10000000
,
00020000
00030000
00100000
00000000
,
00001000
00000000
00010000
00000000
,
00000010
00001000
00000100
00000001
,
00000020
00000000
00000030
00000000
,
00000010
00000010
00002000
00003000
,
00000200
00000300
00000002
00000003
,
00000010
00000010
00010000
00001000
,
00200000
00300000
02000000
03000000
,
00100000
00100000
10000000
00010000
,
00200000
00300000
00002000
00003000
,
00100000
00100000
00001000
00010000
,
00000020
00000030
00002000
00003000
,
00020000
00000000
00000000
00030000
,
00100000
00100000
00001000
00010000
,
00000100
00001000
00002002
00003003
,
00000100
00001000
00002200
00003300
,
00000001
00000010
00000022
00000033
,
00000010
00000010
00001000
00000100
,
00010000
00001000
02000000
03000000
,
20020000
30030000
02200000
03300000
,
10000000
00100000
01000000
00010000
,
00100000
00000000
00001000
00010000
,
00011000
00000000
00000010
00001000
,
00001100
00000000
00000010
00000001
,
00000100
00000010
00001000
00000100
,
00010000
00010000
00001000
00001000
,
00100000
00010000
01000000
10000000
,
00200000
00300000
00002000
00003000
,
00020000
00030000
00000020
00000030
,
00001001
00000000
00010000
00000000
,
00100000
00000000
10010000
00000000
;

//---------------dance-single - ----------------
#NOTES:
     dance-single:
     :
     Medium:
     8:
     0.403,0.440,0.378,0.325,0.015:
0000
0000
0000
0000
,
0000
0000
0000
0000
,
0000
0000
0000
0000
,
0000
0000
0000
0000
,
0000
0000
0000
0000
,
0010
0000
0010
0000
1000
0001
0010
0000
,
0001
1000
0010
0000
0110
0000
1001
0000
,
0010
0000
0010
0000
1000
0001
0100
0000
,
0010
0000
0000
0010
0000
0000
0000
0000
0100
0000
0000
0100
0000
0000
0000
0000
,
0010
1000
0010
0000
0200
0000
0300
0000
,
0001
0100
0001
0000
2000
0000
3000
0000
,
0001
0100
0001
0000
0100
0000
0010
0000
,
2000
3010
0002
0103
,
0001
1000
0001
1000
0001
0000
0110
0000
,
1000
0001
1000
0001
1000
0000
0100
0001
,
1000
0010
2000
0000
3001
0010
0002
0000
,
1003
0000
0010
0100
0010
0000
1001
0000
,
0220
0000
0330
1000
0001
0000
1001
0000
,
0220
0000
0330
0001
1000
0000
0010
0000
,
0220
0000
0330
0010
0100
0000
0001
0000
,
1000
0001
0100
0010
,
0220
0000
0330
0000
0010
0100
0010
0000
,
0220
0000
0330
0000
1000
0001
1000
0000
,
0001
0010
0100
1000
,
2002
0000
0000
3003
,
0001
0100
0010
1000
,
0010
0000
0010
0000
1000
0001
0010
0000
,
2000
3020
0230
0302
,
1003
0000
0001
1000
0010
0000
0110
0000
,
0001
0000
1000
0001
0100
0000
0110
0000
,
0010
0000
0010
0000
0001
1000
0010
0000
,
0001
1000
0010
0100
,
0010
0010
2002
3003
,
0002
0013
0200
1300
,
0001
1000
0001
0000
0100
0010
0000
0000
,
0001
0100
0001
0000
0010
0000
0110
0000
,
0000
1000
0010
0000
0100
0001
0000
0010
,
2000
3100
0002
0013
,
2002
0000
3003
0000
0001
0010
0100
0000
,
0010
0100
1000
0000
0001
0001
0100
0000
,
0002
0000
0000
2000
0000
0000
3003
0000
,
0010
0100
0101
1010
,
0010
0000
0010
0000
0001
1000
0010
0000
,
1000
0001
0010
0000
1001
0000
0110
0000
,
0010
0000
0010
0000
1000
0001
1000
0000
,
0100
0100
1000
0001
,
0010
0000
0010
0000
0001
1000
0010
0000
,
1000
0001
0010
0000
0110
0000
1001
0000
,
0010
0000
0010
0000
0001
1000
0010
1000
,
0001
0000
0000
1001
0000
0000
0000
0000
0100
0000
0000
0110
0000
0000
0000
0000
,
2002
0000
0000
3003
,
0010
0000
0010
0000
0001
1000
0001
0000
,
1000
0001
1000
0000
0001
0000
1000
0000
,
0010
0100
0011
1100
,
0100
0010
1100
0011
,
0010
0000
0010
0000
1000
0001
0100
0000
,
0001
1000
0010
0010
0100
0000
1001
0000
,
1100
1100
0022
0033
,
0110
0110
2002
3003
,
0020
0000
0030
0000
1000
0100
1000
0000
,
0020
0000
0030
0000
0100
0001
0100
0000
,
0002
0003
1000
0110
,
1001
1100
0011
0110
,
0010
0000
0010
0000
1000
0001
0010
0000
,
0001
1000
0100
0100
0100
0000
1001
0000
,
1100
1100
0022
0033
,
0110
1001
0110
1001
,
0001
0000
0001
0100
0010
0000
1000
0010
,
0100
0001
1001
0000
;

//---------------dance-single - ----------------
#NOTES:
     dance-single:
     :
     Beginner:
     3:
     0.149,0.177,0.023,0.076,0.000:
0000
0000
0000
0000
,
0000
0000
0000
0000
,
0000
0000
0000
0000
,
0000
0000
0000
0000
,
0000
0000
0000
0000
,
0010
0010
0000
0010
,
0000
0010
0000
0000
,
0010
0010
0000
0010
,
0020
0000
0030
0000
,
0000
0000
0001
0000
,
1000
0000
0001
0000
,
0100
0000
0010
0000
,
0100
0100
0100
0000
,
0001
0000
1000
0000
,
0001
0000
1000
0000
,
0020
0030
0200
0300
,
0000
0000
0000
0000
,
0001
0000
0100
0000
,
1000
0000
0100
0000
,
0001
0000
0001
0000
,
1000
0000
1000
0000
,
0001
0000
0010
0000
,
1000
0000
0010
0000
,
0001
0000
0100
0000
,
0020
0000
0000
0030
,
0100
0100
0100
0000
,
0010
0010
0000
0010
,
0000
0100
0100
0000
,
0001
0000
1000
0000
,
1000
0000
0001
0000
,
0010
0010
0000
0010
,
0000
0100
0100
0000
,
0001
0000
1000
0000
,
0010
0000
0100
0000
,
0010
0000
0000
0000
,
1000
0000
0100
0000
,
0001
0000
0000
0000
,
0001
0000
0100
0000
,
2000
3000
0000
0000
,
0010
0000
0100
0000
,
0001
0000
1000
0000
,
2002
0000
3003
0000
,
0010
0010
0000
0010
,
0000
0010
0000
0000
,
0010
0010
0000
0010
,
0020
0000
0030
0000
,
0100
0100
0000
0100
,
0000
0100
0000
0100
,
0010
0010
0000
0010
,
0020
0000
0000
0030
,
0200
0000
0300
0000
,
0010
0000
0010
0000
,
0100
0000
0100
0000
,
0001
0000
1000
0000
,
0001
0001
0001
0000
,
0010
0010
0010
0000
,
0100
0100
0100
0000
,
0001
0000
0001
0000
,
1000
0000
1000
0000
,
1001
0000
0000
0001
,
0001
0000
0000
1000
,
1000
0000
0010
0000
,
1000
0000
0100
0000
,
0010
0010
0000
0010
,
0000
0100
0100
0000
,
0001
0000
1000
0000
,
0010
0000
0100
0000
,
1001
0000
0000
0000
;

//---------------dance-single - ----------------
#NOTES:
     dance-single:
     :
     Easy:
     5:
     0.278,0.279,0.113,0.257,0.000:
0000
0000
0000
0000
,
0000
0000
0000
0000
,
0000
0000
0000
0000
,
0000
0000
0000
0000
,
0000
0000
0000
0000
,
0010
0010
1000
0010
,
1000
0010
0100
0001
,
0010
0010
1000
0010
,
0200
0300
0020
0030
,
0000
0001
0100
1000
,
0000
1000
0100
0001
,
0000
0001
1000
0010
,
1000
1000
0001
0001
,
0000
0001
0010
0100
,
0000
1000
0100
0010
,
1000
2000
3001
0002
,
1003
0010
0100
0000
,
0020
0030
0001
1000
,
0020
0030
1000
0001
,
0020
0030
0200
0300
,
1000
0001
0100
0010
,
0220
0330
0001
0001
,
1000
1000
0001
0001
,
1000
0010
0100
0001
,
2002
0000
0000
3003
,
0001
0100
0010
1000
,
0010
0010
1001
0010
,
0100
0100
0200
0300
,
1000
0001
0010
0110
,
0001
1000
0100
0110
,
0010
0010
0100
0010
,
1000
1000
0001
0001
,
0100
0010
2002
3003
,
0001
0010
0100
1000
,
0002
0003
2000
3000
,
0001
0010
0100
1000
,
0002
0003
2000
3000
,
0010
0100
1000
0001
,
2000
3000
0001
0100
,
0010
0010
1000
0001
,
0100
0100
0010
0010
,
2002
0000
3003
0000
,
0010
0010
0001
0010
,
1000
0010
0001
0100
,
0010
0010
1000
0010
,
0200
0300
2000
3000
,
0010
0010
0001
0010
,
1000
0010
0100
1001
,
0010
0010
0001
0010
,
0200
0300
2000
3000
,
2002
0000
0000
3003
,
0010
0010
1001
0010
,
0100
0100
0001
1000
,
0010
0100
1001
0000
,
0100
0010
1001
0000
,
0010
0010
0100
0010
,
1000
1000
0001
0001
,
1000
0100
0002
0003
,
0001
0100
2000
3000
,
0020
0030
1000
1000
,
0020
0030
0001
0001
,
0200
0300
1000
1000
,
0001
0010
0100
1000
,
0010
0010
1001
0010
,
0100
0100
1001
0010
,
0100
1000
0002
0003
,
0100
0001
0010
1000
,
1001
0000
0000
0000
;
