#TITLE:Virtual Sunrise;
#SUBTITLE:(nana's Festival EDM Remix) feat. Kanae Asaba;
#ARTIST:nana (sevencolors);
#TITLETRANSLIT:;
#SUBTITLETRANSLIT:;
#ARTISTTRANSLIT:;
#GENRE:;
#CREDIT:Toxsa Dalton;
#BANNER:Virtual Sunrise (nana's Festival EDM Remix) feat. Kanae Asaba.png;
#BACKGROUND:Virtual Sunrise (nana's Festival EDM Remix) feat. Kanae Asaba-bg.png;
#LYRICSPATH:;
#CDTITLE:;
#MUSIC:Virtual Sunrise (nana's Festival EDM Remix) feat. Kanae Asaba.ogg;
#OFFSET:1.755999;
#SAMPLESTART:78.849991;
#SAMPLELENGTH:15.000000;
#LASTBEATHINT:1.612798;
#SELECTABLE:YES;
#BPMS:0.000000=128.000000
;
#STOPS:
;
#BGCHANGES:;
#KEYSOUNDS:;
#ATTACKS:;

//---------------dance-single - ----------------
#NOTES:
     dance-single:
     :
     Hard:
     12:
     0.502387,0.538993,0.123703,0.088360,0.406454,398.000000,384.000000,14.000000,10.000000,0.000000,0.000000,0.502387,0.538993,0.123703,0.088360,0.406454,398.000000,384.000000,14.000000,10.000000,0.000000,0.000000:
0000
0000
0000
0000
,
0000
0000
0000
0000
,
0000
0000
0000
0000
,
1000
0000
0000
1000
0001
0000
0000
0000
0001
0000
0000
0001
1000
0000
0000
0000
,
1000
0000
0000
0100
0000
0000
0010
0000
0001
0000
0000
0010
0000
0000
0100
0000
,
1000
0000
0000
1000
0010
0000
0000
0000
0100
0000
0000
0100
0001
0000
0000
0000
,
1000
0000
0000
0010
0000
0000
0100
0000
0001
0000
0000
0100
0000
0000
0010
0000
,
1000
0000
0000
1000
0100
0000
0000
0000
0010
0000
0000
0010
0001
0000
0000
0000
,
1000
0000
0000
0001
0000
0000
0100
0000
0010
0000
0000
0100
0000
0000
0001
0000
,
1000
0000
0000
1000
0010
0000
0000
0000
0001
0000
0000
0001
0100
0000
0000
0000
,
0001
0000
0000
0100
0000
0000
0010
0000
1000
0000
0000
0010
0000
0000
1000
0000
,
0001
0000
0000
0001
0100
0000
0000
0000
0010
0000
0000
0010
1000
0000
0000
0000
,
0001
0000
0000
0010
0000
0000
0100
0000
1000
0000
0000
0100
0000
0000
0010
0000
,
0001
0000
0000
0001
1000
0000
0000
0000
0010
0000
0000
0010
0100
0000
0000
0000
,
0001
0000
0000
1000
0000
0000
0100
0000
0010
0000
0000
0100
0000
0000
1000
0000
,
0001
0000
0000
1000
0001
0000
0000
0000
1000
0000
0000
0001
1000
0000
0000
0000
,
0010
0000
0000
0100
0000
0000
0001
0000
1000
0000
0000
0001
0000
0000
0100
0000
,
0010
0000
0000
0010
1000
0000
0000
0000
0001
0000
0000
0001
0100
0000
0000
0000
,
0001
0000
0000
1000
0000
0000
0010
0000
0100
0000
0000
0010
0000
0000
1000
0000
,
0001
0101
1100
0101
,
1010
0011
1010
0011
,
1000
0010
0001
0010
1000
0100
0001
0100
,
1000
0000
0010
0000
0100
0000
0001
1000
0000
1000
0001
0000
0200
0000
0300
0000
,
0001
0001
1000
1000
0010
0010
0100
0100
,
0001
0001
1000
1000
0100
0100
0020
0030
,
0001
0100
0000
0010
1000
0000
0001
0010
0000
0100
1000
0000
,
0020
0000
0200
0330
,
0001
0000
0100
0000
0001
0000
0100
0001
0000
0100
0001
0000
1000
0000
0100
0000
,
0010
0000
0001
0000
1000
0000
0010
1000
0000
0010
1000
0000
0001
0000
0100
0000
,
0010
0000
1000
0000
0001
0000
1000
0001
0000
1000
0001
0000
1000
0000
0010
0000
,
0100
0000
0100
0000
0010
0000
1000
0100
0000
0010
0001
0000
1001
0000
0000
0000
,
0010
0000
0100
0000
0001
0000
1000
0001
0000
1000
0001
0000
1000
0000
0100
0000
,
0010
0000
0001
0000
0100
0000
0010
1000
0000
0010
1000
0000
0001
0000
0100
0000
,
0010
0000
1000
0000
0001
0000
0010
0001
0000
0010
0001
0000
0100
0000
0010
0000
,
1010
0000
0101
0000
0011
0000
2200
3300
,
0010
0000
0000
1000
0010
0000
1000
0000
0001
0000
0000
1000
0001
0000
1000
0000
,
0100
0000
0000
1000
0100
0000
1000
0000
0001
0000
0000
0010
0001
0000
0100
0000
,
0010
0000
0000
1000
0010
0000
1000
0000
0001
0000
0000
1000
0001
0000
1000
0000
,
0100
0000
0000
1000
0100
0000
0010
0001
0000
0010
0001
0000
0100
0000
0000
0000
,
0010
0000
0000
1000
0001
0000
0100
0000
0001
0000
0000
1000
0001
0000
0010
0000
,
0001
0000
0000
1000
0100
0000
1000
0100
0000
1000
0100
0000
1000
0000
0010
0000
,
0100
0001
1000
0010
1000
0100
0010
0001
,
0100
0000
0000
0100
0000
0000
0010
0000
1000
0000
0000
1001
0000
0000
0000
0000
,
0001
0000
0000
0001
0100
0000
0000
0000
0010
0000
0000
0010
1000
0000
0000
0000
,
0001
0000
0000
0100
0000
0000
1000
0000
0001
0000
0000
0010
0000
0000
1000
0000
,
0001
0000
0000
0001
0010
0000
0000
0000
1000
0000
0000
1000
0010
0000
0000
0000
,
1000
0000
0000
0100
0000
0000
0001
0000
1000
0000
0000
0010
0000
0000
0001
0000
,
1000
0000
0000
1000
0010
0000
0000
0000
0100
0000
0000
0100
0001
0000
0000
0000
,
0001
0000
0000
0100
0000
0000
1000
0000
0001
0000
0000
0100
0000
0000
1000
0000
,
0010
0000
0000
1000
0010
0000
0000
0000
0100
0000
0000
0001
0100
0000
0000
0000
,
0001
0000
0000
1000
0000
0000
0010
0000
0100
0000
0000
0001
0000
1000
0001
1000
,
0001
1000
0010
1000
0100
1000
0010
1000
,
0001
0000
0000
1000
0010
0000
1000
0000
0001
0000
0000
1000
0100
0000
1000
0000
,
0001
0100
1000
0100
0001
0010
1000
0010
,
0001
0000
0000
0100
0010
0000
1000
0000
0001
0000
0000
1000
0010
0000
0100
0000
,
0001
0010
0100
1000
0001
0100
1000
0100
,
0001
0000
0000
0001
0010
0000
0100
0000
1000
0000
0000
1000
0100
0000
0010
0000
,
0001
0100
0010
2000
0000
3010
0100
0001
,
1000
0020
0000
0130
0001
0000
1000
0000
,
2002
0000
0000
0000
,
0000
0000
0000
0000
,
3003
0000
0000
0000
;

//---------------dance-single - ----------------
#NOTES:
     dance-single:
     :
     Medium:
     8:
     0.349651,0.377295,0.238571,0.035344,0.150211,277.000000,250.000000,27.000000,4.000000,0.000000,0.000000,0.349651,0.377295,0.238571,0.035344,0.150211,277.000000,250.000000,27.000000,4.000000,0.000000,0.000000:
0000
0000
0000
0000
,
0000
0000
0000
0000
,
0000
0000
0000
0000
,
0010
1000
0100
0001
,
1000
0000
0000
1000
0000
0000
0000
0000
0001
0000
0000
0001
0000
0000
0000
0000
,
0010
0001
0100
1000
,
0001
0000
0000
0001
0000
0000
0000
0000
1000
0000
0000
1000
0000
0000
0000
0000
,
0010
0100
0001
1000
,
0010
0000
0000
0010
0000
0000
0000
0000
0100
0000
0000
0100
0000
0000
0000
0000
,
0001
0100
1000
0010
,
1000
0000
0000
1000
0000
0000
0000
0000
0001
0000
0000
0001
0000
0000
0000
0000
,
1000
0010
0100
0001
,
1000
0000
0000
1000
0000
0000
0000
0000
0001
0000
0000
0001
0000
0000
0000
0000
,
0100
0010
1000
0100
,
0001
0000
0000
0001
0000
0000
0000
0000
1000
0000
0000
1000
0000
0000
0000
0000
,
0010
0100
0001
1000
,
0010
0000
0000
0010
0000
0000
0000
0000
0100
0000
0000
0100
0000
0000
0000
0000
,
0001
1000
0010
0100
,
1000
0000
0000
1000
0000
0000
0000
0000
0001
0000
0000
0001
0000
0000
0000
0000
,
1000
1000
1000
0100
,
0001
0001
0001
1001
,
1000
1000
1000
0010
,
0001
0001
0001
1001
,
0010
0100
0010
1001
,
0100
0010
0100
1001
,
0001
0100
1000
0010
,
0220
0000
0330
1001
,
1000
0100
1000
0000
0001
0000
0100
0000
,
0001
0010
0001
0000
1000
0000
0010
0000
,
1000
0100
1000
0000
0010
0000
0100
0000
,
0001
0100
0001
0000
0100
0000
1001
0000
,
0010
0100
0010
0000
1000
0000
0001
0000
,
0100
0010
0100
0000
0001
0000
1000
0000
,
0001
0100
0001
0000
1000
0000
0010
0000
,
1100
0110
0011
1001
,
0001
0100
0010
0000
1000
0000
0001
0000
,
1000
0010
0100
0000
0001
0000
1000
0000
,
0001
0100
0010
0000
1000
0000
0001
0000
,
1000
0100
0010
0000
0001
0000
1001
0000
,
0100
0010
1000
0000
0001
0000
1001
0000
,
0100
0010
1000
0000
0001
0000
1001
0000
,
0100
0001
0010
1000
,
0001
0000
0000
0001
0000
0000
0000
0000
1000
0000
0000
1000
0000
0000
0000
0000
,
0010
1001
0100
1001
,
0001
0000
0000
0001
0000
0000
0000
0000
1000
0000
0000
1000
0000
0000
0000
0000
,
0100
1001
0010
1001
,
0001
0000
0000
0001
0000
0000
0000
0000
1000
0000
0000
1000
0000
0000
0000
0000
,
0001
0110
1000
0110
,
0001
0000
0000
0100
0000
0000
0000
0000
1000
0000
0000
0100
0000
0000
0000
0000
,
0010
1001
0100
1001
,
0010
0000
0000
1010
0000
0000
0000
0000
0100
0000
0000
0101
0000
0000
0000
0000
,
0001
1000
0001
0000
1000
0001
1000
0000
,
0010
0000
0000
0010
0000
0000
1000
0000
0001
0000
0000
0001
0000
0000
1000
0000
,
0100
1000
0100
0000
0010
0001
0010
0000
,
0001
0000
0000
0001
0000
0000
0100
0000
0010
0000
0000
0010
0000
0000
0100
0000
,
0001
1000
0001
0000
1000
0010
1000
0000
,
0001
0000
0000
0001
0000
0000
1000
0000
0010
0000
0000
0010
0000
0000
1000
0000
,
0100
1000
0100
0000
0010
0001
0100
0000
,
0010
0000
0000
0110
0000
0000
0000
0000
1000
0000
0000
1001
0000
0000
0000
0000
,
2002
0000
0000
0000
,
0000
0000
0000
0000
,
3003
0000
0000
0000
;

//---------------dance-single - ----------------
#NOTES:
     dance-single:
     :
     Easy:
     5:
     0.249931,0.296446,0.088360,0.167883,0.000000,198.000000,188.000000,10.000000,19.000000,0.000000,0.000000,0.249931,0.296446,0.088360,0.167883,0.000000,198.000000,188.000000,10.000000,19.000000,0.000000,0.000000:
0000
0000
0000
0000
,
0000
0000
0000
0000
,
0000
0000
0000
0000
,
0010
0010
0010
0000
,
0100
0100
0100
0000
,
0001
0001
0001
0000
,
1000
1000
1000
0000
,
0001
1000
0001
0000
,
1000
0001
1000
0000
,
0010
0100
1001
0000
,
0100
0010
1001
0000
,
0001
1000
0001
0000
,
1000
0001
1000
0000
,
0010
1000
0100
0000
,
0010
0001
0100
0000
,
0001
0100
1000
0000
,
1000
0100
0001
0000
,
0010
0000
0100
0000
,
0001
0000
1001
0000
,
0010
0010
0010
1000
,
0100
0100
0100
1001
,
0010
0010
0010
0001
,
0100
0100
0100
1001
,
0001
0100
0001
0100
,
1000
0100
1000
0100
,
0001
0100
1000
0100
,
0002
0000
1003
1001
,
1000
1000
0100
0010
,
0001
0001
0010
0100
,
1000
1000
0010
0100
,
0001
0001
0100
1001
,
0010
0010
1000
0100
,
0010
0010
0001
0100
,
0010
0010
0100
0100
,
1000
0001
1000
1001
,
1000
0100
0010
0001
,
1000
0010
0100
0001
,
1000
0100
0010
0001
,
1000
0010
0001
0100
,
0001
0010
0100
1000
,
0001
0100
0010
1000
,
0001
0100
1000
0010
,
0200
0300
0020
0030
,
1000
0100
0010
0001
,
2000
3000
0002
0003
,
0100
0010
1000
0001
,
0200
0300
0020
0030
,
0001
0100
0010
1000
,
0002
0003
2000
3000
,
0001
0010
0100
1000
,
0020
0030
0200
0300
,
1000
0001
0100
0010
,
2000
3000
0002
0003
,
1000
0100
0010
0001
,
0200
0300
0020
0030
,
0001
1000
0010
1000
,
0200
0300
0020
0030
,
0001
0100
1000
0010
,
0001
0000
0110
0000
,
2002
0000
0000
0000
,
0000
0000
0000
0000
,
3003
0000
0000
0000
;

//---------------dance-single - ----------------
#NOTES:
     dance-single:
     :
     Beginner:
     1:
     0.085835,0.134748,0.008836,0.026508,0.000000,68.000000,67.000000,1.000000,3.000000,0.000000,0.000000,0.085835,0.134748,0.008836,0.026508,0.000000,68.000000,67.000000,1.000000,3.000000,0.000000,0.000000:
// measure 0
0000
0000
0000
0000
,  // measure 1
0000
0000
0000
0000
,  // measure 2
0000
0000
0000
0000
,  // measure 3
0001
0000
0000
0000
,  // measure 4
0000
0000
0000
0000
,  // measure 5
1000
0000
0000
0000
,  // measure 6
0000
0000
0000
0000
,  // measure 7
0010
0000
0000
0000
,  // measure 8
0000
0000
0000
0000
,  // measure 9
0100
0000
0000
0000
,  // measure 10
0000
0000
0000
0000
,  // measure 11
0001
0000
0000
0000
,  // measure 12
0010
0000
0000
0000
,  // measure 13
0100
0000
0000
0000
,  // measure 14
1000
0000
0000
0000
,  // measure 15
0001
0000
0000
0000
,  // measure 16
0010
0000
0000
0000
,  // measure 17
0100
0000
0000
0000
,  // measure 18
1000
0000
0000
0000
,  // measure 19
0001
0000
0000
0000
,  // measure 20
1000
0000
0000
0000
,  // measure 21
0001
0000
0000
0000
,  // measure 22
1000
0000
0000
0000
,  // measure 23
0001
0000
0001
0000
,  // measure 24
0001
0000
0001
0000
,  // measure 25
0002
0000
0000
0000
,  // measure 26
0003
0000
0000
0000
,  // measure 27
1000
0000
0000
0000
,  // measure 28
0100
0000
0000
0000
,  // measure 29
0010
0000
0000
0000
,  // measure 30
0001
0000
0000
0000
,  // measure 31
1000
0000
0000
0000
,  // measure 32
0010
0000
0000
0000
,  // measure 33
0001
0000
0000
0000
,  // measure 34
0100
0100
0100
0000
,  // measure 35
0100
0000
0000
0000
,  // measure 36
0010
0000
0000
0000
,  // measure 37
1000
0000
0000
0000
,  // measure 38
0001
0000
0000
0000
,  // measure 39
1000
0000
1000
0000
,  // measure 40
0001
0000
0001
0000
,  // measure 41
1000
0000
0001
0000
,  // measure 42
1000
0000
0000
0000
,  // measure 43
0010
0000
0000
0000
,  // measure 44
0100
0000
0100
0000
,  // measure 45
0100
0000
0000
0000
,  // measure 46
0001
0000
0001
0000
,  // measure 47
0001
0000
0000
0000
,  // measure 48
1000
0000
1000
0000
,  // measure 49
1000
0000
0000
0000
,  // measure 50
0010
0000
0010
0000
,  // measure 51
0100
0000
0000
0000
,  // measure 52
0001
0000
0001
0000
,  // measure 53
0001
0000
0000
0000
,  // measure 54
1000
0000
1000
0000
,  // measure 55
1000
0000
0000
0000
,  // measure 56
0010
0000
0010
0000
,  // measure 57
0010
0000
0000
0000
,  // measure 58
1000
0000
0001
0000
,  // measure 59
2002
0000
0000
0000
,  // measure 60
0000
0000
0000
0000
,  // measure 61
3003
0000
0000
0000
;
