#TITLE:Venus;
#SUBTITLE:("STREAM" Special);
#ARTIST:Tatsh+RayZY;
#TITLETRANSLIT:;
#SUBTITLETRANSLIT:;
#ARTISTTRANSLIT:;
#GENRE:;
#CREDIT:;
#BANNER:Venus (STREAM Special).png;
#BACKGROUND:Venus (STREAM Special)-bg.png;
#LYRICSPATH:;
#CDTITLE:;
#MUSIC:Venus (STREAM Special).ogg;
#OFFSET:0.000000;
#SAMPLESTART:66.900002;
#SAMPLELENGTH:15.000000;
#SELECTABLE:YES;
#DISPLAYBPM:195.000000;
#BPMS:0.000000=195.651993
,4.000000=195.007004
;
#STOPS:
;
#BGCHANGES:0.000=Venus (STREAM Special).avi=1.000=0=0=0=StretchNoLoop====,
99999=-nosongbg-=1.000=0=0=0 // don't automatically add -songbackground-
;
#KEYSOUNDS:;
#ATTACKS:;

//---------------dance-single - ----------------
#NOTES:
     dance-single:
     :
     Challenge:
     12:
     0.664722,0.662125,0.470845,0.396987,0.018464,504.000000,453.000000,51.000000,43.000000,0.000000,0.000000,0.664722,0.662125,0.470845,0.396987,0.018464,504.000000,453.000000,51.000000,43.000000,0.000000,0.000000:
// measure 0
0000
0000
0000
0000
,  // measure 1
0000
0000
0000
0000
,  // measure 2
0000
0000
0000
0000
,  // measure 3
2001
0000
0000
0200
0000
0000
3300
0000
,  // measure 4
1002
0000
0000
0200
0000
0000
0303
0000
,  // measure 5
1000
0001
0100
0000
0001
1000
0100
0000
,  // measure 6
1000
0010
0100
0000
0001
0100
0010
0000
,  // measure 7
1000
0100
1000
0100
0010
0001
0010
0001
,  // measure 8
1000
0010
1000
0010
0100
0001
0100
0001
,  // measure 9
1000
0100
0010
0100
1000
0100
0010
0100
,  // measure 10
1000
0010
0100
0010
0100
0001
0000
0011
,  // measure 11
0000
0001
0100
0010
0100
0001
1000
0001
,  // measure 12
0000
1000
0100
1000
0010
0001
0100
0010
,  // measure 13
0000
0001
1000
0001
0100
0001
0010
0002
,  // measure 14
0000
1003
0010
0100
0001
1000
0000
0011
,  // measure 15
0000
1000
0001
0010
0001
1000
0100
1000
,  // measure 16
0000
0001
0010
0001
1000
0010
1000
0100
,  // measure 17
0000
1000
0001
0010
0001
0100
0010
2000
,  // measure 18
0000
3001
0010
0001
1000
1000
0001
0000
,  // measure 19
0100
0010
1000
0001
1000
0100
0010
0001
,  // measure 20
0100
0010
1000
0001
1000
0100
0010
0000
,  // measure 21
2001
0000
3010
0100
0001
2000
0000
3010
,  // measure 22
0200
0000
0301
1000
0000
0010
0110
0000
,  // measure 23
0110
0000
1000
0100
0010
0002
0000
0013
,  // measure 24
0100
0000
0100
0002
0000
1003
0000
0010
,  // measure 25
0100
0000
0001
1000
0100
1000
0001
0100
,  // measure 26
0010
0000
1000
0100
0010
0001
0100
0010
,  // measure 27
0000
1000
0002
0000
2003
0000
3001
0100
,  // measure 28
0001
0100
0001
0100
0010
1000
0010
1000
,  // measure 29
0100
0000
1000
0001
0100
0001
1000
0010
,  // measure 30
0100
0000
0001
0100
0000
0001
1000
1000
,  // measure 31
1000
0000
0001
0010
0001
0100
0001
1000
,  // measure 32
0001
0000
0100
0010
0000
1000
0000
0001
,  // measure 33
0020
0000
0001
0130
0002
0000
2003
0000
,  // measure 34
3020
0000
1000
0130
2000
0000
3002
0000
,  // measure 35
0023
0031
2000
3100
,  // measure 36
0010
0001
0010
0001
1000
0100
1000
0100
,  // measure 37
1000
0000
0010
0100
0001
0000
0100
0000
,  // measure 38
1010
0000
0001
0100
0010
0000
1100
0000
,  // measure 39
0101
0000
1000
0010
0100
0000
0002
0000
,  // measure 40
0203
0000
0310
1000
0002
0000
0203
0000
,  // measure 41
0320
0000
1030
0100
2000
0000
3002
0000
,  // measure 42
0203
0000
0310
1000
0100
0000
0010
0000
,  // measure 43
2000
0001
3001
0020
,  // measure 44
0100
0100
0100
0130
,  // measure 45
0001
0100
0001
1000
0001
0100
0001
0000
,  // measure 46
1000
0100
1000
0001
1000
0100
1000
0000
,  // measure 47
0001
0010
0001
1000
0001
0100
0001
0000
,  // measure 48
0200
0001
0010
0301
,  // measure 49
2000
0000
3001
0100
0020
0000
1000
0000
,  // measure 50
0100
1000
1030
0101
,  // measure 51
2000
3010
0200
0301
,  // measure 52
0020
0031
2000
3100
,  // measure 53
0001
0010
0100
1000
0100
0010
0001
2000
,  // measure 54
0000
3000
0000
1001
0000
0000
0010
0000
,  // measure 55
0011
0000
1000
0020
0000
0130
0010
0000
,  // measure 56
1001
0000
0010
0002
0000
1003
0100
0000
,  // measure 57
1100
0000
0001
0020
0000
0031
0100
0000
,  // measure 58
1001
0000
0110
0000
1001
0000
1000
0001
,  // measure 59
0000
0001
1000
0000
0001
0100
0010
0000
,  // measure 60
1000
0010
1000
0010
0100
0000
0001
0010
,  // measure 61
0000
0001
0100
0000
0001
0000
0010
0000
,  // measure 62
1000
0000
0000
1002
0000
0000
0103
0010
,  // measure 63
0100
0000
0001
1001
0000
0000
1000
0001
,  // measure 64
1000
0000
0001
0101
0000
0000
0100
0010
,  // measure 65
0100
0001
0000
1001
0000
1000
0100
0000
,  // measure 66
0001
0010
0001
0000
0110
0000
0110
0000
,  // measure 67
0110
0000
1001
0000
0001
0010
0001
0000
,  // measure 68
1000
0100
1000
0000
0101
0000
0101
0000
,  // measure 69
1001
1001
0010
0000
,  // measure 70
1001
0000
0000
0000
0000
0000
0000
0000
0010
0000
0000
0010
0001
0000
0000
0001
,  // measure 71
0100
0000
0000
0100
0001
0000
0000
0001
1000
0000
0000
0000
1001
0000
0000
0000
,  // measure 72
1000
0010
0000
0110
0000
0001
0100
0000
,  // measure 73
0001
0100
0000
0110
0000
1000
0100
0000
,  // measure 74
1000
0100
0000
1001
0000
0001
0010
0000
,  // measure 75
0011
0110
1100
0001
,  // measure 76
1000
0001
0000
1001
0000
0010
0100
0000
,  // measure 77
0001
0100
0000
0010
1000
0001
1000
0001
,  // measure 78
0100
0010
0100
0010
1000
0100
0010
0000
,  // measure 79
0101
1010
0101
1010
,  // measure 80
0001
0010
0100
0010
0001
0000
1001
0000
,  // measure 81
0100
0010
1000
0010
0100
0000
1001
0000
,  // measure 82
0010
0100
0001
0100
0010
0000
1010
0000
,  // measure 83
1010
0101
0101
1001
,  // measure 84
0010
0100
0000
1001
0000
0000
0000
0000
;
