#TITLE:Uranus;
#SUBTITLE:("AIR" Special);
#ARTIST:Tatsh SN 2 Style;
#TITLETRANSLIT:;
#SUBTITLETRANSLIT:;
#ARTISTTRANSLIT:;
#GENRE:;
#CREDIT:;
#BANNER:Uranus (AIR Special).png;
#BACKGROUND:Uranus (AIR Special)-bg.png;
#LYRICSPATH:;
#CDTITLE:;
#MUSIC:Uranus (AIR Special).ogg;
#OFFSET:0.000000;
#SAMPLESTART:33.150002;
#SAMPLELENGTH:15.000000;
#SELECTABLE:YES;
#DISPLAYBPM:81.000000:162.000000;
#BPMS:0.000000=162.162003
,4.000000=161.994003
,56.000000=162.024994
,120.000000=80.989998
,136.000000=161.975006
,175.000000=162.042007
;
#STOPS:56.000000=0.373000,
120.000000=1.480000,
136.000000=1.480000,
175.000000=0.373000
;
#BGCHANGES:;
#KEYSOUNDS:;
#ATTACKS:;

//---------------dance-single - ----------------
#NOTES:
     dance-single:
     :
     Challenge:
     12:
     0.598664,0.764770,1.284383,0.178126,0.131251,447.000000,310.000000,137.000000,19.000000,0.000000,0.000000,0.598664,0.764770,1.284383,0.178126,0.131251,447.000000,310.000000,137.000000,19.000000,0.000000,0.000000:
0000
0000
0000
0000
,
0000
0000
0000
0000
,
1000
1001
1000
1001
,
0010
0110
0010
0110
,
0001
1010
0001
1010
,
0001
0000
0110
0000
0001
0100
0101
0000
,
1000
0001
1001
0000
1000
0000
0110
0000
,
0001
1000
1001
0000
0001
0000
0110
0000
,
1000
0010
1010
0000
0100
0000
0011
0000
,
1000
0100
1100
0000
0010
0000
0101
0000
,
0001
0010
0011
0000
1001
0000
1100
0000
,
1000
0010
1010
0000
1001
0000
0110
0000
,
0001
0100
0101
0000
1000
0010
1010
0000
,
0001
0010
0001
1000
0100
1000
1001
1001
,
0000
0001
0000
0000
0000
0000
1000
0000
0000
0000
0000
0000
0001
0000
0000
0000
0000
0000
1000
0000
0000
0000
0000
0000
0010
0000
0000
0000
0000
0000
0100
0000
0000
0000
0000
0000
0010
0000
0000
0000
0000
0000
0100
0000
0000
0000
0000
0000
,
1010
1010
0101
0101
,
1000
0100
1000
0100
0010
0001
0010
0001
,
0110
0110
1001
1001
,
0100
0001
1001
0000
1001
0100
0010
0000
,
1000
0010
0101
0000
1010
0100
1000
0000
,
0011
0100
1000
0000
1001
0100
0010
0000
,
1100
0000
0011
0000
0100
0001
1001
1001
,
0000
0000
0101
0000
0000
1100
0000
0000
0101
0000
0000
1100
0000
0000
0101
0000
,
0000
0000
0011
0000
0000
1010
0000
0000
0011
0000
0000
1010
0000
0000
1001
0000
,
0000
0000
0110
0000
0000
1010
0000
0000
0101
0000
0000
1010
0000
0000
0110
0000
,
0000
0000
1010
0000
0000
0101
0000
0000
1001
0000
0000
0101
0000
0000
1010
0000
,
0000
0000
0011
0000
0000
1100
0000
0000
0110
0000
0000
1100
0000
0000
0011
0000
,
0000
0000
1010
0000
0000
0101
0000
0000
0110
0000
0000
0101
0000
0000
1010
0000
,
0000
0000
0011
0000
0000
0110
0000
0000
1010
0000
0000
0110
0000
0000
0011
0000
,
0000
0000
1010
0000
0000
0101
0000
0000
1100
0000
0000
0011
0000
0000
0200
0000
,
0000
0000
0000
0300
0010
0000
0000
0000
0000
0000
0000
0000
1000
0000
0000
0000
0000
0000
0000
0000
0000
0000
0000
0000
0000
0000
0000
0000
0000
0000
0000
0000
0000
0000
0000
0000
0000
0000
0000
0000
0000
0000
0000
0000
0000
0000
0000
0000
0101
0000
0000
0000
0000
0000
0000
0000
0000
0000
0000
0000
0000
0000
0000
0000
0000
0000
0000
0000
0000
0000
0000
0000
0101
0000
0000
0000
0000
0000
0000
0000
0000
0000
0000
0000
0000
0000
0000
0000
0000
0000
0000
0000
0000
0000
0000
0000
1000
0000
0000
0000
0000
0000
0000
0000
0000
0000
0000
0000
0010
0000
0000
0000
0000
0000
0000
0000
0000
0000
0000
0000
0000
0000
0000
0000
0000
0000
0000
0000
0000
0000
0000
0000
0000
0000
0000
0000
0000
0000
0000
0000
0000
0000
0000
0000
0101
0000
0000
0000
0000
0000
0000
0000
0000
0000
0000
0000
0000
0000
0000
0000
0000
0000
0000
0000
0000
0000
0000
0000
0101
0000
0000
0000
0000
0000
0000
0000
0000
0000
0000
0000
0000
0000
0000
0000
0000
0000
0000
0000
0000
0000
0000
0000
,
1000
0100
0000
0000
0011
0000
0011
0000
0100
0010
0000
0000
1001
0000
1001
0000
,
0001
0010
0000
0000
1100
0000
1100
0000
0100
0010
0000
0000
1001
0000
1001
0000
,
1000
0010
0000
0000
0101
0000
0101
0000
0001
0010
0000
0000
1100
0000
1100
0000
,
0000
2002
0000
0000
0000
0000
0000
0000
0000
0000
0000
0000
0000
0000
0000
0000
0000
0000
0000
0000
0000
0000
0000
0000
0000
0000
0000
0000
0000
0000
0000
0000
0000
0000
0000
0000
0003
0000
0000
0000
0000
0000
0000
0000
0000
0000
0000
0000
,
0002
0003
0002
3003
,
2002
3000
2000
3000
,
2000
3000
2000
3003
,
0220
0030
0020
0030
,
0020
0030
0020
0330
,
1100
1100
0011
0011
,
1010
1010
0101
0101
,
1000
0100
0010
0001
1000
0100
0010
0001
,
2002
0000
0000
0000
0000
0000
0000
0000
0000
0000
0000
0000
0000
0000
0000
0000
0000
0000
0000
0000
0000
0000
0000
0000
0000
0000
0000
0000
0000
0000
0000
0000
0000
0000
0000
0000
3003
1001
0000
0000
0000
0000
0000
0000
0000
0000
0000
0000
,
1100
0000
0011
0000
1100
0000
0001
0010
,
0100
0010
0001
1000
0001
0000
1100
0000
,
0011
0000
0110
0000
0011
0000
1000
0001
,
0100
0001
1000
0010
1000
0000
0101
0000
,
0011
0000
1010
0000
0011
0000
0100
0010
,
1000
0001
0100
0010
1000
0000
0011
0000
,
0101
0000
1001
0000
0101
0000
0100
0010
,
1000
0001
1001
0000
1100
0000
0011
0000
,
0100
0001
1000
0001
0100
0001
1000
0100
,
0010
0001
0010
0100
1000
0000
0101
0000
,
1000
0000
0001
0100
0010
0100
0001
1000
,
0010
0100
0110
0000
1010
0000
0101
0000
,
0100
0001
1000
0001
0100
0001
0010
0001
,
1000
0001
1000
0100
0010
0001
1001
1000
,
0001
0001
1000
0100
0010
0100
0110
0100
,
0010
0010
1000
0100
0010
0001
2002
0000
,
0000
0000
0000
0000
,
0000
0000
0000
0000
,
0000
0000
0000
3003
;

//---------------dance-double - ----------------
#NOTES:
     dance-double:
     :
     Challenge:
     12:
     0.613397,0.636801,1.734386,0.065625,0.117188,458.000000,273.000000,185.000000,7.000000,0.000000,0.000000,0.613397,0.636801,1.734386,0.065625,0.117188,458.000000,273.000000,185.000000,7.000000,0.000000,0.000000:
// measure 0
00000000
00000000
00000000
00000000
,  // measure 1
00000000
00000000
00000000
00000000
,  // measure 2
10000000
01010000
10000000
01001000
,  // measure 3
00010000
00001100
00010000
00001010
,  // measure 4
00010000
00001001
00010000
00001001
,  // measure 5
00020000
00000000
00000000
00031000
,  // measure 6
00011000
01001000
00011000
01001000
,  // measure 7
00011000
00010100
00011000
00010100
,  // measure 8
00011000
00101000
00011000
00101000
,  // measure 9
00011000
00010010
00011000
00010010
,  // measure 10
00011000
00010100
00010010
00010100
,  // measure 11
00011000
00101000
01001000
00101000
,  // measure 12
00011000
00010010
00011000
01001000
,  // measure 13
10010000
00000000
01001000
00000000
00011000
00011000
00011000
00011000
,  // measure 14
00000000
00100000
00000000
00000000
00000000
00000000
00000000
00000000
00000000
00000000
00000000
00000000
00010000
00000000
00000000
00000000
00000000
00000000
00000000
00000000
00000000
00000000
00000000
00000000
01000000
00000000
00000000
00000000
00000000
00000000
00000000
00000000
00000000
00000000
00000000
00000000
10000000
00000000
00000000
00000000
00000000
00000000
00000000
00000000
00000000
00000000
00000000
00000000
,  // measure 15
10010000
00110000
10010000
00110000
,  // measure 16
10000000
02000000
00001000
00010000
,  // measure 17
13000000
11000000
01010000
00011000
,  // measure 18
00010010
00001001
00010010
00001001
,  // measure 19
00010000
00010100
00001000
01001000
,  // measure 20
01010000
10100000
01001000
10010000
,  // measure 21
00200000
00010000
01000000
10300000
,  // measure 22
00000000
00000000
11000000
00000000
00000000
00110000
00000000
00000000
11000000
00000000
00000000
01010000
00000000
00000000
00110000
00000000
,  // measure 23
00000000
00000000
00011000
00000000
00000000
00010010
00000000
00000000
00011000
00000000
00000000
00001010
00000000
00000000
00001001
00000000
,  // measure 24
00000000
00000000
00001100
00000000
00000000
00001010
00000000
00000000
00010010
00000000
00000000
00001010
00000000
00000000
00010010
00000000
,  // measure 25
00000000
00000000
00011000
00000000
00000000
01001000
00000000
00000000
00011000
00000000
00000000
01010000
00000000
00000000
10010000
00000000
,  // measure 26
00000000
00000000
01100000
00000000
00000000
10100000
00000000
00000000
00110000
00000000
00000000
10100000
00000000
00000000
10010000
00000000
,  // measure 27
00000000
00000000
00101000
00000000
00000000
00010100
00000000
00000000
00010010
00000000
00000000
00010100
00000000
00000000
00101000
00000000
,  // measure 28
00000000
00000000
00001010
00000000
00000000
00000101
00000000
00000000
00001001
00000000
00000000
00001010
00000000
00000000
00010010
00000000
,  // measure 29
00000000
00000000
00011000
00000000
00000000
01001000
00000000
00000000
00011000
00000000
00000000
00010100
00000000
00000000
00011000
00000000
,  // measure 30
00000000
00010000
00000000
00000000
01010000
00000000
00011000
00000000
00000000
00000010
00000000
00000000
00011000
00000000
01010000
00000000
,  // measure 31
00000000
10000000
00000000
00000000
01010000
00000000
00011000
00000000
00000000
00000010
00000000
00000000
00001100
00000000
00000101
00000000
,  // measure 32
00000000
00001000
00000000
00000000
00001010
00000000
00011000
00000000
00000000
00100000
00000000
00000000
01010000
00000000
10100000
00000000
,  // measure 33
00000000
00001000
00000000
00000000
00110000
00000000
00010010
00000000
00000000
00000100
00000000
00000000
00001001
00000000
00011000
00000000
,  // measure 34
00000000
11000000
01001000
00011000
,  // measure 35
00001001
00001100
00011000
10010000
,  // measure 36
01001000
10010000
01001000
00101000
,  // measure 37
00001010
00101000
01010000
10010000
,  // measure 38
00110000
11000000
10010000
01001000
,  // measure 39
10010000
01001000
00010100
00001001
,  // measure 40
00010100
00001001
00010010
00001001
,  // measure 41
00010010
00101000
00010010
00101000
,  // measure 42
10010000
10010000
10010000
00000000
10010000
10010000
10010000
00000000
,  // measure 43
02200000
00000000
00000000
03300000
,  // measure 44
10100000
00000000
01010000
00000000
10100000
00000000
00010000
00100000
,  // measure 45
00001000
00010000
00000010
00001000
00000001
00000000
00001100
00000000
,  // measure 46
00001001
00000000
00001010
00000000
00001001
00000000
00001000
00000100
,  // measure 47
00010000
00001000
01000000
00010000
10000000
00000000
01001000
00000000
,  // measure 48
00011000
00000000
01001000
00000000
10010000
00000000
00100000
00001000
,  // measure 49
00010000
00000010
00001000
00000001
00000100
00000000
00001001
00000000
,  // measure 50
00010100
00000000
00001001
00000000
00010100
00000000
00001000
00100000
,  // measure 51
00010000
10000000
00100000
10000000
00010000
00000000
00101000
00000000
,  // measure 52
00010010
00101000
00010010
00001001
,  // measure 53
00010010
00101000
01010000
00010100
,  // measure 54
01010000
00011000
01010000
00010010
,  // measure 55
10010000
00000000
00011000
00000000
00001001
00000000
00001000
00000010
,  // measure 56
00010000
00001000
00100000
00010000
10000000
01000000
00100000
00010000
,  // measure 57
00100000
00001000
00010000
00000010
00001000
00000001
00001001
00000001
,  // measure 58
00001000
00000100
00010000
00001000
10000000
00010000
10010000
00010000
,  // measure 59
10000000
00100000
01000000
00001000
00010000
00000000
00022000
00000000
,  // measure 60
00000000
00000000
00000000
00000000
,  // measure 61
00000000
00000000
00000000
00033000
;
