#TITLE:The Muffin Song (feat. Schmoyoho);
#SUBTITLE:;
#ARTIST:The Gregory Bros. & TomSka;
#TITLETRANSLIT:;
#SUBTITLETRANSLIT:;
#ARTISTTRANSLIT:;
#GENRE:;
#CREDIT:;
#BANNER:The Muffin Song (feat. Schmoyoho).png;
#BACKGROUND:The Muffin Song (feat. Schmoyoho)-bg.png;
#LYRICSPATH:;
#CDTITLE:;
#MUSIC:The Muffin Song (feat. Schmoyoho).ogg;
#OFFSET:0.000000;
#SAMPLESTART:25.178572;
#SAMPLELENGTH:12.857141;
#SELECTABLE:YES;
#BPMS:0.000000=112.000000
;
#STOPS:
;
#BGCHANGES:0.000=The Muffin Song (feat. Schmoyoho).avi=1.000=0=0=0=StretchNoLoop====,
99999=-nosongbg-=1.000=0=0=0 // don't automatically add -songbackground-
;
#KEYSOUNDS:;
#ATTACKS:;

//---------------dance-single - ----------------
#NOTES:
     dance-single:
     :
     Hard:
     12:
     0.444341,0.503573,0.454996,0.320735,0.413972,417.000000,356.000000,61.000000,43.000000,0.000000,0.000000,0.444341,0.503573,0.454996,0.320735,0.413972,417.000000,356.000000,61.000000,43.000000,0.000000,0.000000:
0000
0000
0000
0000
,
0000
0000
0000
0000
,
0000
0000
0000
0000
,
0000
0000
0000
0000
,
0200
0000
0000
0000
0300
0000
0001
1000
0000
1000
0000
0000
0001
0000
0000
0000
,
1000
0100
1000
0000
0001
0100
0000
0200
0000
0000
0000
0000
0310
0000
0000
0000
,
0002
0000
0000
0000
1003
0000
0010
0100
0000
0200
0000
0000
0300
0000
0000
0000
,
0001
0000
0000
1000
0000
0001
0010
0200
0000
0000
0000
0000
0310
0000
0000
0000
,
1000
0000
0001
0000
1000
0010
0000
0010
0000
0100
0000
0000
0001
0000
0000
0000
,
1000
0000
0000
0001
0100
0010
0000
2000
0000
0000
0000
0000
3001
0000
0000
0000
,
0010
0000
0000
0001
0000
0000
0100
0000
0000
0010
0000
0000
1000
0001
1000
0001
,
1000
0000
0000
1010
0000
0000
2002
0000
0000
0000
3003
0000
0100
0010
0100
0010
,
0100
0000
0000
1010
0000
0000
0101
0000
0000
0000
1000
0000
0001
0000
0000
0000
,
0011
0000
0000
1010
0000
0000
1001
0000
0000
0000
0100
0000
0010
0000
1000
0000
,
0101
0000
0000
0101
0000
0000
2002
0000
0000
0000
3003
0000
1000
0010
0100
0010
,
1000
0000
0000
0101
0000
0000
1001
0000
0000
0000
0000
0000
0010
0100
0001
0100
,
0010
0000
0000
1010
0000
0000
0101
0000
0000
0000
1000
0000
0100
0000
0000
0000
,
1010
0000
0000
0101
0000
0000
2000
0000
0000
3001
0100
0000
0000
0000
0010
0000
,
1010
0000
0000
0101
0000
0000
2002
0000
0000
0000
3003
0000
0010
1000
0100
0010
,
0001
0000
0000
1100
0000
0000
0101
0000
0000
0000
0010
0000
1010
0000
0000
0000
,
0001
0000
0000
1000
0100
0010
0000
0001
0000
0000
1000
0000
0001
0000
0100
0000
,
0010
0000
0000
0000
1000
0010
0000
0001
0000
0000
0100
0000
0010
0000
0000
0000
,
0001
0100
0010
1000
0000
0202
0000
0303
,
1100
0000
0000
0110
0000
0000
0011
0000
0000
0000
0100
0000
0010
0000
0000
0000
,
1000
0100
0010
0002
0000
1003
0020
0000
,
0130
0001
1000
0020
0000
0130
1001
0000
,
0001
0100
0001
0100
0000
0010
1000
0000
0010
0000
0000
0000
1001
0000
0000
0000
,
0101
0000
0000
1010
0000
0000
0002
0000
0000
0000
1003
0000
0000
0000
0010
0000
,
1000
0000
0100
1000
0100
0000
1000
0000
0010
0000
0100
0001
0000
0000
0000
0000
,
1000
0000
0010
0000
1000
0001
0000
0101
0000
0000
0000
0000
0000
0000
0001
0000
,
1000
0000
0010
0100
0000
0000
0001
0000
1000
0100
1000
0000
0001
0000
0100
0000
,
0000
0000
0001
0000
1000
0000
0010
0100
0000
0000
0000
0000
0001
0000
1000
0010
,
0000
0000
1000
0000
0001
0000
0000
0000
0010
0000
0010
0000
1000
1000
0000
1000
,
0000
0000
0000
0000
0001
0000
0100
0001
0000
1000
0000
0000
0010
0000
0000
0000
,
1000
0010
1000
0010
1000
0000
0001
0000
0100
0010
0100
0010
0000
0000
0000
0000
,
0002
0000
0000
1003
0020
0000
0130
0001
0000
0000
0000
0000
1000
0100
0010
0100
,
1000
0000
0000
1001
0000
0000
0101
0000
0000
0000
1000
0000
0001
0000
0100
0000
,
0010
0000
0000
1010
0000
0000
0100
0000
0001
0000
0000
1001
0000
0000
0010
0000
,
0001
0000
0000
0101
0000
0000
2002
0000
0000
0000
3003
0000
1000
0010
0100
0010
,
1000
0000
0000
1001
0000
0000
0100
0000
0010
0000
0000
0110
0000
0000
0100
0000
,
0001
0000
0000
0011
0000
0000
1001
0000
0000
0000
0000
0000
0000
0000
0000
0000
,
1000
0000
0000
1010
0000
0000
1002
0000
0000
0103
0010
0000
1000
0000
0100
0000
,
0010
0000
0000
1010
0000
0000
0101
0000
0000
0000
1000
0000
0001
0100
0010
0100
,
0001
0000
0000
1001
0000
0000
0110
0000
0000
0000
1000
0000
1001
0000
0000
0000
,
0020
0000
0000
0001
0000
0000
0032
0000
0000
0000
0000
0000
0103
0000
0000
0000
,
0200
0000
0000
0010
0000
0000
0320
0000
0000
0000
0000
0000
1030
0000
0000
0000
,
2000
0000
0000
0010
0000
0000
3020
0000
0000
0000
0000
0000
0130
0000
0000
0000
,
0200
0000
0000
0010
0000
0000
0320
0000
0000
0000
0000
0000
1030
0000
0000
0000
,
0002
0000
0000
0100
0000
0000
0203
0000
0000
0000
0000
0000
0310
0000
0000
0000
,
2000
0000
0000
0010
0000
0000
3020
0000
0000
0000
0000
0000
0130
0000
0000
0000
,
0002
0000
0000
1000
0000
0000
2003
0000
0000
0000
0000
0000
3010
0000
0100
0000
,
0002
0000
0000
0000
1003
0000
0020
0000
0000
0000
0130
0000
0001
1000
0001
1000
,
0001
0000
0000
0100
0000
0000
0100
0000
0000
0000
0000
0000
0000
0000
0000
0000
,
1000
0000
0000
0100
0000
0000
1001
0000
0000
0000
0010
0000
1000
0000
0100
0000
,
0010
0000
0000
0011
0000
0000
1010
0000
0000
0000
0001
0000
0100
0010
1000
0001
,
0100
0000
0000
1010
0000
0000
0101
0000
0000
0000
1000
0000
0001
0010
0100
0010
,
0001
0000
0000
1010
0000
0000
0101
0000
0000
0000
1000
0000
0001
0000
0100
0000
,
0010
0000
0000
1010
0000
0000
0002
0000
0000
0103
0010
0000
1000
0100
0010
0001
,
1000
0000
0000
0001
0000
0000
1001
0000
0000
0000
0010
0000
0100
0001
0100
0001
,
0100
0000
0000
1010
0000
0000
0101
0000
0000
0000
1000
0000
0001
0000
0100
0000
,
0100
0000
0000
0010
0000
0000
2002
0000
0000
0000
3003
0000
1000
0000
0100
0000
,
0001
0000
0000
0010
0000
0000
1001
0000
0000
0000
0000
0000
0000
0000
0000
0000
;

//---------------dance-double - ----------------
#NOTES:
     dance-double:
     :
     Hard:
     11:
     0.447537,0.503573,0.432620,0.179015,0.350571,420.000000,362.000000,58.000000,24.000000,0.000000,0.000000,0.447537,0.503573,0.432620,0.179015,0.350571,420.000000,362.000000,58.000000,24.000000,0.000000,0.000000:
00000000
00000000
00000000
00000000
,
00000000
00000000
00000000
00000000
,
00000000
00000000
00000000
00000000
,
00000000
00000000
00000000
00000000
,
00200000
00000000
00000000
00000000
10300000
00000000
00010000
00000000
01000000
00100000
00000000
00000000
10000000
00000000
00000000
00000000
,
00010000
00000000
00100000
00000000
00001000
00100000
00000000
00001000
00000000
00000000
00010000
00000000
00000100
00000000
00000000
00000000
,
00002000
00000000
00000000
00000000
00003001
00000000
00000100
00000010
00000000
00000010
00000000
00000000
00001000
00000000
00000000
00000000
,
00000100
00000000
00000000
00000010
00000000
00001000
00000100
00000010
00000000
00000000
00010000
00000000
00001000
00000000
00000000
00000000
,
00100000
00000000
00010000
00000000
01000000
00010000
00000000
10000000
00000000
00100000
00000000
00000000
10000000
00000000
00000000
00100000
,
10000000
00000000
01000000
00000000
00100000
00010000
00000000
01000000
00000000
00000000
00001000
00000000
00010000
00000000
00000000
00000000
,
00000100
00000000
00000000
00001000
00000000
00000000
00000010
00000000
00000000
00000001
00000000
00000000
00001000
00000000
00000100
00000000
,
00000010
00000000
00000000
00001010
00000000
00000000
00000101
00000000
00000000
00000000
00001000
00000000
00000100
00010000
00000100
00000000
,
00010000
00000000
00000000
00011000
00000000
00000000
01001000
00000000
00000000
00000000
01000000
00000000
00010000
00000000
00000000
00000000
,
10000000
00000000
00000000
10100000
00000000
00000000
10010000
00000000
00000000
00000000
01000000
00000000
00010000
00000000
00100000
00000000
,
00100000
00000000
00000000
00101000
00000000
00000000
00011000
00000000
00000000
00000000
00010000
00000000
00000100
00000000
00001000
00000000
,
00000001
00000000
00000000
00001001
00000000
00000000
00001010
00000000
00000000
00000000
00000001
00000000
00001000
00000000
00000100
00000000
,
00001100
00000000
00000000
00001010
00000000
00000000
00001001
00000000
00000000
00000000
00001000
00000000
00000100
00000000
00010000
00000000
,
00011000
00000000
00000000
00101000
00000000
00000000
01001000
00000000
00000000
00000000
01000000
00000000
00010000
00000000
10000000
00000000
,
00100000
00000000
00000000
10100000
00000000
00000000
10010000
00000000
00000000
00000000
01000000
00000000
00010000
00000000
00100000
00000000
,
00110000
00000000
00000000
01010000
00000000
00000000
10010000
00000000
00000000
00000000
00100000
00000000
00001000
00000000
00000000
00000000
,
00010000
00000000
00000000
00001000
00010000
00001000
00000000
00010000
00000000
00000000
00000100
00000000
00001000
00000000
00000010
00000000
,
00000100
00000000
00000000
00000000
00000001
00001000
00000000
00000010
00000000
00000000
00001000
00000000
00000100
00000000
00000000
00000000
,
00010000
00010000
00001000
01000000
00000000
01000000
00010000
00000000
,
10010000
00000000
00000000
10100000
00000000
00000000
11000000
00000000
00000000
00000000
00100000
00000000
01000000
00000000
00001000
00000000
,
00010000
00010000
00000100
00002000
00000000
00003001
00000020
00000000
,
00000031
00000100
00000010
00002000
00000200
00000000
00003300
00000000
,
00001000
00000100
00001000
00000100
00000000
00010000
00001000
00000000
00010000
00000000
00000000
00000000
00001000
00000000
01000000
00000000
,
00010000
00000000
00000000
10010000
00000000
00000000
00110000
00000000
00000000
01000000
00100000
00000000
10000000
00000000
01000000
00000000
,
00010000
00000000
01000000
00100000
01000000
00000000
00010000
00000000
00100000
00000000
00000000
00001000
00000000
00000000
00010000
00000000
,
00000100
00000000
00001000
00000000
00000010
00001000
00000000
00000001
00000000
00000000
00000100
00000000
00000000
00000000
00000010
00000000
,
00001000
00000000
00000100
00001000
00000000
00000000
00010000
00000000
00001000
00010000
00001000
00000000
00010000
00000000
00000100
00000000
,
00000000
00000000
00010000
00000000
00001000
00000000
00000000
00100000
00000000
00000000
00000000
00000000
00010000
00000000
00000000
10010000
,
00000000
00000000
00000000
00000000
01100000
00000000
00000000
00000000
00010000
00000000
00010000
00000000
00010000
00010000
00000000
00010000
,
00000000
00000000
00000000
00000000
00100000
00000000
00000000
10000000
00000000
00010000
00000000
00000000
01000000
00000000
00000000
00000000
,
00100000
10000000
00100000
10000000
00000000
00000000
00010000
00000000
00100000
00001000
00100000
00001000
00000000
00000000
00010000
00000000
,
00000100
00000000
00001000
00000100
00000010
00000000
00000100
00000001
00000000
00000000
00001000
00000000
00000010
00000100
00000001
00000100
,
00000010
00000000
00000000
00001010
00000000
00000000
00001001
00000000
00000000
00000000
00001000
00000000
00000100
00000000
00010000
00000000
,
00001000
00000000
00000000
00101000
00000000
00000000
00001000
00000000
00100000
00000000
00000000
00010000
00000000
00000000
01000000
00000000
,
01100000
00000000
00000000
10100000
00000000
00000000
01020000
00000000
00000000
00000000
10030000
00000000
00100000
01000000
00010000
00000000
,
01000000
00000000
00000000
00010000
00000000
00000000
00100000
00000000
00001000
00000000
00000000
00010000
00000000
00000000
00000010
00000000
,
00001000
00000000
00000000
00001010
00000000
00000000
00001001
00000000
00000000
00000000
00000100
00000000
00010000
00000000
00001000
00000000
,
00010000
00000000
00000000
00011000
00000000
00000000
01001000
00000000
00000000
01000000
00010000
00000000
10000000
00000000
00100000
00000000
,
01000000
00000000
00000000
01100000
00000000
00000000
10010000
00000000
00000000
00000000
00100000
00000000
00001000
00000000
00010000
00000000
,
00000010
00000000
00000000
00001010
00000000
00000000
00001001
00000000
00000000
00000100
00000010
00000000
00001001
00000000
00000000
00000000
,
00000020
00000000
00000000
00001000
00000000
00000000
00002030
00000000
00000000
00000000
00000000
00000000
00003200
00000000
00000000
00000000
,
00020300
00000000
00000000
00001000
00000000
00000000
00032000
00000000
00000000
00000000
00000000
00000000
01003000
00000000
00010000
00000000
,
20000000
00000000
00000000
00100000
00000000
00000000
30200000
00000000
00000000
00000000
00000000
00000000
01300000
00000000
00010000
00000000
,
00200000
00000000
00000000
00001000
00000000
00000000
00302000
00000000
00000000
00000000
00000000
00000000
00013000
00000000
00000100
00000000
,
00002000
00000000
00000000
00000001
00000000
00000000
00003002
00000000
00000000
00000000
00000000
00000000
00000103
00000000
00000010
00000000
,
00002000
00000000
00000000
00000100
00000000
00000000
00003200
00000000
00000000
00000000
00020300
00000000
00000000
00000000
00031000
00000000
,
00001000
00000000
00000000
00100000
00000000
00000000
00020000
00000000
00000000
00000000
00000000
00000000
01030000
00000000
00100000
00000000
,
10010000
00000000
00000000
10000000
00000000
00000000
00200000
00000000
00000000
00000000
01300000
00000000
00010000
00100000
00010000
01000000
,
00010000
00000000
00000000
00100000
00000000
00000000
00011000
00000000
00000000
00000000
00000000
00000000
00000000
00000000
00000000
00000000
,
00000010
00000000
00000000
00001000
00000000
00000000
00000101
00000000
00000000
00000000
00001000
00000000
00000100
00000000
00010000
00000000
,
00001000
00000000
00000000
00101000
00000000
00000000
00101000
00000000
00000000
00000000
00100000
00000000
00010000
01000000
00100000
10000000
,
01000000
00000000
00000000
10100000
00000000
00000000
01010000
00000000
01000000
00000000
00000000
00000000
00010000
00000000
00100000
00000000
,
00001000
00000000
00000000
00011000
00000000
00000000
00010100
00000000
00000000
00000000
00010000
00000000
00000100
00000000
00001000
00000000
,
00000001
00000000
00000000
00001001
00000000
00000000
00001010
00000000
00000000
00000010
00001000
00000000
00000100
00000000
00010000
00000000
,
00001000
00000000
00000000
00011000
00000000
00000000
00101000
00000000
00000000
00100000
00010000
00000000
01000000
00000000
00100000
00000000
,
10000000
00000000
00000000
10100000
00000000
00000000
10010000
00000000
00000000
00000000
01000000
00000000
00100000
00000000
10000000
00000000
,
00010000
00000000
00000000
00010000
00000000
00000000
00020000
00000000
00000000
00000000
00000000
00000000
00130000
00000000
00001000
00000000
,
00010000
00000000
00000000
00000100
00000000
00000000
00000010
00000000
00000000
00000000
00000000
00000000
00000000
00000000
00000000
00000000
;

//---------------dance-double - ----------------
#NOTES:
     dance-double:
     :
     Medium:
     7:
     0.291965,0.343345,0.246146,0.179015,0.193933,274.000000,241.000000,33.000000,24.000000,0.000000,0.000000,0.291965,0.343345,0.246146,0.179015,0.193933,274.000000,241.000000,33.000000,24.000000,0.000000,0.000000:
00000000
00000000
00000000
00000000
,
00000000
00000000
00000000
00000000
,
00000000
00000000
00000000
00000000
,
00000000
00000000
00000000
00000000
,
00200000
00000000
00300000
00010000
10000000
00000000
00010000
00000000
,
00100000
00000000
00010000
00000000
01000000
00000000
00000000
01000000
00000000
00000000
00000000
00000000
10010000
00000000
00000000
00000000
,
00200000
00000000
00000000
00000000
00301000
00000000
00000000
00010000
00000000
00010000
00000000
00000000
00000000
00000000
00000000
00000000
,
00000100
00000000
00000000
00001000
00000000
00000000
00000001
00000000
00000000
00000000
00000000
00000000
00001001
00000000
00000000
00000000
,
00000010
00000000
00000000
00001000
00000000
00000000
00001000
00000000
00000000
00000000
00000000
00000000
00000100
00000000
00000000
00000000
,
00010000
00000000
00000000
00000000
00001000
00000000
00000000
00001000
00000000
00000000
00000000
00000000
01000000
00000000
00000000
00000000
,
00100000
00000000
00000000
00100000
00000000
00000000
00100000
00000000
00000000
00100000
00000000
00000000
10000000
00000000
00010000
00000000
,
01000000
00000000
00000000
01000000
00000000
00000000
02000000
00000000
00000000
00000000
03000000
00000000
00010000
00000000
10000000
00000000
,
00010000
00000000
00000000
00010000
00000000
00000000
00010000
00000000
00000000
00000000
00000000
00000000
00100000
00000000
00000000
00000000
,
00001000
00000000
00000000
00001000
00000000
00000000
00001000
00000000
00000000
00000000
00000000
00000000
00000000
00000000
00010000
00000000
,
00000010
00000000
00000000
00000010
00000000
00000000
00001001
00000000
00000000
00000000
00000000
00000000
00000100
00000000
00010000
00000000
,
00001000
00000000
00000000
00001000
00000000
00000000
00001000
00000000
00000000
00000000
00000000
00000000
01000000
00000000
00010000
00000000
,
10000000
00000000
00000000
10000000
00000000
00000000
10000000
00000000
00000000
00000000
00000000
00000000
00010000
00000000
00000000
00000000
,
00100000
00000000
00000000
00100000
00000000
00000000
00200000
00000000
00000000
00000000
00302000
00000000
00000000
00000000
00013000
00000000
,
00010000
00000000
00000000
00000010
00000000
00000000
00010000
00000000
00000000
00000000
00000000
00000000
00000100
00000000
00001000
00000000
,
00000010
00000000
00000000
00000001
00000000
00000000
00001001
00000000
00000000
00000000
00000000
00000000
00000110
00000000
00000000
00000000
,
00001000
00000000
00000000
00000000
00000001
00000000
00000000
00000101
00000000
00000000
00000000
00000000
00000000
00000000
00001000
00000000
,
00000100
00000000
00000000
00000000
00010000
00000000
00000000
00011000
00000000
00000000
00000000
00000000
00000000
00000000
00000000
00000000
,
00100000
00000000
00010000
10000000
00000000
10010000
00000000
00000000
,
01100000
00000000
00000000
01100000
00000000
00000000
01100000
00000000
00000000
00000000
00000000
00000000
00000000
00000000
00000000
00000000
,
10000000
00100000
01000000
00010000
00000000
10000000
00010000
00000000
,
00100000
00001000
00010000
00001000
00000000
00000000
00011000
00000000
,
00000100
00000000
00000000
00001000
00000000
00000000
00000001
00000000
00001001
00000000
00000000
00000000
00000000
00000000
00000000
00000000
,
00000110
00000000
00000000
00000110
00000000
00000000
00000110
00000000
00000000
00000000
00000000
00000000
00000000
00000000
00000000
00000000
,
00001000
00000000
00000001
00000000
00001000
00000000
00000010
00000000
00000010
00000000
00000000
00000010
00000000
00000000
00000000
00000000
,
00000001
00000000
00001000
00000000
00000100
00000000
00000000
00000100
00000000
00000000
00000000
00000000
00000000
00000000
00010000
00000000
,
00001000
00000000
00000000
00001000
00000000
00000000
00001000
00000000
00100000
00000000
00010000
00000000
00100000
00000000
00010000
00000000
,
00000000
00000000
01000000
00000000
00100000
00000000
00000000
00100000
00000000
00000000
00000000
00000000
10010000
00000000
00000000
10010000
,
00000000
00000000
00000000
00000000
00000000
00000000
00000000
00000000
01000000
00000000
00100000
00000000
01000000
00100000
00000000
00100000
,
00000000
00000000
00000000
00000000
10000000
00000000
00000000
10010000
00000000
00000000
00000000
00000000
00000000
00000000
00000000
00000000
,
00100000
00000000
00000000
00200000
00000000
00000000
00000000
00000000
00001000
00000000
00000000
00302000
00000000
00000000
00000000
00000000
,
00013000
00000000
00000000
00000000
00010000
00000000
00000000
00010000
00000000
00000000
00000000
00000000
00000100
00000000
00000000
00000000
,
00001000
00000000
00000000
00000001
00000000
00000000
00001001
00000000
00000000
00000000
00000000
00000000
00000100
00000000
00000000
00000000
,
00010000
00000000
00000000
00001000
00000000
00000000
00011000
00000000
00000000
00000000
00000000
00000000
00000000
00000000
01000000
00000000
,
00010000
00000000
00000000
10000000
00000000
00000000
10010000
00000000
00000000
00000000
00000000
00000000
00100000
00000000
00000000
00000000
,
00001000
00000000
00000000
00010000
00000000
00000000
00011000
00000000
00000000
00000000
00000000
00000000
00010000
00000000
00000100
00000000
,
00001000
00000000
00000000
00000001
00000000
00000000
00001001
00000000
00000000
00000000
00000100
00000000
00010000
00000000
00000000
00000000
,
00001000
00000000
00000000
00001000
00000000
00000000
00011000
00000000
00000000
00000000
01000000
00000000
00010000
00000000
10000000
00000000
,
00010000
00000000
00000000
00010000
00000000
00000000
01010000
00000000
00000000
00000000
00000000
00000000
00100000
00000000
00001000
00000000
,
00010000
00000000
00000000
00010000
00000000
00000000
00011000
00000000
00000000
00000000
00000000
00000000
00011000
00000000
00000000
00000000
,
00020000
00000000
00000000
00030200
00000000
00000000
00000300
00000000
,
00000002
00000000
00000000
00000203
00000000
00000000
00000300
00000000
,
00020000
00000000
00000000
00230000
00000000
00000000
00300000
00000000
,
20000000
00000000
00000000
30020000
00000000
00000000
00030000
00000000
,
00002000
00000000
00000000
00003200
00000000
00000000
00000300
00000000
,
00000002
00000000
00000000
00000203
00000000
00000000
00000300
00000000
,
00020000
00000000
00000000
00032000
00000000
00000000
01003000
00000000
,
00200000
00000000
00000000
02000000
00000000
03300000
00000000
00000000
,
00100000
00000000
00000000
00100000
00000000
00000000
00001000
00000000
00000000
00000000
00000000
00000000
00000000
00000000
00000000
00000000
,
00000100
00000000
00000000
00000100
00000000
00000000
00010000
00000000
00000000
00000000
00000000
00000000
00000000
00000000
00001000
00000000
,
01000000
00000000
00000000
01000000
00000000
00000000
10010000
00000000
00000000
00000000
00000000
00000000
00100000
00000000
10000000
00000000
,
00010000
00000000
00000000
00010000
00000000
00000000
00100000
00000000
00001000
00000000
00000000
00001000
00000000
00000000
00001000
00000000
,
00010000
00000000
00000000
00010000
00000000
00000000
00000010
00000000
00000000
00000000
00001000
00000000
00000001
00000000
00001000
00000000
,
00000100
00000000
00000000
00000100
00000000
00000000
00000200
00000000
00000000
00000000
00010300
00000000
00000000
00000000
00001000
00000000
,
01000000
00000000
00000000
01000000
00000000
00000000
01010000
00000000
00000000
00000000
00000000
00000000
00100000
00000000
10000000
00000000
,
00010000
00000000
00000000
00010000
00000000
00000000
10010000
00000000
00000000
00000000
00000000
00000000
00000000
00000000
00100000
00000000
,
00001000
00000000
00000000
00001000
00000000
00000000
00011000
00000000
00000000
00000000
00000000
00000000
00010000
00000000
00000000
00000000
,
00000010
00000000
00000000
00000010
00000000
00000000
00001001
00000000
00000000
00000000
00000000
00000000
00000000
00000000
00000000
00000000
;

//---------------dance-double - ----------------
#NOTES:
     dance-double:
     :
     Easy:
     4:
     0.163031,0.206007,0.022377,0.164097,0.093237,153.000000,150.000000,3.000000,22.000000,0.000000,0.000000,0.163031,0.206007,0.022377,0.164097,0.093237,153.000000,150.000000,3.000000,22.000000,0.000000,0.000000:
00000000
00000000
00000000
00000000
,
00000000
00000000
00000000
00000000
,
00000000
00000000
00000000
00000000
,
00000000
00000000
00000000
00000000
,
00200000
00300000
02000000
03000000
,
00010000
10000000
00010000
00000000
,
00200000
00300000
00002000
00003000
,
00010000
00000010
00001000
00000000
,
00000002
00000003
00002000
00003000
,
00000100
00010000
00001000
00000000
,
02000000
03000000
00020000
00030000
,
00100000
00000000
00000000
00100000
00000000
00000000
00100000
00000000
00000000
00000000
00000000
00000000
00000000
00000000
00000000
00000000
,
01000000
00000000
00000000
01000000
00000000
00000000
01000000
00000000
00000000
00000000
00000000
00000000
00000000
00000000
00000000
00000000
,
00100000
00000000
00000000
00100000
00000000
00000000
00100000
00000000
00000000
00000000
00000000
00000000
00000000
00000000
00000000
00000000
,
10000000
00000000
00000000
00010000
00000000
00000000
00100000
00000000
,
00001000
00000000
00000000
00001000
00000000
00000000
00001000
00000000
00000000
00000000
00000000
00000000
00000000
00000000
00000000
00000000
,
00010000
00000000
00000000
00010000
00000000
00000000
00010000
00000000
00000000
00000000
00000000
00000000
00000000
00000000
00000000
00000000
,
00001000
00000000
00000000
00001000
00000000
00000000
00001000
00000000
00000000
00000000
00000000
00000000
00000000
00000000
00000000
00000000
,
00010000
00000000
00000000
00000010
00000000
00000000
00000100
00000000
,
00000001
00000000
00000000
00000001
00000000
00000000
00000001
00000000
00000000
00000000
00000000
00000000
00000000
00000000
00000000
00000000
,
00000020
00000030
00000200
00000300
,
00000001
00000100
00001000
00000000
,
00200000
00300000
02000000
03000000
,
10000000
00000000
00000000
01000000
00000000
00000000
00010000
00000000
00000000
00000000
00000000
00000000
00000000
00000000
00000000
00000000
,
00100000
00000000
00000000
00001000
00000000
00001000
00000000
00000000
,
00010000
00000000
00000000
00000010
00000000
00000010
00000000
00000000
,
00000100
00000010
00001001
00000000
,
00000100
00000000
00000000
00000100
00000000
00000000
00000100
00000000
00000000
00000000
00000000
00000000
00000000
00000000
00000000
00000000
,
00000001
00000100
00001000
00000000
,
00010000
01000000
10000000
00000000
,
00100000
00000000
00001000
00010000
,
00000000
00000010
00000000
00010000
,
00001000
00000000
01000000
01000000
,
10010000
00000000
10010000
00000000
,
20000000
30000000
00020000
00030000
,
00100000
00001000
00010000
00000000
,
00000100
00000000
00000000
00000100
00000000
00000000
00000100
00000000
00000000
00000000
00000000
00000000
00000000
00000000
00000000
00000000
,
00000010
00000000
00000000
00000010
00000000
00000000
00000010
00000000
00000000
00000000
00000000
00000000
00000000
00000000
00000000
00000000
,
00001000
00000000
00000000
00001000
00000000
00000000
00001000
00000000
00000000
00000000
00000000
00000000
00000000
00000000
00000000
00000000
,
00010000
00000000
00000000
00010000
00000000
00000000
00010000
00000000
00000000
00000000
00000000
00000000
00000000
00000000
00000000
00000000
,
01000000
00000000
00000000
01000000
00000000
00000000
01000000
00000000
00000000
00000000
00000000
00000000
00000000
00000000
00000000
00000000
,
00100000
00000000
00000000
00100000
00000000
00000000
00100000
00000000
00000000
00000000
00000000
00000000
00000000
00000000
00000000
00000000
,
10000000
00000000
00000000
10000000
00000000
00000000
10000000
00000000
00000000
00000000
00000000
00000000
00000000
00000000
00000000
00000000
,
00010000
00000000
00000000
00010000
00000000
00000000
00010000
00000000
00000000
00000000
00000000
00000000
00000000
00000000
00000000
00000000
,
02000000
00000000
00000000
03000000
00000000
00000000
00000000
00000000
,
00020000
00000000
00000000
00030000
00000000
00000000
00000000
00000000
,
00000200
00000000
00000000
00000300
00000000
00000000
00000000
00000000
,
00000002
00000000
00000000
00000003
00000000
00000000
00000000
00000000
,
00000020
00000000
00000000
00000030
00000000
00000000
00000000
00000000
,
00002000
00000000
00000000
00003000
00000000
00000000
00000000
00000000
,
00200000
00000000
00000000
00300000
00000000
00000000
00000000
00000000
,
20000000
00000000
00000000
30000000
00000000
00000000
00000000
00000000
,
00100000
00000000
00000000
00100000
00000000
00000000
00000000
00000000
,
01000000
00000000
00000000
01000000
00000000
00000000
00000000
00000000
,
00010000
00000000
00000000
00010000
00000000
00000000
00010000
00000000
00000000
00000000
00000000
00000000
00000000
00000000
00000000
00000000
,
00001000
00000000
00000000
00001000
00000000
00000000
00001000
00000000
00000000
00000000
00000000
00000000
00000000
00000000
00000000
00000000
,
00010000
00000000
00000000
00010000
00000000
00000000
00010000
00000000
00000000
00000000
00000000
00000000
00000010
00000000
00000000
00000000
,
00000100
00000000
00000000
00000100
00000000
00000000
00000100
00000000
00000000
00000000
00000000
00000000
00001000
00000000
00000000
00000000
,
00000010
00000000
00000000
00000010
00000000
00000000
00000010
00000000
00000000
00000000
00000000
00000000
00010000
00000000
00000000
00000000
,
00001000
00000000
00000000
00001000
00000000
00000000
00001000
00000000
00000000
00000000
00000000
00000000
00000000
00000000
00000000
00000000
,
00010000
00000000
00000000
00010000
00000000
00000000
00010000
00000000
00000000
00000000
00000000
00000000
00000000
00000000
00000000
00000000
,
00001000
00000000
00000000
00001000
00000000
00000000
00001000
00000000
00000000
00000000
00000000
00000000
00000000
00000000
00000000
00000000
;

//---------------dance-single - ----------------
#NOTES:
     dance-single:
     :
     Easy:
     4:
     0.158769,0.206007,0.029836,0.164097,0.093237,149.000000,145.000000,4.000000,22.000000,0.000000,0.000000,0.158769,0.206007,0.029836,0.164097,0.093237,149.000000,145.000000,4.000000,22.000000,0.000000,0.000000:
0000
0000
0000
0000
,
0000
0000
0000
0000
,
0000
0000
0000
0000
,
0000
0000
0000
0000
,
0020
0030
0200
0300
,
0001
1000
0001
0000
,
0002
0003
2000
3000
,
0000
0010
0100
0000
,
0002
0003
2000
3000
,
0010
0100
0010
0000
,
0002
0003
2000
3000
,
0010
0000
0000
0010
0000
0000
0010
0000
0000
0000
0000
0000
0000
0000
0000
0000
,
0100
0000
0000
0100
0000
0000
0100
0000
0000
0000
0000
0000
0000
0000
0000
0000
,
0010
0000
0000
0010
0000
0000
0010
0000
0000
0000
0000
0000
0000
0000
0000
0000
,
1000
0000
0000
0001
0000
0000
0000
0000
,
1000
0000
0000
1000
0000
0000
1000
0000
0000
0000
0000
0000
0000
0000
0000
0000
,
0001
0000
0000
0001
0000
0000
0001
0000
0000
0000
0000
0000
0000
0000
0000
0000
,
1000
0000
0000
1000
0000
0000
1000
0000
0000
0000
0000
0000
0000
0000
0000
0000
,
0010
0000
0000
0100
0000
0000
0010
0000
,
1000
0000
0000
1000
0000
0000
1000
0000
0000
0000
0000
0000
0000
0000
0000
0000
,
0002
0003
2000
3000
,
0001
0100
1000
0000
,
2000
3000
0002
0003
,
1000
0000
0000
0100
0000
0000
0001
0000
0000
0000
0000
0000
0000
0000
0000
0000
,
0010
0000
0000
1000
0000
1000
0000
0000
,
0010
0000
0000
0001
0000
0001
0000
0000
,
0100
0010
1001
0000
,
0100
0000
0000
0100
0000
0000
0100
0000
0000
0000
0000
0000
0000
0000
0000
0000
,
1000
0100
0001
0000
,
0001
0100
1000
0000
,
0010
0000
1000
0001
,
0000
0010
0000
0001
,
1000
0000
0100
0100
,
1001
0000
1001
0000
,
2000
3000
0002
0003
,
0010
0100
1001
0000
,
0010
0000
0000
0010
0000
0000
0010
0000
0000
0000
0000
0000
0000
0000
0000
0000
,
1000
0000
0000
1000
0000
0000
1000
0000
0000
0000
0000
0000
0000
0000
0000
0000
,
0100
0000
0000
0100
0000
0000
0100
0000
0000
0000
0000
0000
0000
0000
0000
0000
,
0001
0000
0000
0001
0000
0000
0001
0000
0000
0000
0000
0000
0000
0000
0000
0000
,
0100
0000
0000
0100
0000
0000
0100
0000
0000
0000
0000
0000
0000
0000
0000
0000
,
0010
0000
0000
0010
0000
0000
0010
0000
0000
0000
0000
0000
0000
0000
0000
0000
,
1000
0000
0000
1000
0000
0000
1000
0000
0000
0000
0000
0000
0000
0000
0000
0000
,
0001
0000
0000
0001
0000
0000
0001
0000
0000
0000
0000
0000
0000
0000
0000
0000
,
0200
0000
0000
0300
0000
0000
0000
0000
,
0002
0000
0000
0003
0000
0000
0000
0000
,
0020
0000
0000
0030
0000
0000
0000
0000
,
2000
0000
0000
3000
0000
0000
0000
0000
,
0020
0000
0000
0030
0000
0000
0000
0000
,
0002
0000
0000
0003
0000
0000
0000
0000
,
0200
0000
0000
0300
0000
0000
0000
0000
,
2000
0000
0000
3000
0000
0000
0000
0000
,
0010
0000
0000
0010
0000
0000
0000
0000
,
0100
0000
0000
0100
0000
0000
0000
0000
,
0001
0000
0000
0001
0000
0000
0001
0000
0000
0000
0000
0000
0000
0000
0000
0000
,
1000
0000
0000
1000
0000
0000
1000
0000
0000
0000
0000
0000
0000
0000
0000
0000
,
0001
0000
0000
0001
0000
0000
0001
0000
0000
0000
0000
0000
0000
0000
0000
0000
,
0100
0000
0000
0100
0000
0000
0100
0000
0000
0000
0000
0000
0000
0000
0000
0000
,
1000
0000
0000
1000
0000
0000
1000
0000
0000
0000
0000
0000
0000
0000
0000
0000
,
0010
0000
0000
0010
0000
0000
0010
0000
0000
0000
0000
0000
0000
0000
0000
0000
,
0001
0000
0000
0001
0000
0000
0001
0000
0000
0000
0000
0000
0000
0000
0000
0000
,
0100
0000
0000
0100
0000
0000
0100
0000
0000
0000
0000
0000
0000
0000
0000
0000
;

//---------------dance-single - ----------------
#NOTES:
     dance-single:
     :
     Medium:
     7:
     0.293030,0.320455,0.268522,0.179015,0.193933,275.000000,239.000000,36.000000,24.000000,0.000000,0.000000,0.293030,0.320455,0.268522,0.179015,0.193933,275.000000,239.000000,36.000000,24.000000,0.000000,0.000000:
0000
0000
0000
0000
,
0000
0000
0000
0000
,
0000
0000
0000
0000
,
0000
0000
0000
0000
,
0020
0000
0030
0001
1000
0000
0001
0000
,
0010
0000
0001
0000
0100
0000
0000
0100
0000
0000
0000
0000
1001
0000
0000
0000
,
0020
0000
0000
0000
1030
0000
0000
0001
0000
0001
0000
0000
0000
0000
0000
0000
,
0100
0000
0000
1000
0000
0000
0001
0000
0000
0000
0000
0000
1001
0000
0000
0000
,
0010
0000
0000
0100
0000
0000
0100
0000
0000
0000
0000
0000
0001
0000
0000
0000
,
1000
0000
0000
0000
0010
0000
0000
0010
0000
0000
0000
0000
0100
0000
0000
0000
,
0010
0000
0000
0010
0000
0000
0010
0000
0000
0010
0000
0000
1000
0000
0001
0000
,
0100
0000
0000
0100
0000
0000
0200
0000
0000
0000
0300
0000
0001
0000
1000
0000
,
0001
0000
0000
0001
0000
0000
0001
0000
0000
0000
0000
0000
0010
0000
0000
0000
,
1000
0000
0000
1000
0000
0000
1000
0000
0000
0000
0000
0000
0000
0000
0001
0000
,
0100
0000
0000
0100
0000
0000
1001
0000
0000
0000
0000
0000
0100
0000
0001
0000
,
1000
0000
0000
1000
0000
0000
1000
0000
0000
0000
0000
0000
0100
0000
0001
0000
,
1000
0000
0000
1000
0000
0000
1000
0000
0000
0000
0000
0000
0001
0000
0000
0000
,
0010
0000
0000
0010
0000
0000
0020
0000
0000
0000
2030
0000
0000
0000
3001
0000
,
0001
0000
0000
0001
0000
0000
0001
0000
0000
0000
0000
0000
0100
0000
1000
0000
,
0010
0000
0000
0001
0000
0000
1001
0000
0000
0000
0000
0000
0110
0000
0000
0000
,
1000
0000
0000
0000
0001
0000
0000
0101
0000
0000
0000
0000
0000
0000
0010
0000
,
0100
0000
0000
0000
0001
0000
0000
1001
0000
0000
0000
0000
0000
0000
0000
0000
,
0010
0000
0001
1000
0000
1001
0000
0000
,
0110
0000
0000
0110
0000
0000
0110
0000
0000
0000
0000
0000
0000
0000
0000
0000
,
1000
0010
0100
0001
0000
1000
0001
0000
,
0010
0100
0001
1000
0000
0000
1001
0000
,
0010
0000
0000
0001
0000
0000
1000
0000
1001
0000
0000
0000
0000
0000
0000
0000
,
0110
0000
0000
0110
0000
0000
0110
0000
0000
0000
0000
0000
0000
0000
0000
0000
,
0001
0000
1000
0000
0001
0000
0010
0000
0010
0000
0000
0010
0000
0000
0000
0000
,
1000
0000
0001
0000
0100
0000
0000
0100
0000
0000
0000
0000
0000
0000
0001
0000
,
1000
0000
0000
1000
0000
0000
0001
0000
0100
0000
0001
0000
0100
0000
0001
0000
,
0000
0000
0100
0000
0010
0000
0000
0010
0000
0000
0000
0000
1001
0000
0000
1001
,
0000
0000
0000
0000
0000
0000
0000
0000
0100
0000
0010
0000
0100
0010
0000
0010
,
0000
0000
0000
0000
1000
0000
0000
1001
0000
0000
0000
0000
0000
0000
0000
0000
,
0010
0000
0000
0020
0000
0000
0000
0000
1000
0000
0000
2030
0000
0000
0000
0000
,
3001
0000
0000
0000
0001
0000
0000
0001
0000
0000
0000
0000
0100
0000
0000
0000
,
1000
0000
0000
0001
0000
0000
1001
0000
0000
0000
0000
0000
0100
0000
0000
0000
,
0001
0000
0000
1000
0000
0000
1001
0000
0000
0000
0000
0000
0000
0000
0100
0000
,
0001
0000
0000
1000
0000
0000
1001
0000
0000
0000
0000
0000
0010
0000
0000
0000
,
1000
0000
0000
0001
0000
0000
1001
0000
0000
0000
0000
0000
0001
0000
0100
0000
,
0010
0000
0000
0010
0000
0000
1001
0000
0000
0000
0100
0000
0010
0000
0000
0000
,
0100
0000
0000
0100
0000
0000
1001
0000
0000
0000
0100
0000
0010
0000
0000
0000
,
0001
0000
0000
0001
0000
0000
0101
0000
0000
0000
0000
0000
0010
0000
1000
0000
,
0001
0000
0000
0001
0000
0000
1001
0000
0000
0000
0000
0000
0110
0000
0000
0000
,
0002
0000
0000
0203
0000
0000
0300
0000
,
2000
0000
0000
3200
0000
0000
0300
0000
,
0002
0000
0000
0023
0000
0000
0030
0000
,
2000
0000
0000
3020
0000
0000
0030
0000
,
0002
0000
0000
2003
0000
0000
3000
0000
,
2000
0000
0000
3002
0000
0000
0003
0000
,
0020
0000
0000
2030
0000
0000
3100
0000
,
0002
0000
0000
0200
0000
0303
0000
0000
,
0010
0000
0000
0010
0000
0000
1001
0000
0000
0000
0000
0000
0000
0000
0000
0000
,
0100
0000
0000
0100
0000
0000
1001
0000
0000
0000
0000
0000
0000
0000
0001
0000
,
0100
0000
0000
0100
0000
0000
1001
0000
0000
0000
0000
0000
0010
0000
1000
0000
,
0001
0000
0000
0001
0000
0000
1000
0000
0010
0000
0000
0010
0000
0000
1000
0000
,
0001
0000
0000
0001
0000
0000
1001
0000
0000
0000
0100
0000
0010
0000
0000
0000
,
0100
0000
0000
0100
0000
0000
0200
0000
0000
0000
0301
0000
0000
0000
1000
0000
,
0001
0000
0000
0001
0000
0000
0101
0000
0000
0000
0000
0000
0010
0000
1000
0000
,
0001
0000
0000
0001
0000
0000
1001
0000
0000
0000
0000
0000
0000
0000
0010
0000
,
0100
0000
0000
0100
0000
0000
0110
0000
0000
0000
0000
0000
0001
0000
0000
0000
,
0010
0000
0000
0010
0000
0000
1001
0000
0000
0000
0000
0000
0000
0000
0000
0000
;

//---------------dance-single - ----------------
#NOTES:
     dance-single:
     :
     Beginner:
     2:
     0.105491,0.160228,0.000000,0.134261,0.000000,99.000000,99.000000,0.000000,18.000000,0.000000,0.000000,0.105491,0.160228,0.000000,0.134261,0.000000,99.000000,99.000000,0.000000,18.000000,0.000000,0.000000:
// measure 0
0000
0000
0000
0000
,  // measure 1
0000
0000
0000
0000
,  // measure 2
0000
0000
0000
0000
,  // measure 3
0000
0000
0000
0000
,  // measure 4
0020
0000
0030
0000
,  // measure 5
0002
0000
0003
0000
,  // measure 6
0200
0000
0300
0000
,  // measure 7
2000
0000
3000
0000
,  // measure 8
0020
0000
0030
0000
,  // measure 9
2000
0000
3000
0000
,  // measure 10
0001
0000
1000
0000
,  // measure 11
0010
0000
0000
0010
0000
0000
0000
0000
,  // measure 12
0100
0000
0000
0100
0000
0000
0000
0000
,  // measure 13
0010
0000
0000
0010
0000
0000
0000
0000
,  // measure 14
1000
0000
0000
0001
0000
0000
0000
0000
,  // measure 15
1000
0000
0000
1000
0000
0000
0000
0000
,  // measure 16
0001
0000
0000
0001
0000
0000
0000
0000
,  // measure 17
1000
0000
0000
1000
0000
0000
0000
0000
,  // measure 18
0010
0000
0000
0010
0000
0000
0000
0000
,  // measure 19
1000
0000
0000
1000
0000
0000
0000
0000
,  // measure 20
0001
0000
0001
0000
,  // measure 21
0100
0000
0100
0000
,  // measure 22
1000
0000
1000
0000
,  // measure 23
0100
0000
0100
0000
,  // measure 24
0010
0000
0010
0000
,  // measure 25
0100
0000
0100
0000
,  // measure 26
0001
0000
1000
0000
,  // measure 27
0200
0000
0300
0000
,  // measure 28
0010
0010
0010
0000
,  // measure 29
0100
0100
0100
0000
,  // measure 30
0010
0000
0100
0000
,  // measure 31
0000
0001
0000
0001
,  // measure 32
0000
0000
0100
0100
,  // measure 33
0000
0010
0000
0000
,  // measure 34
1000
0000
0001
0000
,  // measure 35
0020
0000
0030
0000
,  // measure 36
0010
0000
0000
0010
0000
0000
0000
0000
,  // measure 37
1000
0000
0000
1000
0000
0000
0000
0000
,  // measure 38
0100
0000
0000
0100
0000
0000
0000
0000
,  // measure 39
0001
0000
0000
0001
0000
0000
0000
0000
,  // measure 40
0100
0000
0000
0100
0000
0000
0000
0000
,  // measure 41
0010
0000
0000
0010
0000
0000
0000
0000
,  // measure 42
1000
0000
0000
1000
0000
0000
0000
0000
,  // measure 43
0001
0000
0000
0001
0000
0000
0000
0000
,  // measure 44
0200
0000
0000
0300
0000
0000
0000
0000
,  // measure 45
0002
0000
0000
0003
0000
0000
0000
0000
,  // measure 46
0020
0000
0000
0030
0000
0000
0000
0000
,  // measure 47
2000
0000
0000
3000
0000
0000
0000
0000
,  // measure 48
0020
0000
0000
0030
0000
0000
0000
0000
,  // measure 49
0002
0000
0000
0003
0000
0000
0000
0000
,  // measure 50
0200
0000
0000
0300
0000
0000
0000
0000
,  // measure 51
2000
0000
0000
3000
0000
0000
0000
0000
,  // measure 52
0010
0000
0000
0010
0000
0000
0000
0000
,  // measure 53
0100
0000
0000
0100
0000
0000
0000
0000
,  // measure 54
0001
0000
0000
0001
0000
0000
0000
0000
,  // measure 55
1000
0000
0000
1000
0000
0000
0000
0000
,  // measure 56
0001
0000
0000
0001
0000
0000
0000
0000
,  // measure 57
0100
0000
0000
0100
0000
0000
0000
0000
,  // measure 58
1000
0000
0000
1000
0000
0000
0000
0000
,  // measure 59
0010
0000
0000
0010
0000
0000
0000
0000
,  // measure 60
0002
0000
0000
0003
0000
0000
0000
0000
,  // measure 61
0200
0000
0000
0300
0000
0000
0000
0000
;
