#TITLE:The Muffin Song;
#SUBTITLE:(Toxsa Dalton's Baked Mashup);
#ARTIST:Remixed by Toxsa Dalton;
#TITLETRANSLIT:;
#SUBTITLETRANSLIT:;
#ARTISTTRANSLIT:;
#GENRE:;
#CREDIT:;
#BANNER:The Muffin Song (Toxsa Dalton's Baked Mashup).png;
#BACKGROUND:The Muffin Song (Toxsa Dalton's Baked Mashup)-bg.png;
#LYRICSPATH:;
#CDTITLE:;
#MUSIC:The Muffin Song (Toxsa Dalton's Baked Mashup).ogg;
#OFFSET:0.389000;
#SAMPLESTART:79.711922;
#SAMPLELENGTH:14.943497;
#SELECTABLE:YES;
#DISPLAYBPM:128.000000;
#BPMS:0.000000=128.000000
,38.000000=131.000000
,40.000000=128.000000
,71.000000=138.000000
,72.333336=128.000000
,123.000000=127.919998
,166.000000=128.001007
,188.000000=126.999992
,191.000000=127.989990
,223.000000=131.000000
,224.000000=139.000000
,225.000000=137.000000
,226.500000=128.300003
,247.000000=127.980011
,261.000000=128.899994
,262.000000=127.989990
,263.000000=127.500000
,289.166656=131.000000
;
#STOPS:100.000000=1.406250,
161.000000=2.812500
;
#BGCHANGES:;
#KEYSOUNDS:;
#ATTACKS:;

//---------------dance-single - ----------------
#NOTES:
     dance-single:
     :
     Hard:
     10:
     0.372358,0.412225,0.120409,0.269150,0.166448,368.000000,351.000000,17.000000,38.000000,0.000000,0.000000,0.372358,0.412225,0.120409,0.269150,0.166448,368.000000,351.000000,17.000000,38.000000,0.000000,0.000000:
0000
0000
0000
0000
,
0000
0000
0000
0000
,
0000
0000
0000
0000
,
0000
0000
0000
0000
,
0000
0000
0000
0000
,
0001
0000
0000
0001
0000
0000
0001
0000
1000
0000
0000
0000
0010
0000
0000
0000
,
1000
0000
0000
1000
0000
0000
1000
0000
0001
0000
0000
0000
0100
0000
0000
0000
,
0010
0000
0000
0010
0000
0000
0010
0000
1000
0000
0000
0000
0001
0000
0000
0000
,
0100
0000
0000
0100
0000
0000
0100
0000
0001
0000
0000
0000
1000
0000
0000
0000
,
0001
0000
1001
0000
1000
0100
0020
0000
,
2030
0000
3001
0000
1000
0001
1000
0000
,
0002
0000
0103
0000
0010
0100
0010
0000
,
2000
0000
3100
0000
0010
0001
0010
0000
,
0002
0000
0103
0000
0010
1000
0010
0000
,
1000
0001
1000
0000
0020
0000
0130
0000
,
1000
0000
0001
0100
0002
0000
1003
0000
,
0010
0100
0010
0100
0010
0010
0100
0000
,
0001
0000
1000
0000
0001
1000
0001
0000
,
2002
0000
0000
0000
3003
0000
0000
0000
1000
0000
0000
1000
0000
0000
1000
0000
,
0001
0000
0000
0000
0100
0000
0000
0000
0001
0000
0000
0001
0000
0000
0001
0000
,
1000
0000
0000
0000
0010
0000
0000
0000
0100
0000
0000
0100
0000
0000
0100
0000
,
0001
0000
0000
0000
0001
0000
0000
0000
1000
0000
0000
1000
0000
0000
1000
0000
,
0010
0000
0000
0000
0100
0000
0000
0000
0001
0000
0000
0001
0000
0000
0001
0000
,
1000
0000
0000
0000
0001
0000
0000
0000
0100
0000
0000
0100
0000
0000
0100
0000
,
0010
1000
0010
0000
0100
0001
0000
0001
,
1000
0000
1001
0000
1000
0100
0001
0100
,
1000
0000
0010
0000
0001
0100
1000
0100
,
0001
0000
0010
1000
0010
1000
0001
0100
,
0001
0000
0000
0000
0001
0000
0000
1000
0000
1000
0000
0000
0001
0000
0000
0000
,
1001
0000
0110
0000
1000
0010
0100
0010
,
1000
0000
0001
0000
0100
0010
0001
0010
,
0100
0000
0010
0000
1000
0100
0010
0100
,
1000
0000
0000
0000
0001
0000
0000
0100
0000
0100
0000
0000
0001
0000
0000
0000
,
1001
0000
0010
0100
0020
0000
0230
0000
,
0320
0000
1030
0001
2000
0000
3002
0000
,
2003
0000
3001
0010
0002
0000
2003
0000
,
3020
0000
1030
0010
2000
0000
3002
0000
,
1003
0001
1000
0001
2000
0000
3200
0000
,
0320
0000
0031
0100
0001
0100
0020
0000
,
2030
0000
3001
0100
0001
0100
0020
0000
,
0230
0000
0000
0000
0301
0000
0000
0000
0000
0000
0000
0000
0001
0000
0000
0001
,
1000
0000
0010
0000
1000
0000
0010
0000
1000
0000
0000
0000
0001
0000
0000
0001
,
0100
0000
0010
0000
0100
0000
0010
0000
1000
0000
0000
0000
1000
0000
0000
1000
,
0000
0000
1000
0000
0001
0000
0000
0000
0010
0000
1000
0000
0010
0000
0000
0010
,
0000
0010
0000
0000
1000
0000
0000
0000
1001
0000
0000
0000
0010
0000
0000
0010
,
0000
0000
0100
0000
0010
0000
0100
0000
0010
0000
0000
0000
1000
0000
0000
1000
,
0000
0000
0001
0000
1000
0000
0001
0000
1000
0000
0000
0000
0010
0000
0000
0010
,
0000
0000
0100
0000
0010
0000
1000
0000
0010
0000
1000
0000
0001
0000
0000
0001
,
0000
0001
0000
0000
1000
0000
0000
0000
1001
0000
0000
0000
0010
0000
0000
0010
,
0000
0000
0010
0000
1000
0000
0000
1000
0001
0000
0000
0000
0100
0000
0000
0100
,
0000
0000
0100
0000
0001
0000
0000
0001
0000
0000
0001
0000
1000
0000
0000
1000
,
0000
0000
1000
0000
0010
0000
0000
0000
0100
0000
0010
0000
1000
0000
0000
1000
,
0000
0000
1000
0000
0001
0000
0000
0001
0000
0000
1000
0000
0010
0000
0000
0010
,
0000
0000
0010
0000
1000
0000
0000
0001
0000
0000
1000
0000
0100
0000
0000
0100
,
0000
0000
0100
0000
0000
0000
1000
0000
0001
0000
1000
0000
0010
0000
0000
0010
,
0000
1001
0000
0001
0100
0010
0100
0010
,
0100
0010
1000
0000
1001
0000
2000
0000
,
0000
0200
0000
0000
3300
0000
0020
0000
,
0000
0002
0000
0000
0033
0000
0200
0000
,
0000
0020
0000
0000
0330
0000
0002
0000
,
0000
0000
2000
0000
0000
0000
0000
0000
3003
0000
0000
0000
0010
0000
0000
0010
,
0000
0000
0020
0000
0000
0000
0000
0000
0130
0000
0000
0000
0100
0000
0000
0100
,
0000
0000
0100
0000
0000
0000
0001
0000
0000
0000
1000
0000
0001
0000
0000
0001
,
0000
0000
0002
0000
0000
0000
0000
0000
1003
0000
0010
0000
1000
0000
0000
1000
,
0000
1000
0000
0001
1000
0000
1001
0000
,
0110
0000
0000
0000
0010
0000
0000
0010
0000
0000
1000
0000
0001
0000
0000
0000
,
1001
0000
0000
0000
1000
0000
0000
1000
0000
0000
0010
0000
0100
0000
0000
0000
,
0110
0000
0000
0000
0100
0000
0000
0100
0000
0000
0001
0000
1000
0000
0000
0000
,
1001
0000
0000
0000
1000
0000
0000
1000
0000
0000
0010
0000
1000
0000
0000
0000
,
1001
0000
0000
0000
0001
0000
0000
0001
0000
0000
0100
0000
0001
0000
0000
0000
,
1001
0000
0000
0000
0010
0000
0000
0010
0000
0000
0010
0000
0100
0000
0000
0100
,
0000
0000
0100
0000
0000
0000
0000
0000
0001
0000
0010
0000
0100
0000
0000
0100
,
0000
0200
0000
0000
0000
0000
0300
0000
;

//---------------dance-single - ----------------
#NOTES:
     dance-single:
     :
     Medium:
     7:
     0.261056,0.334933,0.134575,0.240819,0.000000,258.000000,239.000000,19.000000,34.000000,0.000000,0.000000,0.261056,0.334933,0.134575,0.240819,0.000000,258.000000,239.000000,19.000000,34.000000,0.000000,0.000000:
0000
0000
0000
0000
,
0000
0000
0000
0000
,
0000
0000
0000
0000
,
0000
0000
0000
0000
,
0000
0000
0000
0000
,
0002
0000
0003
0000
,
2000
0000
3000
0000
,
0020
0030
0200
0300
,
0010
0100
0001
1000
,
2002
0000
3003
0110
,
0020
0000
0230
0300
,
0001
0100
2000
3000
,
0010
0000
0100
0010
0100
0000
0010
0000
,
1000
0100
0010
1001
,
0001
0000
0100
0000
0010
1000
0010
0000
,
1000
0000
0100
0000
0010
0001
0010
0000
,
0100
0010
1000
0001
,
0100
0110
2002
3003
,
0010
0000
1000
0000
,
0100
0000
0100
0000
0100
0000
0010
0100
,
0010
0000
0001
0000
,
0100
0000
0100
0000
0100
0000
0010
0100
,
0010
0000
1000
0000
0010
0000
1000
0010
,
1000
0000
0001
0000
0100
0000
0001
0100
,
0001
0010
0100
1000
,
1001
0000
0010
0000
0000
0000
0100
0010
,
0100
0000
0110
0000
0000
0000
0001
1000
,
0001
1000
0100
0010
,
0001
0100
0010
0100
,
1001
0000
0010
0000
0000
0000
0100
0010
,
0100
0000
1001
0000
0000
0000
1000
0001
,
1000
0001
0010
0100
,
1000
0010
0100
1001
,
0010
1000
0100
0010
,
0001
1000
0010
0100
,
0001
0000
0010
0100
,
1000
0000
0010
0100
,
0001
0100
0100
0010
,
0010
1000
0100
0010
,
0001
0000
1000
0010
,
0100
0001
0000
2002
,
3003
0000
0010
1000
0010
0000
0100
0000
,
0100
0000
0001
0100
0001
0000
1000
0000
,
0100
0010
0001
0100
,
0010
1001
0100
0020
,
1030
0000
0001
0100
0001
0000
0200
0000
,
0301
0000
1000
0100
1000
0000
0010
0000
,
0100
0001
1000
0010
,
0100
2002
3003
0010
,
1000
0000
0100
1000
0100
0000
1000
0000
,
0010
0000
0100
0001
0100
0000
0010
0000
,
0100
0000
0001
1000
0001
0000
0100
0000
,
0010
0000
1000
0001
1000
0000
0001
0000
,
0010
0100
1001
1000
,
0100
0010
1001
0010
,
0100
0000
0001
0000
1000
0000
0001
0001
,
1000
1000
0010
0000
0000
0000
0200
0000
,
0000
0000
0300
0002
,
0000
0000
0003
0020
,
0000
0000
0030
2000
,
0000
0000
3000
0002
,
0003
2000
3000
0020
,
0030
0200
0300
0001
,
0010
0100
1000
0010
,
0100
1001
0010
2000
,
3000
0001
0100
2000
,
3000
1000
0100
0002
,
0003
2000
3000
0020
,
0030
0200
0300
0001
,
1001
0000
1000
0001
1000
0000
1000
0000
,
1001
0000
0001
1000
0001
0000
0200
0000
,
0000
0300
0000
0000
0001
0000
0100
0000
,
0000
2002
0000
0000
0000
0000
3003
0000
;

//---------------dance-single - ----------------
#NOTES:
     dance-single:
     :
     Easy:
     5:
     0.184156,0.257641,0.070829,0.162907,0.000000,182.000000,172.000000,10.000000,23.000000,0.000000,0.000000,0.184156,0.257641,0.070829,0.162907,0.000000,182.000000,172.000000,10.000000,23.000000,0.000000,0.000000:
// measure 0
0000
0000
0000
0000
,  // measure 1
0000
0000
0000
0000
,  // measure 2
0000
0000
0000
0000
,  // measure 3
0000
0000
0000
0000
,  // measure 4
0000
0000
0000
0000
,  // measure 5
0010
0000
0000
0000
,  // measure 6
0100
0000
0000
0000
,  // measure 7
0001
0000
0000
0000
,  // measure 8
1000
0000
0001
0000
,  // measure 9
2000
0000
3000
1001
,  // measure 10
1000
0000
0010
0000
,  // measure 11
0001
0100
0001
0000
,  // measure 12
0010
0000
1000
0000
,  // measure 13
0100
1000
0100
0000
,  // measure 14
1000
0001
1000
0000
,  // measure 15
0001
1000
0001
0000
,  // measure 16
0010
0000
0100
0000
,  // measure 17
0001
1000
2002
3003
,  // measure 18
1001
0000
0100
0000
,  // measure 19
0010
0100
0010
0000
,  // measure 20
1001
0000
0010
0000
,  // measure 21
0010
0100
0010
0000
,  // measure 22
1001
0000
1000
0000
,  // measure 23
0001
0001
0001
0001
,  // measure 24
1000
0001
1000
0001
,  // measure 25
0000
0000
0001
0100
,  // measure 26
1000
0000
0001
0100
,  // measure 27
1000
0010
0010
0100
,  // measure 28
0100
1000
0001
1000
,  // measure 29
0001
0000
1000
0100
,  // measure 30
0001
0000
1000
0100
,  // measure 31
0001
0010
0010
0100
,  // measure 32
0100
1000
0001
1000
,  // measure 33
0001
2002
3003
1000
,  // measure 34
1000
0000
0001
0100
,  // measure 35
0001
0000
1000
0100
,  // measure 36
1000
0000
0001
0100
,  // measure 37
0001
1000
1000
0001
,  // measure 38
0001
0000
0010
1000
,  // measure 39
0010
0000
0001
0010
,  // measure 40
0001
1000
0000
0001
,  // measure 41
0000
0001
1000
1000
,  // measure 42
0000
1000
0001
0001
,  // measure 43
0000
0100
0000
1000
,  // measure 44
1000
1000
0000
0001
,  // measure 45
0000
0100
0100
0010
,  // measure 46
0000
0010
0010
0100
,  // measure 47
0000
0001
0000
1000
,  // measure 48
0001
1000
0000
0002
,  // measure 49
0003
0001
1000
2000
,  // measure 50
3000
1000
0001
0200
,  // measure 51
0300
0020
0030
0100
,  // measure 52
0010
0100
0000
1000
,  // measure 53
0100
0020
0030
0001
,  // measure 54
0100
0020
0030
0100
,  // measure 55
0100
0010
0010
1000
,  // measure 56
0001
1001
0000
0020
,  // measure 57
0000
0000
0000
2030
,  // measure 58
0000
0000
0000
3200
,  // measure 59
0000
0000
0000
0302
,  // measure 60
0000
0000
0000
0203
,  // measure 61
0000
0000
0000
2300
,  // measure 62
0000
0000
0000
3020
,  // measure 63
0000
0032
0000
2003
,  // measure 64
0000
0002
3003
1001
,  // measure 65
0000
0000
0000
0010
,  // measure 66
0000
0010
0000
0100
,  // measure 67
0000
0100
0000
0001
,  // measure 68
0000
1001
0000
0100
,  // measure 69
0100
0010
0000
0010
,  // measure 70
0010
0100
0000
0001
,  // measure 71
0000
1000
0000
0010
,  // measure 72
0000
0220
0000
0000
0000
0000
0330
0000
;

//---------------dance-single - ----------------
#NOTES:
     dance-single:
     :
     Beginner:
     3:
     0.115350,0.154584,0.014166,0.042497,0.000000,114.000000,112.000000,2.000000,6.000000,0.000000,0.000000,0.115350,0.154584,0.014166,0.042497,0.000000,114.000000,112.000000,2.000000,6.000000,0.000000,0.000000:
// measure 0
0000
0000
0000
0000
,  // measure 1
0000
0000
0000
0000
,  // measure 2
0000
0000
0000
0000
,  // measure 3
0000
0000
0000
0000
,  // measure 4
0000
0000
0000
0000
,  // measure 5
0010
0000
0000
0000
,  // measure 6
0100
0000
0000
0000
,  // measure 7
0001
0000
0000
0000
,  // measure 8
1000
0000
0001
0000
,  // measure 9
1000
0000
0000
0000
,  // measure 10
1000
0000
0000
0000
,  // measure 11
0001
0000
0000
0000
,  // measure 12
0100
0000
0000
0000
,  // measure 13
0010
0000
0000
0000
,  // measure 14
0100
0000
0000
0000
,  // measure 15
0001
0000
0000
0000
,  // measure 16
1000
0000
1000
0000
,  // measure 17
1000
0000
2000
3000
,  // measure 18
1000
0000
0000
0000
,  // measure 19
0010
0000
0010
0000
,  // measure 20
0010
0000
0000
0000
,  // measure 21
0100
0000
0100
0000
,  // measure 22
0100
0000
0000
0000
,  // measure 23
0001
0000
0001
0000
,  // measure 24
0001
0000
0001
0000
,  // measure 25
0000
0000
0000
1000
,  // measure 26
1000
0000
0000
0001
,  // measure 27
0001
0000
0000
0000
,  // measure 28
0000
1000
2000
3000
,  // measure 29
0000
0000
0000
0002
,  // measure 30
0003
0000
0000
1000
,  // measure 31
1000
0000
0000
0000
,  // measure 32
0000
0000
0001
0001
,  // measure 33
0000
0002
0003
0000
,  // measure 34
0000
0000
0001
0000
,  // measure 35
0001
0000
1000
0000
,  // measure 36
1000
0000
0001
0000
,  // measure 37
0001
0000
1000
0000
,  // measure 38
0001
0000
1000
0000
,  // measure 39
1000
0000
0001
0000
,  // measure 40
0001
0000
0000
0001
,  // measure 41
0000
0001
0000
1000
,  // measure 42
0000
1000
0000
0001
,  // measure 43
0000
1000
0000
0001
,  // measure 44
0000
1000
0000
0010
,  // measure 45
0000
0100
0000
0010
,  // measure 46
0000
0100
0000
0010
,  // measure 47
0000
0010
0000
0010
,  // measure 48
0010
0010
0000
0001
,  // measure 49
0000
0001
0000
1000
,  // measure 50
0000
1000
0000
0010
,  // measure 51
0000
0010
0000
0100
,  // measure 52
0000
0100
0000
1000
,  // measure 53
0000
0001
0000
1000
,  // measure 54
0000
0001
0000
0100
,  // measure 55
0000
0010
0000
0001
,  // measure 56
0001
0001
0000
0001
,  // measure 57
0000
0000
0000
1000
,  // measure 58
0000
0000
0000
0100
,  // measure 59
0000
0000
0000
0010
,  // measure 60
0000
0000
0000
0100
,  // measure 61
0000
0010
0000
0100
,  // measure 62
0000
0001
0000
1000
,  // measure 63
0000
0001
0000
1000
,  // measure 64
0000
0001
0000
1001
,  // measure 65
0000
0000
0000
0010
,  // measure 66
0000
0010
0000
0100
,  // measure 67
0000
0100
0000
0001
,  // measure 68
0000
0001
0000
0100
,  // measure 69
0000
0010
0000
0100
,  // measure 70
0000
0010
0000
0001
,  // measure 71
0000
1000
0000
0010
,  // measure 72
0000
0220
0000
0000
0000
0000
0330
0000
;
