#TITLE:The ELECTROSHOCK Medley;
#SUBTITLE:;
#ARTIST:Mr.T (mixed by TT Sound Team "GBXL");
#TITLETRANSLIT:;
#SUBTITLETRANSLIT:;
#ARTISTTRANSLIT:;
#GENRE:;
#CREDIT:;
#BANNER:The ELECTROSHOCK Medley.png;
#BACKGROUND:The ELECTROSHOCK Medley-bg.png;
#LYRICSPATH:;
#CDTITLE:;
#MUSIC:The ELECTROSHOCK Medley.ogg;
#OFFSET:-1.511999;
#SAMPLESTART:71.800003;
#SAMPLELENGTH:12.000000;
#SELECTABLE:YES;
#DISPLAYBPM:160.000000:164.000000;
#BPMS:0.000000=160.000000
,88.000000=161.000000
,91.000000=160.000000
,156.000000=164.000000
,223.000000=167.000000
,224.000000=165.000000
,225.000000=161.000000
,227.333328=160.000000
,284.000000=158.000000
,286.000000=160.009995
,348.000000=160.000000
,349.000000=159.779999
,356.000000=159.990005
;
#STOPS:379.000000=0.375000
;
#BGCHANGES:;
#KEYSOUNDS:;
#ATTACKS:;

//---------------dance-single - ----------------
#NOTES:
     dance-single:
     :
     Beginner:
     3:
     0.151569,0.229463,0.013346,0.046710,0.000000,159.000000,157.000000,2.000000,7.000000,0.000000,0.000000,0.151569,0.229463,0.013346,0.046710,0.000000,159.000000,157.000000,2.000000,7.000000,0.000000,0.000000:
// measure 0
0000
0000
0000
0000
,  // measure 1
0000
0000
0000
0000
,  // measure 2
0000
0000
0000
0000
,  // measure 3
0100
0000
1000
0000
,  // measure 4
0010
0000
1000
0000
,  // measure 5
0010
0000
0100
0000
,  // measure 6
1000
0000
0100
0000
,  // measure 7
0001
0000
1000
0000
,  // measure 8
0010
0000
0100
0000
,  // measure 9
0001
0000
1000
0000
,  // measure 10
0100
0000
0000
0000
,  // measure 11
1000
0000
0001
0000
,  // measure 12
1000
0000
1001
0000
,  // measure 13
0001
0000
1000
0000
,  // measure 14
0001
0000
1001
0000
,  // measure 15
0010
0000
0000
1000
,  // measure 16
0000
0001
0000
0000
,  // measure 17
0100
0000
0000
0001
,  // measure 18
0000
1000
0000
0001
,  // measure 19
0000
1000
0000
1000
,  // measure 20
0000
0001
0000
0001
,  // measure 21
0000
0100
0000
0100
,  // measure 22
0200
0000
0300
0000
,  // measure 23
1000
0000
0000
0000
,  // measure 24
0001
0000
0000
0000
,  // measure 25
0100
0000
0000
0000
,  // measure 26
0010
0000
0010
0000
,  // measure 27
0010
0000
0000
0000
,  // measure 28
0100
0000
0000
0000
,  // measure 29
0001
0000
0001
0000
,  // measure 30
0001
0000
0000
0000
,  // measure 31
1000
0000
0000
0000
,  // measure 32
0001
0000
0000
0000
,  // measure 33
0100
0000
0100
0000
,  // measure 34
0100
0000
0000
0000
,  // measure 35
0010
0000
0000
0000
,  // measure 36
1000
0000
0000
0000
,  // measure 37
0002
0000
0000
0000
,  // measure 38
0003
0000
0000
0000
,  // measure 39
0010
0000
0000
0000
,  // measure 40
1000
0000
0000
0000
,  // measure 41
0100
0000
0100
0000
,  // measure 42
0100
0000
0000
0000
,  // measure 43
0010
0000
0000
0000
,  // measure 44
0001
0000
0000
0000
,  // measure 45
0100
0000
0100
0000
,  // measure 46
0100
0000
0000
0000
,  // measure 47
0020
0000
0030
0000
,  // measure 48
1000
0000
0001
0000
,  // measure 49
2000
0000
3000
0000
,  // measure 50
0001
0000
1000
0000
,  // measure 51
0002
0000
0003
0000
,  // measure 52
1000
0000
1000
0000
,  // measure 53
0001
0000
0001
0000
,  // measure 54
1000
0000
0001
0000
,  // measure 55
1000
0000
0000
0000
,  // measure 56
0000
0000
0000
0000
,  // measure 57
0001
0000
0000
0000
,  // measure 58
1000
0000
0000
0000
,  // measure 59
0001
0001
0000
0000
,  // measure 60
2000
0000
3000
0000
,  // measure 61
1000
0000
0000
0000
,  // measure 62
0001
0000
0000
0000
,  // measure 63
1000
1000
0000
0000
,  // measure 64
0002
0000
0003
0000
,  // measure 65
0100
0000
0100
0000
,  // measure 66
0100
0000
0000
0000
,  // measure 67
0010
0000
0010
0000
,  // measure 68
0010
0000
0000
0000
,  // measure 69
1000
0000
0100
0000
,  // measure 70
0010
0000
0001
0000
,  // measure 71
0100
0000
0010
0000
,  // measure 72
1000
0000
0001
0000
,  // measure 73
0100
0000
0000
1000
,  // measure 74
1000
0000
0001
0000
,  // measure 75
0100
0000
0000
0001
,  // measure 76
0001
0000
1000
0000
,  // measure 77
0010
0000
0000
0100
,  // measure 78
0100
0000
0010
0000
,  // measure 79
1000
0000
1000
1000
,  // measure 80
0000
0100
0100
0000
,  // measure 81
0001
0000
0001
0001
,  // measure 82
0000
0100
0100
0000
,  // measure 83
1000
0000
1000
1000
,  // measure 84
0000
0010
0010
0000
,  // measure 85
0001
0000
0001
0001
,  // measure 86
0000
0010
0010
0000
,  // measure 87
1000
0000
0000
0000
,  // measure 88
0001
0000
0100
0000
,  // measure 89
0100
0000
0000
0000
,  // measure 90
0010
0000
1000
0000
,  // measure 91
1000
0000
0000
0001
,  // measure 92
1000
0000
0001
0000
,  // measure 93
0100
0000
0000
0000
,  // measure 94
0000
0000
0000
0000
,  // measure 95
0100
0100
0100
0000
,  // measure 96
1000
1000
1000
0000
,  // measure 97
0010
0010
0010
0000
,  // measure 98
0001
0001
0000
0000
;

//---------------dance-single - ----------------
#NOTES:
     dance-single:
     :
     Easy:
     6:
     0.312671,0.393365,0.193513,0.220204,0.006673,328.000000,299.000000,29.000000,33.000000,0.000000,0.000000,0.312671,0.393365,0.193513,0.220204,0.006673,328.000000,299.000000,29.000000,33.000000,0.000000,0.000000:
0000
0000
0000
0000
,
0000
0000
0000
0000
,
0000
0000
0000
0000
,
0100
0001
1000
0001
,
0010
0100
1000
0001
,
0010
1000
0100
0010
,
1000
0001
0100
0010
,
0001
0100
1000
0001
,
0010
1000
0100
1000
,
0001
0100
1000
0010
,
0200
0000
0000
0300
,
1000
0100
0001
0010
,
1000
0100
0011
0000
,
0001
0100
1000
0010
,
0001
0100
1010
0000
,
0020
0001
0000
1000
,
0000
0001
0000
0030
,
0200
1000
0000
0001
,
0000
1000
0000
0301
,
1000
0100
0010
1001
,
0010
0100
0001
1001
,
0001
0010
0100
1001
,
0001
0001
1000
1000
,
0100
0001
0000
0001
,
0100
1000
0000
1000
,
0010
0001
0000
0001
,
0100
0000
1001
0000
,
0100
1000
0000
1000
,
0100
0001
0000
0001
,
0010
1000
0000
1000
,
0100
0100
1001
0000
,
0010
0001
0001
0001
,
0010
1000
1000
1000
,
0100
0001
0001
0001
,
0010
0100
1001
0000
,
0001
1000
0100
1000
,
0010
0001
0100
0001
,
0100
1000
0010
1000
,
0010
0010
1001
0000
,
2200
3300
0202
0303
,
2020
3030
0022
0033
,
1000
0010
0001
0010
,
0200
0300
0010
0010
,
1000
0100
0001
0100
,
1000
0010
0001
0010
,
2000
3000
0001
0010
,
0100
0100
0010
0010
,
0000
0001
0000
0000
0010
0000
0000
0100
0000
0000
1000
0000
0001
0000
0000
0000
,
2000
3100
0002
0103
,
1000
0010
0100
1001
,
0002
0103
2000
3100
,
0002
0010
0103
1001
,
0001
0001
0010
0010
,
1000
1000
0100
0100
,
0001
0100
1000
0100
,
0010
0010
0100
0100
,
0001
0010
0100
1000
,
0001
0000
0000
0000
,
0001
1000
0000
0000
0000
0000
0000
0000
,
0001
1000
0001
0000
0000
0000
0000
0000
,
1001
0000
1001
0000
,
0010
0000
0000
0000
,
0010
0100
0000
0000
0000
0000
0000
0000
,
0010
0100
0010
0000
0000
0000
0000
0000
,
0110
0000
0110
0000
,
1000
0100
1000
0010
,
0100
0001
0010
0001
,
0100
0010
2000
0000
,
0001
0000
3001
0010
,
0001
0100
0010
1000
,
0100
0010
0001
0100
,
0200
0300
0020
0030
,
2000
3000
0002
0003
,
0200
0000
0300
0010
,
2000
3000
0002
0003
,
0200
0000
0300
0010
,
0200
0300
0002
0003
,
2000
0000
3000
0010
,
0200
0000
0000
0300
,
0010
1010
0010
0010
,
1000
0100
1000
0100
,
0010
0011
0010
0010
,
0001
0100
0001
0100
,
0010
1010
1000
1000
,
1000
0100
1000
0100
,
0010
0011
0001
0001
,
0001
0100
0001
0100
,
0010
0000
0000
0000
,
1001
0000
1000
0100
,
0001
0000
0010
0000
,
0110
0000
0001
0100
,
1000
0000
0010
0001
,
1001
0000
1000
0200
,
0002
0000
0000
0000
,
0303
0000
0000
0000
,
1000
0000
0001
0000
,
1000
0000
0110
0100
,
0100
0000
1001
0010
,
0010
1001
0000
0000
;

//---------------dance-single - ----------------
#NOTES:
     dance-single:
     :
     Medium:
     10:
     0.469959,0.557975,0.353661,0.367007,0.056719,493.000000,440.000000,53.000000,55.000000,0.000000,0.000000,0.469959,0.557975,0.353661,0.367007,0.056719,493.000000,440.000000,53.000000,55.000000,0.000000,0.000000:
0000
0000
0000
0000
,
0000
0000
0000
0000
,
0000
0000
0000
0000
,
0100
0100
0000
0010
0000
0100
0001
1000
,
0000
1000
0000
0100
0000
1000
0010
0100
,
0000
0001
0000
0010
0000
0100
0010
0001
,
0000
1000
0000
0100
0000
1000
0100
0010
,
0001
0000
0001
1000
0100
0000
0001
0000
,
1000
0000
0001
0000
0010
0100
1000
0000
,
0001
0000
0001
0100
0001
0000
0100
0000
,
2002
0000
0000
3003
,
0100
1000
0100
0010
,
0001
0100
0110
0100
0010
0000
0010
0000
,
0100
0001
0010
0100
,
0010
0100
0110
0100
0010
0000
0001
1000
,
0010
0000
0010
0000
1000
0000
0100
1000
,
0100
0000
1000
0000
1000
0000
0001
0010
,
0001
0000
1000
0000
0001
0000
0100
0010
,
0001
0000
0100
0000
0110
0000
0100
0001
,
1000
0000
0010
0000
1000
0010
1010
0000
,
0100
0000
0001
0000
0100
0001
0101
0000
,
0010
0000
0100
0000
0010
0100
0110
0000
,
0001
0001
0001
1000
1000
1000
0010
0100
,
0001
0101
1000
0100
,
0010
0011
0100
0010
,
2000
3000
1001
0000
,
0200
2300
3002
0023
,
0031
1001
0100
0010
,
0001
1001
0100
0010
,
1000
1100
0001
0011
,
0100
0010
0010
0010
1000
1000
1000
0001
,
1000
0101
1000
0100
,
0010
1001
0010
0001
,
0100
1010
0100
0001
,
2000
3000
1001
0010
,
0200
0301
1000
0100
,
0020
0031
1000
0010
,
0200
0001
1000
0301
,
1000
0010
0010
0010
0100
0100
0100
0000
,
2000
0000
3010
0010
0200
0000
0301
0001
,
2000
0000
3100
0100
0020
0000
0031
0001
,
1000
0000
0000
1000
0000
0000
1000
0000
0001
0000
0000
0001
0000
0000
0001
0000
,
0020
0000
0130
1000
0001
0001
1000
1000
,
0001
0000
0000
0001
0000
0000
0100
0000
1000
0000
0000
1000
0000
0000
0100
0000
,
0001
0000
0000
0001
0000
0000
0010
0000
1000
0000
0000
1000
0000
0000
0010
0000
,
0002
0000
0000
0000
0103
0000
0100
0000
0010
0000
0000
1000
0000
0000
0001
0000
,
0200
0000
0000
0000
0310
0000
0010
0000
2000
0000
0000
0000
0001
3000
0001
0000
,
0000
1000
0000
0000
0100
0000
0000
0010
0000
0000
0001
0000
1001
0000
0000
0000
,
2010
3001
0012
1003
,
0001
0000
0000
0001
0000
0000
0100
0000
0020
0000
0000
0000
1030
0000
0000
0000
,
2100
0000
0000
0000
3001
0000
0000
0000
0102
0000
0000
0000
1000
0003
0000
0000
,
0001
0010
0200
0000
1000
0000
0301
0000
,
0100
0010
0001
0100
0010
1000
0001
0010
,
1000
0000
0001
0000
0100
0000
1000
0000
0002
0000
0000
0003
0100
0000
0010
0000
,
1000
0000
1001
0000
1000
0100
0001
0010
,
2000
0000
0100
3100
0002
0000
0103
0000
,
1000
0010
0100
0001
1000
0100
0010
0000
,
0110
0000
0000
0000
,
1001
1001
0000
0000
0000
0000
0000
0000
,
0110
0110
0110
0000
0000
0000
0000
0000
,
2020
3030
0202
0303
,
0011
0000
0000
0000
,
0101
0101
0000
0000
0000
0000
0000
0000
,
1001
1001
2002
0000
0000
0000
3003
0000
,
0022
0000
0033
0000
2200
0000
3300
1000
,
0010
0000
0000
0100
0000
0000
0000
0000
0100
0000
0000
0001
0000
0000
0000
0000
,
0001
0000
0000
0010
0000
0000
0000
0000
0010
0000
0000
0100
0000
0000
0000
0000
,
0100
0000
0000
1000
0000
0000
0000
0000
0020
0000
0000
0000
0130
0000
0000
0000
,
0002
0000
0013
0000
2000
0000
3100
1000
,
0010
0000
0000
1000
0000
0000
0000
0000
0100
0000
0000
1000
0000
0000
0000
0000
,
0001
0000
0010
0000
0001
0100
0001
0000
,
0200
0000
0302
0000
,
2003
0000
3020
0000
,
0230
0000
0000
0301
,
2000
0000
3200
0000
,
0302
0000
0000
0103
,
2000
0000
3002
0000
,
0023
0000
0000
0031
,
0200
0010
0010
0000
0010
0010
0310
0000
,
1000
0100
0000
1100
0001
0010
0011
0000
,
1000
0100
0010
0001
0100
0010
1000
0000
,
0001
0100
0000
0101
1000
0010
1010
0000
,
0001
0010
0100
1000
0010
0100
0001
0000
,
0100
0001
0000
0101
0010
1000
1010
0000
,
1000
0010
0100
0001
0010
0100
1000
0000
,
0100
1000
0000
1100
0010
0001
0011
0000
,
0010
0100
0100
0100
0010
0010
0010
0000
,
0001
1000
0000
0000
0000
0000
0000
0100
,
0100
0000
0000
1000
0100
0010
0001
0010
,
0100
0001
0000
0000
0000
0000
0000
0010
,
0010
0000
0000
1000
0100
0010
0001
0010
,
0100
1000
0000
0001
1000
0000
1000
0100
,
0010
0000
0000
0001
0100
0001
0100
0010
,
2000
0002
0000
0000
0000
0000
0000
0000
,
3003
0000
0000
0000
,
0110
0100
1000
0100
,
0010
0000
0001
0000
0100
0001
0100
0010
,
0000
0101
0010
1000
1010
0000
0001
0010
,
0000
1100
0010
0011
0000
0000
0000
0000
;

//---------------dance-single - ----------------
#NOTES:
     dance-single:
     :
     Hard:
     14:
     0.631061,0.689702,0.186840,0.280260,0.460427,662.000000,634.000000,28.000000,42.000000,0.000000,0.000000,0.631061,0.689702,0.186840,0.280260,0.460427,662.000000,634.000000,28.000000,42.000000,0.000000,0.000000:
0000
0000
0000
0000
,
0000
0000
0000
0000
,
0000
0000
0000
0000
,
1001
0000
1000
0100
0001
0100
0001
0000
,
0001
0100
1000
0100
0010
0100
0010
0000
,
1000
0100
0001
0100
0001
0100
0010
1000
,
0010
0001
0100
0001
1000
0100
0001
0000
,
1000
0010
0001
0010
0001
0010
1000
0000
,
0100
0010
0001
1000
0010
0100
1000
0000
,
0010
0001
0100
1000
0100
0010
1000
0100
,
0001
0100
0010
0100
1000
0010
1000
0000
,
0100
0000
0000
0001
0000
0100
0000
0000
0010
0000
0000
1000
0000
0010
0000
0000
,
0100
0000
0001
0000
0100
0000
0010
0100
0000
0000
0000
0000
0000
0000
0001
0000
,
0100
0000
0000
0010
0000
1000
0000
0000
0001
0000
0000
1000
0000
0100
0000
0000
,
0010
0000
0100
0000
0010
0000
0001
0100
0000
0000
0000
0000
0100
0000
0001
0000
,
1000
0001
0000
0000
0000
0000
2000
0000
0000
0000
0010
0000
0000
0000
0100
0000
,
0000
0001
0000
3100
0000
0000
1000
0100
,
0010
0100
0000
0000
0000
0000
0010
0000
0000
0000
0100
0000
0000
0000
0100
0000
,
2002
0000
0000
3003
,
1000
0100
1000
0001
1000
0010
1000
0001
,
0010
0100
0010
0001
0010
0100
0010
1000
,
0001
0100
0001
1000
0001
0010
0001
1000
,
0000
1000
0100
0000
0010
0001
0000
1000
0000
0001
0100
0000
0010
0000
0100
0000
,
0001
0000
0000
0100
0000
0000
0010
0000
1000
0000
0000
0010
0000
0000
0100
0000
,
0001
0000
1000
0000
0010
0000
0100
0000
0001
0000
0000
1000
0000
0000
0010
0000
,
0100
0000
0000
0010
0000
0000
1000
0000
0002
0000
0000
0000
0103
0000
0001
1000
,
0002
0000
2003
0000
3020
0000
0130
0001
,
1000
0000
0000
0001
0000
0000
0100
0000
0010
0000
0000
0010
0000
0000
0100
0000
,
0001
0000
0000
1000
0000
0000
0001
0000
0100
0000
0000
0010
0000
0000
1000
0000
,
0100
0000
0000
0010
0000
0000
0001
0000
1000
0000
0000
0010
0000
0000
0001
0000
,
0100
0001
0100
0000
0001
0100
0000
0010
0000
1000
0001
0000
0010
0100
0010
0000
,
1000
0000
0000
0100
0000
0000
0010
0000
0000
0001
0000
0000
0010
0000
0100
0000
,
0001
0000
0000
0010
0000
0000
0100
0000
0000
1000
0000
0000
0010
0000
0100
0000
,
0001
0000
0000
1000
0000
0000
0010
0000
1000
0000
0000
0001
0000
0000
0100
0000
,
0001
0000
0000
0010
0000
0000
0100
0000
0020
0000
0001
0000
0031
0000
0000
0000
,
0101
0000
0000
0001
0000
0000
1000
0000
0000
0100
0000
0000
0010
0000
0001
0000
,
1000
0000
0000
0001
0000
0000
0010
0000
0100
0000
0000
0001
0000
0000
1000
0000
,
0010
0100
0010
0100
0001
1000
0010
0100
,
0010
1000
0010
0000
1000
0000
0010
0000
1000
0000
0100
0000
0001
0000
0100
0000
,
2000
0000
3010
0001
0002
0000
0013
1000
,
2000
0000
3100
0001
0002
0000
0103
1000
,
0001
0000
0000
0001
0100
0000
0010
0000
1000
0000
0000
1000
0100
0000
0010
0000
,
0002
0000
1003
0100
0010
0010
0100
0100
,
1000
0000
0000
1000
0010
0000
0001
0000
0010
0000
0000
0010
0100
0000
0001
0000
,
1000
0000
0000
1000
0100
0000
0001
0000
0100
0000
0000
0100
0010
0000
0001
0000
,
2000
0000
0000
0000
3010
0000
1000
0001
1000
0000
0000
1000
0100
0000
0010
0000
,
0002
0000
0000
0000
0103
0000
1000
0100
2000
0000
0000
0000
3100
0000
0001
0000
,
0000
0011
0000
0000
1100
0000
0000
0101
0000
0000
1010
0000
1001
0000
0001
0000
,
2000
0000
0000
0000
3001
0000
1000
0100
1000
0000
0100
0000
0010
0000
0001
0000
,
1000
0000
0000
1000
0000
0000
0010
0100
0020
0000
0000
0030
1000
0000
0100
0010
,
0100
0000
0000
0000
0010
0000
0001
0100
0001
0000
0010
0000
0100
0000
1000
0000
,
0001
0000
0000
0001
0200
0000
0000
0000
0310
0000
0000
0000
1001
0000
0000
0000
,
1000
0100
0001
0100
1000
0010
0001
0010
,
1000
0100
0001
0010
2000
0000
3001
0100
,
1010
0000
0101
0000
1000
0100
0001
0100
,
1000
0000
1000
0000
0010
0000
0010
0000
1000
0100
1000
0000
0001
0100
0001
0000
,
0000
1000
0010
0000
0000
0010
0100
0000
0000
0100
0001
0000
0000
0001
1000
0000
,
1001
0000
0000
0001
0000
0000
1000
0000
0100
0000
0000
0010
0000
0000
0100
0000
,
0110
0000
0110
0000
0000
0000
0100
0000
1000
0000
0000
0100
0000
0000
0010
0000
,
1001
1001
1001
1000
0200
0000
0310
0000
,
2002
0000
3003
0000
0220
0000
0330
0010
,
1010
0000
0000
1000
0000
0000
0100
0000
0010
0000
0000
0001
0000
0000
0010
0000
,
0011
0000
0011
0000
0000
0000
0001
0000
0100
0000
0000
0010
0000
0000
0100
0000
,
0110
0110
0110
0010
2000
0000
3001
0000
,
2002
0000
3003
0000
0220
0000
0330
0100
,
0001
0000
0000
0010
0000
0000
0100
0000
1000
0000
0000
0010
0000
0000
0100
0000
,
0001
0000
0000
0010
0000
0000
0001
0000
0100
0000
0000
0010
0000
0000
1000
0000
,
0100
0000
0000
1000
0000
0000
0010
0000
0200
0000
0000
0000
0301
0000
0000
0000
,
0001
0000
0010
0000
0100
0000
0000
0000
1000
0000
0000
0010
0100
0000
0010
0000
,
1000
0000
0000
0010
0000
0000
0001
0000
0010
0000
0000
1000
0000
0000
0100
0000
,
0001
0000
0000
0100
0000
0000
1000
0000
0001
0000
0000
0010
0000
0000
0010
0000
,
0002
1003
0020
1030
,
0200
0000
0000
0000
1300
0000
0000
0000
0020
0000
0000
0000
1030
0000
0001
1000
,
0200
1000
0300
0010
,
0002
1003
2000
3001
,
0200
0010
0300
0001
,
0200
0310
0002
1003
,
0020
1000
0030
0001
,
1000
0001
1000
0000
1000
0100
0000
0010
0000
0001
0100
0000
0001
1000
0001
0000
,
1000
0010
0000
0100
0000
0100
0010
0000
0010
1000
0000
0100
0000
0010
0000
0000
,
0001
0100
1000
0100
0001
0010
0100
1000
,
0001
0010
0000
0100
0000
0100
0000
0000
0010
0001
0000
0000
0000
0100
0000
0000
,
1000
0100
0001
0010
0100
1000
0001
0100
,
0010
1000
0000
1000
0000
0100
0010
0000
0010
0001
0000
1000
0000
0010
0000
0000
,
0100
1000
0100
0001
0010
0100
1000
0001
,
1000
0010
0000
0100
0000
0100
0000
0000
0010
1000
0000
0000
0000
0100
0000
0000
,
0010
0001
0010
0000
0100
1000
0000
0001
0000
1000
0100
0000
0010
0001
0010
0000
,
0100
0010
0100
0000
0001
0000
0000
0000
0010
0000
0000
0000
1000
0000
0010
0100
,
0010
0000
0000
0000
0000
0000
1000
0001
1000
0000
0001
0000
1000
0000
0100
0000
,
1000
0100
1000
0000
0000
0000
0010
0000
0010
0000
0000
0000
0000
0000
0100
0010
,
1000
0000
0000
0000
0000
0000
0100
0001
0100
0000
1000
0000
0001
0000
1000
0000
,
0100
0010
0100
0000
0000
0000
1000
0000
0001
0000
0000
0100
1000
0100
0010
0001
,
0100
0000
0000
0000
0000
0000
0100
0001
0100
0000
1000
0000
0001
0000
1000
0010
,
0100
1000
0000
0100
0000
0010
0000
0001
,
0000
0100
0000
1000
0000
0010
0000
0100
,
0001
0010
1000
0000
0000
0100
1000
0000
,
0010
0000
0100
0000
0010
0000
1000
0000
0001
0000
0000
0000
0100
0001
0000
1000
,
0000
0010
0100
0010
1000
0000
0000
0001
0000
0000
0100
0000
0000
0010
0000
1000
,
0000
0001
0100
0010
1000
0000
0000
1001
0000
0000
0000
0000
0000
0000
0000
0000
;
