#TITLE:Technically, That's A Hook;
#SUBTITLE:;
#ARTIST:Richie Branson;
#TITLETRANSLIT:;
#SUBTITLETRANSLIT:;
#ARTISTTRANSLIT:;
#GENRE:;
#CREDIT:;
#BANNER:Technically, That's a Hook.png;
#BACKGROUND:Technically, That's a Hook-bg.png;
#LYRICSPATH:;
#CDTITLE:;
#MUSIC:Technically, That's a Hook.ogg;
#OFFSET:0.000000;
#SAMPLESTART:66.206894;
#SAMPLELENGTH:13.793106;
#SELECTABLE:YES;
#BPMS:0.000000=87.000000
;
#STOPS:
;
#BGCHANGES:;
#KEYSOUNDS:;
#ATTACKS:;

//---------------dance-single - ----------------
#NOTES:
     dance-single:
     :
     Hard:
     11:
     0.479571,0.497386,0.188514,0.123259,0.435032,463.000000,437.000000,26.000000,17.000000,0.000000,0.000000,0.479571,0.497386,0.188514,0.123259,0.435032,463.000000,437.000000,26.000000,17.000000,0.000000,0.000000:
// measure 0
0000
0000
0000
0000
,  // measure 1
0000
0000
0000
0000
,  // measure 2
0000
0000
0000
0000
,  // measure 3
0000
0000
0000
0000
,  // measure 4
1000
0100
1000
0000
0001
0000
0011
0000
1000
0001
1000
0000
0001
0000
1010
0000
,  // measure 5
0010
1000
0100
0001
1000
0100
0001
1001
,  // measure 6
0000
0000
1000
0001
1000
0000
0001
0000
0100
0000
0010
0000
1000
0001
1000
0000
,  // measure 7
0010
1000
0010
0000
0100
0001
0100
0000
0010
0000
1000
0000
0001
1000
0001
0000
,  // measure 8
0000
1000
0100
0000
1000
0000
0001
0100
0010
0100
0001
0000
0110
0000
0101
0000
,  // measure 9
0000
0000
0010
1000
0100
1000
0010
0000
0100
0000
0001
0010
0100
0000
1001
0000
,  // measure 10
0000
0100
0010
0000
1000
0000
0001
0000
0100
0010
1000
0000
0001
0000
0010
0000
,  // measure 11
0100
1000
0100
0000
0010
0000
0001
0000
0100
0000
0010
1000
0010
0000
0100
0000
,  // measure 12
0000
0000
0001
0100
0001
0100
0001
0000
1000
0100
1000
0000
0001
0010
0001
0000
,  // measure 13
0000
0000
1000
0001
0100
0000
0001
1000
0010
0000
1000
0010
0100
0000
1001
0000
,  // measure 14
0010
0000
1000
0010
0100
0000
1000
0000
0001
0000
0100
0001
0010
0000
0001
0000
,  // measure 15
1000
0000
0010
1000
0100
0000
1000
0000
0001
0000
0100
0010
1000
0000
0001
0000
,  // measure 16
1000
0000
0001
0010
0100
0000
1000
0000
0100
0010
1000
0001
1000
0000
0010
0000
,  // measure 17
0100
0000
0001
1000
0010
0000
1000
0000
0001
0100
0001
0010
0001
0000
1000
0000
,  // measure 18
0001
0000
0100
0010
0100
0000
0010
0000
1000
0000
0010
0000
0101
0000
0010
0000
,  // measure 19
1000
0000
0100
0000
0010
0001
0100
0000
0010
0000
1000
0000
1100
0000
0000
0000
,  // measure 20
0000
0000
0001
0000
1000
0100
0010
0100
1000
0000
0001
1000
0001
0000
0000
0000
,  // measure 21
0000
0000
1000
0000
0001
0100
0010
0100
0001
0000
1000
0001
1000
0000
0000
0000
,  // measure 22
0000
0000
0010
0000
1000
0001
0100
0001
1000
0000
0010
0100
0010
0000
0000
0000
,  // measure 23
0000
0000
1000
0000
0001
0000
1000
0010
0100
0000
0010
1000
0001
0000
0000
0000
,  // measure 24
0000
0000
0100
0000
0010
1000
0001
0100
0001
0000
1000
0100
1000
0000
0000
0000
,  // measure 25
0000
0000
0010
0000
0001
0100
0001
1000
0001
0000
1000
0100
1000
0000
0000
0000
,  // measure 26
0000
0000
0010
0000
1000
0001
0100
0001
1000
0000
0010
1000
0100
0000
1000
0001
,  // measure 27
1000
0000
0010
0000
0100
0000
0001
0000
1000
0001
1000
0001
1000
0000
0000
0000
,  // measure 28
0001
0000
0100
0000
0010
0000
1000
0000
0001
0000
0000
1001
0000
0000
0000
0000
,  // measure 29
1000
0000
0010
0000
0100
0000
0001
0000
1000
0000
0000
1001
0000
0000
0000
0000
,  // measure 30
0010
0000
0100
0000
0001
0000
1000
0000
0001
0000
0000
1001
0000
0000
1000
0000
,  // measure 31
0001
0000
0100
0000
0010
0000
0100
0000
0001
0000
1000
0000
0010
0000
1000
0100
,  // measure 32
1000
0000
0001
0100
0001
0010
0001
1000
0100
0010
0001
0100
0010
0000
0000
0000
,  // measure 33
1001
0000
1100
0000
1001
0000
1000
0010
0100
0010
1000
0001
1000
0000
0000
0000
,  // measure 34
0010
0001
0010
0001
0010
0000
0001
0100
0001
0000
1000
0010
1000
0000
0010
0000
,  // measure 35
0100
0000
0001
1000
0001
1000
0001
0010
0001
0100
0001
1000
0001
0000
1001
0000
,  // measure 36
0000
0001
0100
0001
0010
0000
0001
1000
0100
0000
1000
0001
0100
0000
0001
0010
,  // measure 37
1000
0000
0001
0100
0010
0000
1000
0000
0001
0010
1000
0000
0001
0100
0001
0000
,  // measure 38
0000
0000
1010
0000
0101
0000
1001
0000
0110
0000
1000
0001
0010
0001
0100
0000
,  // measure 39
0110
0000
1001
0000
0110
0000
1000
0000
0001
0010
0001
1000
0100
1000
0010
0000
,  // measure 40
0000
0000
0002
0000
1003
0100
0010
0001
1000
0000
0001
0100
0002
0000
1003
0000
,  // measure 41
2000
0000
3010
0000
0010
0100
0001
1000
0002
0000
0103
0010
0200
0000
0310
0000
,  // measure 42
0020
0000
1030
0000
1000
0001
0100
0010
2000
0000
3001
0100
0002
0000
0013
0000
,  // measure 43
0020
0000
0130
0000
0100
0001
1000
0010
1000
0000
0001
0100
0010
0000
0100
0000
,  // measure 44
0102
0000
0000
0000
1003
0010
0100
0010
2000
0000
3001
0010
0002
0000
0103
0000
,  // measure 45
0200
0000
0310
0000
0010
1000
0100
1000
0020
0000
0130
0001
2000
0000
3001
0000
,  // measure 46
0001
0100
0001
0000
1000
0010
0001
0010
1000
0000
0001
0100
1000
0000
0001
0010
,  // measure 47
0001
0100
0001
1000
0001
0000
1100
0000
0001
0010
0100
1000
0001
0000
0000
0000
,  // measure 48
2002
0000
0000
0000
,  // measure 49
3003
0000
0000
0000
;

//---------------dance-double - ----------------
#NOTES:
     dance-double:
     :
     Hard:
     11:
     0.471284,0.515150,0.195764,0.014501,0.406030,455.000000,428.000000,27.000000,2.000000,0.000000,0.000000,0.471284,0.515150,0.195764,0.014501,0.406030,455.000000,428.000000,27.000000,2.000000,0.000000,0.000000:
00000000
00000000
00000000
00000000
,
00000000
00000000
00000000
00000000
,
00000000
00000000
00000000
00000000
,
00000000
00000000
00000000
00000000
,
00100000
10000000
00010000
00100000
00001000
00010000
00000010
00001000
,
00000001
00000000
00000100
00000000
00001000
00000000
00100000
00000000
00010000
00000000
01000000
00000000
00100000
10000000
00100000
00000000
,
00000000
00000000
00010000
10000000
00010000
00000000
01000000
00000000
00001000
00000000
00010000
00000000
00000010
00001000
00000010
00000000
,
00001000
00000000
00000100
00000000
00010000
00000000
00001000
00000000
00100000
00010000
00100000
00000000
10000000
01000000
10000000
00000000
,
00000000
00000000
00100000
00000000
10000000
00000000
00010000
00100000
00010000
00000000
00001000
00000000
00010100
00000000
00001010
00000000
,
00000000
00000000
00000001
00000100
00001000
00000000
00000010
00000000
00001000
00000000
00000100
00010000
00001000
00000000
00011000
00000000
,
00000000
00000000
00110000
00000000
01000000
00000000
00100000
10000000
01000000
00000000
00100000
00000000
00110000
00000000
01010000
00000000
,
10000000
00100000
01000000
00000000
00011000
00000000
00010000
00000010
00001000
00000000
00001001
00000000
00001100
00000000
00001001
00000000
,
00000000
00000000
00000010
00001000
00000100
00000000
00010000
00000000
00001000
00000000
00100000
00001000
01000000
00000000
00100000
00000000
,
10000000
00000000
00100000
01000000
00010000
00000000
01000000
00000000
00001000
00000000
00010000
00000000
00000100
00000000
00001000
00000000
,
00000001
00000000
00001000
00000100
00001000
00000000
00000010
00000000
00010000
00000000
00001000
00000000
00010000
00001000
01000000
00000000
,
00010000
00000000
10000000
00010000
10000000
00010000
01000000
00010000
10000000
00000000
00100000
01000000
00001000
00000000
00010000
00000000
,
00000010
00000000
00001000
00000000
00000010
00000100
00001000
00000100
00000010
00000000
00001000
00000000
00000100
00010000
00000000
00000000
,
00001000
00000000
00100000
00000000
00010000
01000000
00100000
01000000
00010000
00000000
10000000
00000000
00010000
01000000
00000000
00000000
,
00100000
00000000
10000000
00000000
01000000
00010000
00100000
00010000
01000000
00000000
00001000
00000000
00010000
00001000
00000000
00000000
,
00010000
00000000
00000010
00000000
00001000
00000000
00000001
00000000
00001000
00000100
00010000
00000000
00001000
00010000
00000000
00000000
,
00000000
00000000
00011000
00000000
00100000
00010000
01000000
00010000
00100000
00000000
10000000
00010000
01000000
00000000
00000000
00000000
,
00001000
00000000
00010000
00000000
00000010
00001000
00000100
00001000
00000010
00000000
00000100
00000001
00001000
00000000
00000000
00000000
,
00000100
00000000
00010000
00000000
00001000
00010000
00001000
01000000
00001000
00000000
01000000
00010000
10000000
00000000
00000000
00000000
,
00000000
00000000
00100000
00000000
10000000
00000000
01000000
00100000
00010000
00000000
00100000
00001000
00010000
00000000
00000000
00000000
,
00000000
00000000
00011000
00000000
00000010
00001000
00000001
00001000
00000010
00000000
00010000
00000100
00001000
00000000
00000000
00000000
,
00010000
00000000
00001000
00000000
01000000
00010000
10000000
00010000
01000000
00000000
00100000
10000000
00010000
00000000
00000000
00000000
,
00100000
00000000
00001000
00000000
00010000
00000100
00010000
00001000
00010000
00000000
00000100
00001000
00000001
00000000
00000001
00001000
,
00000100
00000000
00010000
00000000
00001000
01000000
00001000
00000000
01000000
00100000
10000000
00010000
01000000
00000000
00000000
00000000
,
00100000
00000000
10000000
00000000
01000000
00000000
00010000
00000000
00100000
00000000
00000000
00011000
00000000
00000000
00000000
00000000
,
00000100
00000000
00001000
00000000
00000010
00000000
00000001
00000000
00000100
00000000
00000000
00011000
00000000
00000000
00000000
00000000
,
00100000
00000000
10000000
00000000
01000000
00000000
00010000
00000000
00100000
00000000
00000000
00011000
00000000
00000000
00000000
00000000
,
00000100
00000000
00001000
00000000
00000010
00000000
00001000
00000000
00000100
00000000
00010000
00000000
00001000
00000000
00100000
00010000
,
01000000
00000000
00010000
00100000
01000000
10000000
00010000
00100000
00001000
00010000
00000010
00001000
00000001
00000000
00000000
00000000
,
00000010
00001000
00000100
00000000
00010000
00000000
00001000
01000000
00010000
01000000
00100000
01000000
00010000
00000000
00000000
00000000
,
10000000
00100000
01000000
00000000
00100000
00000000
10000000
01000000
00100000
00000000
00001000
00010000
00000100
00000000
00001000
00000000
,
00000001
00000000
00000100
00000010
00001000
00000010
00000100
00000010
00001000
00000100
00010000
00001000
00010000
00000000
00011000
00000000
,
00000000
00001000
00100000
00001000
00100000
00000000
00010000
01000000
00010000
00000000
10000000
00100000
01000000
00000000
00010000
01000000
,
10000000
00000000
00010000
00100000
10000000
00000000
00100000
00000000
00001000
00010000
00000100
00001000
00000010
00000000
00001001
00000000
,
00000000
00000000
00000101
00000000
00001001
00000000
00000101
00000000
00000010
00000000
00001000
00000100
00010000
00000100
00001000
00000000
,
00001100
00000000
00001100
00000000
00010100
00000000
00010100
00000000
00001000
00010000
00001000
00100000
00001000
01000000
00010000
00000000
,
00000000
00000000
10010000
00000000
10000000
01000000
00100000
00010000
01000000
00000000
00001000
00010000
00001000
00000000
00000000
00000000
,
00010000
00000000
00000100
00000000
00001000
00000100
00000010
00000001
00000100
00000000
00000001
00001000
00000001
00000000
00000000
00000000
,
00001000
00000000
00000100
00000000
00010000
00001000
00010000
00001000
00010000
00000000
00100000
00010000
01000000
00000000
00100000
00000000
,
10000000
00000000
00010000
00000000
00100000
00000000
00001000
00000000
00010000
00000000
00001000
00010000
00001000
00000000
00000000
00000000
,
00010000
00000000
00000010
00000000
00001000
00000100
00000010
00000001
00000100
00000000
00000010
00001000
00000100
00000000
00010000
00000000
,
00001000
00000000
00100000
00000000
00010000
00100000
01000000
10000000
00100000
00000000
01000000
00010000
01000000
00000000
00010000
00000000
,
00100000
00000000
00001000
00000000
00010000
00000100
00010000
00000100
00010000
00000000
00001000
00100000
00001000
00000000
00100000
00010000
,
01000000
00000000
00100000
10000000
01000000
00000000
10010000
00000000
10000000
01000000
00100000
00010000
01000000
00000000
00000000
00000000
,
00022000
00000000
00000000
00000000
,
00033000
00000000
00000000
00000000
;

//---------------dance-double - ----------------
#NOTES:
     dance-double:
     :
     Medium:
     8:
     0.267234,0.284221,0.253768,0.094257,0.000000,258.000000,223.000000,35.000000,13.000000,0.000000,0.000000,0.267234,0.284221,0.253768,0.094257,0.000000,258.000000,223.000000,35.000000,13.000000,0.000000,0.000000:
00000000
00000000
00000000
00000000
,
00000000
00000000
00000000
00000000
,
00000000
00000000
00000000
00000000
,
00000000
00000000
00000000
00000000
,
00100000
00001000
00010000
00000000
00000010
00010000
00001000
00000000
,
01000000
00001000
00010000
00000000
00000100
00010000
00001000
00000000
,
01000000
00010000
10000000
00000000
00100000
00001000
00010000
00000000
,
00000010
00001000
00000001
00000000
00000100
00010000
00001000
00000000
,
00010000
00001000
01000000
00000000
00010000
00100000
01000000
00000000
,
00100000
00001000
00010000
00000000
00000010
00001000
00000100
00000000
,
00001000
00000001
00000100
00000000
00000010
00010000
00000100
00000000
,
00010000
00001000
01000000
00000000
00100000
10000000
01000000
00000000
,
00100000
00000000
10010000
00000000
01000000
00010000
00100000
00010000
,
10000000
00000000
00110000
00000000
00100000
00001000
00010000
00001000
,
00010000
00000000
00001010
00000000
00001000
00000001
00001000
00000000
,
00000100
00001000
00000100
00000000
00010000
00001000
00010000
00000000
,
00001000
00000000
00100000
00010000
01000000
00000000
10010000
00000000
,
10000000
00000000
01000000
00100000
00010000
00000000
00110000
00000000
,
00101000
00000000
00010000
00000100
00001000
00000000
00001010
00000000
,
00000100
00000001
00001000
00000000
00001100
00000000
00001001
00000000
,
00000000
00000000
00000010
00001000
00000100
00000000
00011000
00000000
,
00000000
00000000
00100000
00010000
01000000
00000000
00011000
00000000
,
00000000
00000000
00000100
00001000
00000010
00000000
00011000
00000000
,
00010000
00001000
00010000
00000000
00001000
00010000
00001000
00000000
,
00000000
00000000
00100000
00010000
01000000
00000000
00011000
00000000
,
00000000
00000000
00000010
00001000
00000100
00000000
00011000
00000000
,
00000000
00000000
01000000
00010000
00100000
00000000
10010000
00000000
,
00100000
00000000
00001000
00000000
00010000
00010000
00011000
00000000
,
00000020
00000030
00000002
00000103
,
00002000
00003000
00000200
00020300
,
02030000
03000000
20000000
30020000
,
00230000
00300000
00002000
00003200
,
00001300
00001000
00000001
00000000
00000001
00000001
00001000
00000000
,
00000010
00001000
00000100
00000000
00010000
00001000
01000000
00000000
,
00100000
00000000
10010000
00000000
01000000
00100000
01000000
00000000
,
00001000
00010000
00001000
00010000
00000100
00001000
00000001
00000000
,
00000010
00000000
00001001
00000000
00000001
00000100
00001000
00000000
,
00010000
00000000
00011000
00000000
00010000
01000000
10000000
00000000
,
10000000
00000000
10010000
00000000
10000000
00100000
01000000
00000000
,
00010000
00000000
00110000
00000000
00100000
00001000
00010000
00000000
,
00011000
00000000
00001001
00000000
00001000
00000010
00000100
00000000
,
00001001
00000000
00011000
00000000
00001000
00100000
00010000
00000000
,
10010000
00000000
01100000
00000000
01000000
00010000
10000000
00000000
,
00100000
00000000
01010000
00000000
00100000
00100000
00100000
00000000
,
11000000
00000000
00110000
00000000
00100000
00001000
00010000
00000000
,
00011000
00000000
00001010
00000000
00001000
00000001
00000100
00000000
,
00001001
00000000
00001100
00000000
00000010
00001000
00000100
00000000
,
00010000
00000000
00001000
00000000
00100000
00010000
01000000
00000000
,
20020000
00000000
00000000
00000000
,
30030000
00000000
00000000
00000000
;

//---------------dance-double - ----------------
#NOTES:
     dance-double:
     :
     Easy:
     4:
     0.150189,0.195402,0.079756,0.094257,0.000000,145.000000,134.000000,11.000000,13.000000,0.000000,0.000000,0.150189,0.195402,0.079756,0.094257,0.000000,145.000000,134.000000,11.000000,13.000000,0.000000,0.000000:
00000000
00000000
00000000
00000000
,
00000000
00000000
00000000
00000000
,
00000000
00000000
00000000
00000000
,
00000000
00000000
00000000
00000000
,
00000000
00010000
00000000
00010000
,
00000000
00001000
00000000
00001000
,
00000000
00100000
00010000
00100000
,
00000000
00010000
00000000
00001000
,
00000000
00000010
00001000
00000010
,
00000000
00001000
00000000
00010000
,
00000000
01000000
00010000
01000000
,
00020000
00030000
20000000
30000000
,
00000000
00100000
10000000
01000000
,
00000000
00100000
00001000
00010000
,
00000000
00000010
00001000
00000100
,
00000000
00000001
00001000
00000100
,
00000000
00010000
00002000
00013000
,
00000000
00001000
00020000
00031000
,
00000000
00100000
00001000
00010000
,
00000000
00000010
00010000
00001000
,
00000000
00100000
01000000
10010000
,
00000000
01000000
00100000
10010000
,
00000000
00100000
00001000
00010000
,
00002000
00003000
00020000
00030000
,
00000000
00000010
00000100
00001001
,
00000000
00000100
00000010
00001001
,
00000000
00000010
00001000
00000100
,
00020000
00030000
00002000
00003000
,
00200000
00000000
00300000
00000000
,
02000000
00000000
03000000
00000000
,
00010000
00010000
10000000
10000000
,
00010000
00010000
00200000
00300000
,
00001000
00001000
00010000
00010000
,
00000010
00001000
00000100
00000001
,
00000010
00000010
00010000
00001000
,
00100000
00100000
00001000
00010000
,
00000100
00010000
00001000
01000000
,
00010000
10000000
00010000
00100000
,
00001000
00001000
00010000
00010000
,
00000010
00010000
00001000
00001000
,
00000000
00100000
00011000
00011000
,
00000000
00000010
00011000
00011000
,
00000000
00100000
00010000
01000000
,
10000000
00100000
01000000
00001000
,
00010000
00001000
00010000
00011000
,
00000000
00010000
00000100
00001100
,
00000000
00000010
00001000
00000100
,
00000001
00000010
00010000
00001000
,
00022000
00000000
00000000
00000000
,
00033000
00000000
00000000
00000000
;

//---------------dance-single - ----------------
#NOTES:
     dance-single:
     :
     Beginner:
     1:
     0.090114,0.104408,0.021752,0.029002,0.000000,87.000000,84.000000,3.000000,4.000000,0.000000,0.000000,0.090114,0.104408,0.021752,0.029002,0.000000,87.000000,84.000000,3.000000,4.000000,0.000000,0.000000:
0000
0000
0000
0000
,
0000
0000
0000
0000
,
0000
0000
0000
0000
,
0000
0000
0000
0000
,
0000
1000
0000
0001
,
0000
1000
0000
0001
,
0000
1000
0000
0001
,
0000
1000
0000
0001
,
0000
0010
0000
1000
,
0000
0010
0000
0001
,
0000
0100
0000
1000
,
0000
0100
0000
0001
,
0000
0010
0000
0010
,
0000
0100
0000
0100
,
0000
0010
0000
0001
,
0000
0100
0000
1000
,
0000
0100
0000
0100
,
0000
0010
0000
0010
,
0000
0100
0000
1000
,
0000
0010
0000
0001
,
0000
0000
0100
0100
,
0000
0000
0100
0100
,
0000
0000
0100
0100
,
0000
0000
0000
1001
,
0000
0000
0010
0010
,
0000
0000
0010
0010
,
0000
0000
0010
0010
,
0000
0000
0000
1001
,
0000
0000
0000
0000
,
0000
0001
0000
0001
,
0000
1000
0000
1000
,
0000
0001
0000
1000
,
0000
0010
0010
0010
,
0000
0001
0000
1000
,
0000
0100
0000
0100
,
0000
1000
0000
0001
,
0000
0020
0030
0010
,
0000
0200
0300
0100
,
0000
0002
0003
0001
,
0000
2000
3000
1000
,
0000
0000
0010
0010
,
0000
0000
0100
0100
,
0000
0000
0010
0010
,
0000
0000
0000
1001
,
0000
0000
1000
1000
,
0000
0000
0001
0001
,
0000
0000
1000
1000
,
0000
0000
0000
0001
,
0001
0000
0000
0000
;

//---------------dance-single - ----------------
#NOTES:
     dance-single:
     :
     Easy:
     4:
     0.176084,0.213165,0.195764,0.029002,0.000000,170.000000,143.000000,27.000000,4.000000,0.000000,0.000000,0.176084,0.213165,0.195764,0.029002,0.000000,170.000000,143.000000,27.000000,4.000000,0.000000,0.000000:
0000
0000
0000
0000
,
0000
0000
0000
0000
,
0000
0000
0000
0000
,
0000
0000
0000
0000
,
0000
1000
0001
0100
,
0000
0001
1000
0100
,
0000
1000
0010
0001
,
0000
0001
0100
1000
,
0000
0010
0100
1001
,
0000
0100
0010
1001
,
0000
0001
0100
1000
,
0000
1000
0100
0001
,
0000
1000
0001
1001
,
0000
0001
1000
1001
,
0000
0001
0010
1000
,
0000
1000
0010
0001
,
0000
0100
0010
1000
,
0000
0010
0100
0001
,
0000
0010
1000
0100
,
0000
0010
0001
0100
,
0000
0010
1001
1001
,
0000
0100
1001
1001
,
0000
0010
1001
1001
,
0000
0001
0100
1000
,
0000
1000
0010
1001
,
0000
0001
0010
1001
,
0000
1000
0100
0001
,
0010
1000
0110
1001
,
0020
0030
0200
0300
,
0000
0001
0100
1000
,
0000
1000
0100
0001
,
0000
1000
0001
1001
,
0010
0010
1000
1001
,
0001
0100
1000
0010
,
1000
0100
0010
0001
,
0100
0100
0001
1001
,
0010
1000
0100
1000
,
0010
0001
0100
0001
,
0010
0100
1000
0001
,
1000
0100
0010
0001
,
0000
0010
0110
1001
,
0000
0100
0110
1001
,
0000
0001
0010
0100
,
1000
0001
1000
1001
,
0000
1000
1001
0110
,
0000
0001
1001
0110
,
0000
0010
1000
0100
,
0001
0010
1000
0001
,
2002
0000
0000
0000
,
3003
0000
0000
0000
;

//---------------dance-single - ----------------
#NOTES:
     dance-single:
     :
     Medium:
     8:
     0.264126,0.284221,0.174013,0.029002,0.000000,255.000000,231.000000,24.000000,4.000000,0.000000,0.000000,0.264126,0.284221,0.174013,0.029002,0.000000,255.000000,231.000000,24.000000,4.000000,0.000000,0.000000:
// measure 0
0000
0000
0000
0000
,  // measure 1
0000
0000
0000
0000
,  // measure 2
0000
0000
0000
0000
,  // measure 3
0000
0000
0000
0000
,  // measure 4
1000
0100
0001
0000
1000
0000
0001
0000
,  // measure 5
0001
1000
0001
1000
,  // measure 6
0010
1000
0001
0000
0100
0000
0110
0000
,  // measure 7
0010
0001
1000
0000
0010
0000
0110
0000
,  // measure 8
0010
0100
0010
0000
0010
0000
0110
0000
,  // measure 9
0100
0010
0100
0000
0100
0000
0110
0000
,  // measure 10
0010
1000
0001
0000
1000
0000
1001
0000
,  // measure 11
0010
0001
1000
0000
0001
0000
1001
0000
,  // measure 12
0000
0001
0001
0000
1000
0100
0001
0000
,  // measure 13
0000
1000
1000
0000
0001
0100
1000
0000
,  // measure 14
0010
1000
0010
0000
0001
0100
0001
0000
,  // measure 15
1000
0010
0100
0000
0001
0100
0010
0000
,  // measure 16
1000
0000
0001
0010
0100
0010
0001
0000
,  // measure 17
0001
0000
1000
0100
0010
0100
1000
0000
,  // measure 18
0001
0000
0010
0010
1000
0010
0001
0000
,  // measure 19
1000
0100
0010
0000
0001
0010
0100
0000
,  // measure 20
0000
0000
1000
0010
0100
0000
1001
0000
,  // measure 21
0000
0000
0001
0010
0100
0000
1001
0000
,  // measure 22
0000
0000
1000
0001
0100
0000
1001
0000
,  // measure 23
0000
0001
1000
0001
0010
0010
0010
0000
,  // measure 24
0000
0000
0100
0010
0001
0000
1001
0000
,  // measure 25
0000
0000
0010
0100
1000
0000
1001
0000
,  // measure 26
0000
0000
0010
1000
0001
0000
0110
0000
,  // measure 27
0001
0010
0100
0000
1000
0100
0010
0000
,  // measure 28
0002
0003
2000
3000
,  // measure 29
1000
0000
1001
0000
1000
0001
0010
0000
,  // measure 30
0001
0000
1001
0000
0001
1000
0010
0000
,  // measure 31
0001
0100
0010
0000
0001
1000
0010
0000
,  // measure 32
0100
0001
1000
0001
0100
0001
1000
0000
,  // measure 33
0001
0100
0001
0000
1000
0010
1000
0000
,  // measure 34
0010
0001
1000
0001
0010
0000
1001
0000
,  // measure 35
0100
0001
1000
0001
0100
0000
1001
0000
,  // measure 36
0010
0001
1000
0000
0010
1000
0001
0000
,  // measure 37
0100
0001
0010
0000
1000
0100
0010
0000
,  // measure 38
0010
0001
0100
0000
1000
0010
0100
0000
,  // measure 39
0001
0010
0100
0000
0001
0001
1001
0000
,  // measure 40
0000
0000
0100
0010
0001
0000
1001
0000
,  // measure 41
0000
0000
1000
0100
0010
0000
1001
0000
,  // measure 42
0000
0010
1000
0001
0010
0000
1001
0000
,  // measure 43
0000
0010
0001
1000
0010
0000
1001
0000
,  // measure 44
0000
0001
1000
0010
0010
0000
1001
0000
,  // measure 45
0000
1000
0001
0100
0100
0000
1001
0000
,  // measure 46
0000
0001
1000
0001
0010
0001
0100
0001
,  // measure 47
1000
0100
0010
0001
0010
0100
1000
0000
,  // measure 48
2002
0000
0000
0000
,  // measure 49
3003
0000
0000
0000
;
