#TITLE:辿る君を超えて;
#SUBTITLE:;
#ARTIST:BEMANI Sound Team "Power Of Nature";
#TITLETRANSLIT:Tadoru kimi wo koete;
#SUBTITLETRANSLIT:;
#ARTISTTRANSLIT:;
#GENRE:;
#CREDIT:;
#BANNER:Tadoru kimi wo koete.png;
#BACKGROUND:Tadoru kimi wo koete-bg.png;
#LYRICSPATH:;
#CDTITLE:;
#MUSIC:Tadoru kimi wo koete.ogg;
#OFFSET:-0.020000;
#SAMPLESTART:39.069000;
#SAMPLELENGTH:10.500000;
#SELECTABLE:YES;
#BPMS:0.000000=120.000000
,20.000000=140.000000
,32.000000=160.000000
,167.750000=108.000000
,170.500000=105.000000
,175.000000=107.000000
,185.750000=40.000000
,187.750000=160.000000
,283.000000=40.000000
,284.000000=160.000000
;
#STOPS:
;
#BGCHANGES:;
#KEYSOUNDS:;
#ATTACKS:;

//---------------dance-single - ----------------
#NOTES:
     dance-single:
     :
     Beginner:
     6:
     0.198705,0.301402,0.099353,0.389768,0.099353,182.000000,169.000000,13.000000,51.000000,0.000000,0.000000,0.198705,0.301402,0.099353,0.389768,0.099353,182.000000,169.000000,13.000000,51.000000,0.000000,0.000000:
0000
0000
0000
0000
,
0000
0000
0000
0000
,
0000
0000
0000
0000
,
0000
0000
0000
0000
,
0000
0000
0000
0000
,
0020
0030
0002
0003
,
0200
0300
2000
3000
,
0002
0003
2000
3000
,
0020
0000
0000
0000
,
0030
0000
0000
0001
,
0000
0000
0000
0000
1000
0000
0000
0000
0000
0001
0000
0000
,
0000
0000
0000
1001
,
0000
0000
0000
0000
1001
0000
0000
0000
0000
1001
0000
0000
,
0000
0000
0000
0000
,
1000
0000
0000
0100
0000
0000
0000
0001
,
0000
0100
0000
1000
,
0000
1000
0000
0000
0000
0000
0001
0000
0000
0000
0000
1000
0000
0000
0001
0000
,
0000
0100
0000
0010
,
0000
0000
0010
0000
0000
0000
0000
0000
0000
0000
0001
0000
0000
0000
0000
0001
,
0000
0000
0000
0000
1000
0000
0000
0000
0000
1000
0000
0000
0000
0000
0001
0000
,
0000
0000
0000
0001
0000
0000
0000
0000
1001
0000
0000
0000
0000
0000
1001
0000
,
0000
0000
0000
1001
0000
0000
0000
0000
0100
0000
0100
0000
,
0200
0000
0000
0000
0000
0000
0000
0000
0300
0000
0000
0000
0000
0000
0000
0110
,
0000
0000
0000
0000
,
0002
0003
2000
3000
,
0010
0010
0010
0010
,
2000
3000
0002
0003
,
0100
0100
0100
0100
,
0002
0003
2000
3000
,
0010
0010
0100
0100
,
0002
0003
2000
3000
,
0100
0000
0000
0000
0100
0000
0000
0000
0010
0000
0000
0000
0000
0000
0000
1000
,
0000
0000
0000
0001
0000
0000
0000
1000
0000
0000
0000
0001
0000
0000
0000
1000
,
0000
0000
0002
0003
,
0100
0100
0100
0000
,
2000
3000
0002
0003
,
0100
0010
0100
0000
,
0002
0003
2000
3000
,
0010
0010
0200
0300
,
0001
1000
0001
1000
,
0020
0030
0200
0300
,
1000
0000
0000
0000
0001
0000
0000
0000
1000
0000
0000
0000
0001
0000
0000
1000
,
0000
0000
1000
0000
0000
0000
0000
0001
0000
0000
0001
0000
0000
0000
0000
0100
,
0000
0000
0100
0000
0000
0000
0000
0010
0000
0000
0010
0000
0000
0000
0000
1000
,
0000
0000
1000
0000
0000
0000
0000
0001
0000
0000
0001
0000
0000
0000
0000
0100
,
0000
0000
0100
0000
0000
0000
0000
1001
0000
0000
0000
0000
0000
0000
0000
0010
,
0000
0000
0001
0000
0000
0100
0000
2000
0000
0000
0000
0000
0000
0000
0000
0000
,
0000
0000
0000
0000
,
0000
0000
0000
0000
,
3001
0000
0000
1000
,
1000
0000
0000
0010
,
0010
0000
0000
0100
0000
0000
0010
0000
,
0000
0100
0000
0000
0001
0000
0001
0000
,
0001
0000
0000
1000
0000
0000
0001
0000
,
0000
1000
0000
0000
0001
0000
1000
0000
,
0002
0003
2000
3000
,
0020
0030
0200
0300
,
0002
0003
2000
3000
,
0020
0030
0200
0300
,
0001
0010
0100
0000
,
2000
3000
0002
0003
,
0200
0300
0020
0030
,
2000
3000
0200
0300
,
0010
0020
0030
0000
,
0100
0200
0300
0000
,
0001
0002
0003
0000
,
1000
2000
3000
0000
,
0010
0020
0030
0000
,
0100
0200
0300
0000
,
1001
0000
0000
1001
0000
0000
0000
1001
,
0000
1001
0000
0020
,
2030
0000
3000
0000
0001
0000
0000
0002
,
0000
0000
0103
0000
,
0100
0000
0000
0000
0010
0000
0000
0020
,
0000
0000
1030
0001
,
2002
0000
0000
0000
,
0000
0000
0000
0000
,
0000
0000
0000
0000
,
0000
0000
0000
0000
0000
0000
0000
3003
;

//---------------dance-single - ----------------
#NOTES:
     dance-single:
     :
     Hard:
     16:
     0.720580,0.904205,0.236918,0.198705,1.043203,660.000000,629.000000,31.000000,26.000000,0.000000,0.000000,0.720580,0.904205,0.236918,0.198705,1.043203,660.000000,629.000000,31.000000,26.000000,0.000000,0.000000:
// measure 0
0000
0000
0000
0000
,  // measure 1
0000
0000
0000
0000
,  // measure 2
0000
0000
0000
0000
,  // measure 3
0000
0000
0000
0000
,  // measure 4
0000
0000
0000
0000
,  // measure 5
0020
0000
0000
0000
0030
0000
1000
0100
2000
0000
0000
0000
3000
0000
0001
0100
,  // measure 6
0002
0000
0000
0000
0003
0000
0100
0010
0100
0000
0001
0000
0010
0000
0100
0000
,  // measure 7
2000
0000
3002
0000
0103
0010
1000
0001
,  // measure 8
0200
0000
0000
0000
,  // measure 9
0000
0000
0000
0000
0000
0000
0300
0000
0000
0001
1000
0010
,  // measure 10
1000
0000
0000
0000
1000
0010
0100
0000
0000
0001
0100
0010
,  // measure 11
0100
0010
1000
0001
0000
0000
0000
0000
0000
0001
0100
0010
,  // measure 12
1000
0000
0000
0000
1000
0001
0100
0000
0000
0001
1000
0010
,  // measure 13
1000
0100
1000
0001
0000
0000
0000
0000
0000
0000
0000
0000
,  // measure 14
0001
0100
0001
1000
0010
1000
0001
0100
0001
1000
0001
1000
0000
0000
0001
0010
,  // measure 15
0001
0100
0001
0100
0010
0100
0001
0100
0010
1000
0010
0000
1000
0000
1010
0000
,  // measure 16
0000
0001
0000
0101
0000
0000
0110
0000
1001
0000
0000
1010
0000
0100
0001
0010
,  // measure 17
0001
1000
0010
1000
0001
0010
0001
0100
0010
0100
0000
0000
0010
1000
0010
0100
,  // measure 18
0010
0100
0010
1000
0010
0100
0001
0100
0010
0000
1000
0000
0001
0000
0000
1000
,  // measure 19
0000
0001
0000
0000
1000
0000
1100
0000
0000
0001
0000
0101
0000
0000
0010
0000
,  // measure 20
0110
0000
0000
1000
0000
1100
0000
0000
1001
0000
0000
0110
0000
0000
1001
0000
,  // measure 21
0000
0000
0000
0110
0000
0000
0000
0000
0000
0000
0000
0000
1001
0000
0000
0000
0000
0000
0000
0000
0000
0110
0000
0000
0000
0000
0000
0000
0000
0000
0000
0000
1000
0000
0000
0000
0100
0000
0000
0000
0001
0000
0000
0000
0000
0000
0000
0000
,  // measure 22
2002
0000
0000
0000
0000
0000
0000
0000
0000
0000
0000
0000
3003
0000
0000
0010
,  // measure 23
0000
0220
0000
0000
0000
0000
0000
0000
0000
0000
0000
0000
0000
0000
0330
1001
,  // measure 24
0000
0000
0001
0000
0100
0010
0100
0010
0000
0000
1000
0000
0001
1000
0001
1000
,  // measure 25
0000
0000
0010
0000
0001
0010
0000
0001
0100
0000
0001
1000
0000
0010
1000
0010
,  // measure 26
0000
0000
0100
0000
0001
0010
0001
0010
0000
0000
0001
0000
1000
0100
1000
0100
,  // measure 27
0000
0000
1000
0000
0010
1000
0000
0001
1000
0000
0010
1000
0000
0010
1000
0100
,  // measure 28
0000
0000
1000
0000
0001
0100
0010
0100
0000
0000
0001
0000
1000
0010
0100
0010
,  // measure 29
0000
0000
1000
0000
0001
0100
0000
0001
1000
0000
0001
0010
0000
0001
1000
0100
,  // measure 30
0000
0010
0001
0000
0100
0000
0010
0000
1000
0100
1000
0010
1000
0100
1000
0010
,  // measure 31
0000
1000
0100
0000
1000
0000
0010
0000
0100
0001
0100
0001
1000
0010
1000
0010
,  // measure 32
0000
0100
0001
1000
0000
0001
1000
0010
0000
1000
0100
0010
0000
0100
0010
0001
,  // measure 33
0000
1000
0100
1000
0100
0000
0010
0001
0000
0100
0010
0100
0010
0000
1000
0001
,  // measure 34
0000
0000
1000
0000
0010
1000
0000
0010
1000
0000
0001
0100
0000
0001
0100
0010
,  // measure 35
0000
0010
1000
0000
0010
0100
0010
0100
0000
0010
1000
0000
0010
0100
0010
0100
,  // measure 36
0000
0001
0010
0000
0001
0100
0000
0001
1000
0000
0001
0100
0000
0001
0010
0001
,  // measure 37
0000
0100
0010
0000
1000
0100
0010
0001
0000
0100
0010
0000
1000
0010
0100
0001
,  // measure 38
0000
1000
0001
0000
1000
0010
0000
1000
0001
0000
1000
0010
0000
1000
0001
0100
,  // measure 39
0000
0100
0010
0000
1000
0000
0100
0000
0010
0000
0001
0000
1000
0000
0010
0000
,  // measure 40
0100
0000
0001
0100
0001
0100
0001
0100
0001
0100
0001
0000
0000
0000
0000
1001
,  // measure 41
0000
0001
0100
0010
1000
0010
0100
0001
0000
1000
0010
0100
0001
0100
0010
1000
,  // measure 42
0000
0000
0001
0000
0000
0110
0000
0001
0000
0000
1000
0000
0000
0101
0000
1000
,  // measure 43
0000
0000
0010
0000
0000
0110
0000
0010
0000
0000
1000
0000
0000
0101
0000
0010
,  // measure 44
0000
0000
0001
0000
0000
1100
0000
0010
0000
0000
0100
0000
0000
0011
0000
0100
,  // measure 45
0000
0000
0010
0000
0000
1000
0000
0202
0000
0000
0000
0303
0000
0000
0000
1010
,  // measure 46
0000
0000
0101
0000
0000
2000
0000
0002
0000
0000
0000
0000
0000
0000
0000
0000
,  // measure 47
0000
0000
0000
0000
,  // measure 48
3003
0000
0000
0000
0000
0000
0000
0000
0000
0000
0000
0000
0000
0000
0001
0010
,  // measure 49
0100
0000
0000
0000
0000
0000
0000
0000
0000
0000
1000
0001
1000
0010
1000
0100
,  // measure 50
1000
0000
0000
0000
0000
0000
0000
0000
0000
0000
0001
0100
0010
0100
0001
0000
,  // measure 51
0001
0100
0001
0100
0000
0000
0010
1000
0010
1000
0000
0000
0001
0010
0001
0010
,  // measure 52
0002
0000
0000
2003
0000
0000
3002
0000
0000
0103
0010
0100
0010
1000
0001
1000
,  // measure 53
0001
0000
0100
0001
0100
0000
0010
0000
1000
0010
1000
0000
0001
0000
0010
0001
,  // measure 54
0010
0000
0001
1000
0100
0000
1000
0000
0001
0010
0001
0100
0001
0010
0001
1000
,  // measure 55
0002
0000
0000
0203
0000
0000
2300
0000
0000
3020
0000
0000
0031
0100
0010
1000
,  // measure 56
0001
0000
1000
0000
1000
0000
0001
0100
0010
0000
1000
0000
1000
0000
0100
1000
,  // measure 57
0100
0000
1000
0000
1000
0000
0001
1000
0001
0000
0100
0000
0100
0000
0001
1000
,  // measure 58
0100
0000
1000
0000
0001
0000
1000
0001
0100
0000
0010
0000
0010
0000
0100
0001
,  // measure 59
0100
0000
0010
1000
0010
0000
1000
0100
1000
0000
0010
0001
0010
0000
0001
0100
,  // measure 60
0020
0000
0000
0000
0030
0000
0000
0000
0000
1000
0100
0010
0001
0010
0100
1000
,  // measure 61
0001
0000
0100
0001
0000
1000
0001
0000
0010
0001
0000
1000
0100
0010
0001
0100
,  // measure 62
0020
0000
0100
0000
0100
0000
0130
0000
0001
0100
0010
0100
0001
1000
0010
1000
,  // measure 63
0100
0000
0000
1000
0100
0000
1000
0000
0010
0100
0010
0100
0001
1000
0001
1000
,  // measure 64
0001
0000
0000
0010
0001
0000
0100
0000
0010
1000
0010
1000
0001
0100
0001
0100
,  // measure 65
0010
0000
0000
1000
0001
0000
1000
0000
0001
0010
0001
0010
0100
1000
0100
1000
,  // measure 66
0010
0000
0000
1000
0001
0000
0100
0000
0001
0010
0100
1000
0010
0100
0010
0100
,  // measure 67
0001
0000
0000
1000
0100
0000
1000
0000
0001
0100
0010
1000
0010
0100
0010
1000
,  // measure 68
0001
0000
0000
1000
0100
0000
0010
0000
0001
0100
0010
0100
0001
1000
0010
0000
,  // measure 69
0101
0000
0010
1000
0000
0001
0100
0000
0010
1000
0000
0101
0000
0000
1000
0000
,  // measure 70
0100
0010
0000
0001
0100
0000
0010
1000
0000
0100
0010
0000
2000
0000
0000
0000
,  // measure 71
3001
0000
0100
0000
0010
0000
1000
0000
0001
0100
0010
1000
0001
0100
0001
0000
,  // measure 72
1000
0000
0100
0000
0010
0000
0001
0000
1000
0000
0001
0000
1000
0001
0100
0001
,  // measure 73
1000
0000
0010
0000
0100
0000
0001
0000
1000
0001
0010
0001
1000
0100
1000
0000
,  // measure 74
0001
0000
0010
0000
0100
0000
1000
0000
0001
0100
0010
1000
0001
0100
0001
0000
,  // measure 75
2002
0000
0000
0000
,  // measure 76
0000
0000
0000
0000
,  // measure 77
0000
0000
0000
0000
,  // measure 78
0000
0000
0000
0000
0000
0000
0000
3003
;

//---------------dance-double - ----------------
#NOTES:
     dance-double:
     :
     Hard:
     16:
     0.624503,0.904205,0.160493,0.244560,0.844498,572.000000,551.000000,21.000000,32.000000,0.000000,0.000000,0.624503,0.904205,0.160493,0.244560,0.844498,572.000000,551.000000,21.000000,32.000000,0.000000,0.000000:
00000000
00000000
00000000
00000000
,
00000000
00000000
00000000
00000000
,
00000000
00000000
00000000
00000000
,
00000000
00000000
00000000
00000000
,
00000000
00000000
00000000
00000000
,
20000000
00000000
00000000
00000000
00000000
00000000
30010000
01000000
00020000
00000000
00000000
00000000
00000000
00000000
00130000
00010000
,
00200000
00000000
00000000
00000000
00000000
00000000
00301000
00010000
00001000
00000000
00010000
00000000
00000100
00000000
00001000
00000000
,
00000010
00000100
00000001
00000000
00001000
00000100
00010000
00001000
,
02000000
00000000
00000000
00000000
,
00000000
00000000
00000000
00000000
00000000
00000000
03000000
00000000
00000000
10000000
00100000
01000000
,
00010000
00000000
00000000
00000000
00100000
00010000
01000000
00000000
00000000
00100000
10000000
01000000
,
00100000
00010000
01000000
00100000
00000000
00000000
00000000
00000000
00000000
00010000
00100000
00010000
,
00100000
00000000
00000000
00000000
00001000
00010000
00000100
00000000
00000000
00000100
00001000
00000010
,
00000100
00000001
00000100
00000010
00000000
00000000
00000000
00000000
00000000
00000000
00000000
00000000
,
00001000
00000100
00001000
00000001
00000100
00000001
00001000
00000100
00001000
00000010
00000100
00000010
00000000
00000000
00010000
00000100
,
00010000
00001000
00100000
00001000
00100000
00010000
01000000
00010000
01000000
00010000
10000000
00100000
01000000
00000000
01100000
00000000
,
00000000
10000000
00000000
11000000
00000000
00000000
00100000
00000000
00110000
00000000
00000000
10000000
00000000
01000000
00100000
10000000
,
00100000
01000000
00010000
01000000
00100000
10000000
00100000
01000000
00010000
01000000
00000000
00000000
00010000
00100000
00010000
00100000
,
00001000
00100000
00001000
00010000
00001000
00010000
00000100
00001000
00000100
00001000
00000100
00000000
00001100
00000000
00000000
00000010
,
00000000
00000011
00000000
00000000
00001000
00000000
00001100
00000000
00000000
00010000
00000000
00011000
00000000
00000000
01000000
00000000
,
01010000
00000000
00000000
10000000
00000000
10010000
00000000
00000000
01010000
00000000
00000000
00011000
00000000
00000000
00001100
00000000
,
00000000
00000000
00000000
00001001
00000000
00000000
00000000
00000000
00000000
00000000
00000000
00000000
00001100
00000000
00000000
00000000
00000000
00000000
00000000
00000000
00000000
00011000
00000000
00000000
00000000
00000000
00000000
00000000
00000000
00000000
00000000
00000000
00010000
00000000
00000000
00000000
01000000
00000000
00000000
00000000
10000000
00000000
00000000
00000000
00000000
00000000
00000000
00000000
,
20020000
00000000
00000000
00000000
00000000
00000000
00000000
00000000
00000000
00000000
00000000
00000000
30030000
00000000
00000000
00011000
,
00000000
00011000
00000000
00000000
00000000
00000000
00000000
00000000
00000000
00000000
00000000
00000000
00000000
00000000
00000000
00000100
,
00000000
00001000
00000100
00000010
00000001
00000000
00001000
00000100
00000000
00000000
00001000
00000000
00000100
00000000
00010000
00001000
,
00000000
00000000
00100000
00000000
00010000
01000000
00000000
00010000
10000000
00000000
00010000
00100000
00000000
00000000
00000000
00010000
,
00000000
00000000
01000000
00000000
00001000
00000000
01000000
00010000
00000000
00000000
01000000
00000000
00001000
00000000
00010000
00001000
,
00000000
00000000
00010000
00000000
00000100
00010000
00000000
00000100
00001000
00000000
00000100
00010000
00000000
00000000
00000000
00001000
,
00000000
00000000
00000010
00000000
00000100
00000000
00000001
00000100
00000000
00000000
00000010
00000000
00001000
00000000
00000100
00001000
,
00000000
00000000
00000010
00000000
00001000
00000100
00000000
00001000
00000001
00000000
00001000
00000100
00000000
00010000
00000100
00010000
,
00000000
00000000
00001000
00000000
00100000
00010000
01000000
00000000
00100000
10000000
01000000
00000000
00100000
00010000
00100000
00010000
,
00000000
00000000
00100000
00000000
00001000
00000000
00010000
00001000
00000000
00010000
00000100
00000000
00001000
00000000
00001000
00000100
,
00000000
00010000
00000100
00010000
00000000
00001000
01000000
00001000
00000000
01000000
00010000
10000000
00000000
10000000
00010000
00100000
,
00000000
00000000
01000000
00000000
00010000
00000000
10000000
00010000
00000000
00000000
00100000
00000000
00001000
00000000
00010000
00001000
,
00000000
00000000
00010000
00000000
00000100
00010000
00000000
00000100
00001000
00000000
00000100
00010000
00000000
00000100
00000000
00001000
,
00000000
00000000
00000010
00000000
00000100
00000000
00000001
00001000
00000000
00000000
00000010
00000000
00000100
00000000
00000010
00001000
,
00000000
00000000
00000100
00000000
00010000
00000100
00000000
00010000
00001000
00000000
00010000
00000100
00000000
00010000
00000000
00001000
,
00000000
00000000
01000000
00000000
00010000
00000000
10000000
00100000
00000000
00000000
10000000
00000000
01000000
00000000
10000000
00100000
,
00000000
00000000
01000000
00000000
00010000
01000000
00000000
00010000
00100000
00000000
00010000
10000000
00000000
01000000
00000000
10010000
,
00000000
00000000
00100000
00000000
00001000
00000000
00010000
00000000
00000100
00000000
00001000
00000001
00000000
00000100
00000000
00000010
,
00000000
00000000
00010000
00001000
00010000
00001000
00010000
00001000
00010000
00001000
00010000
00000000
00000000
00000000
00000000
00001000
,
00000000
01000000
00010000
01000000
00100000
01000000
00010000
00100000
00000000
00001000
00010000
00001000
00010000
00000100
00001000
00000010
,
00000000
00000000
00000001
00000000
00000000
00000100
00000000
00000010
00000000
00000000
00001000
00000000
00000000
00000100
00000000
00010000
,
00000000
00000000
00001000
00000000
00000000
01000000
00000000
00010000
00000000
00000000
10000000
00000000
00000000
00010000
00000000
00100000
,
00000000
00000000
00001000
00000000
00000000
00010000
00000000
00000010
00000000
00000000
00001000
00000000
00000000
00000100
00000000
00000010
,
00000000
00000000
00000001
00000000
00000000
00001000
00000000
00002200
00000000
00000000
00000000
00003300
00000000
00000000
00000000
00200000
,
00000000
00000000
00320000
00000000
00000000
01030000
00000000
20020000
00000000
00000000
00000000
00000000
00000000
00000000
00000000
00000000
,
00000000
00000000
00000000
00000000
,
00000000
00000000
00000000
00000000
00000000
00000000
00000000
00000000
30030000
00000000
00000000
00000000
00000000
00000000
10000000
01000000
,
00100000
00000000
00000000
00000000
00000000
00000000
00000000
00000000
00000000
00000000
00010000
01000000
00010000
00100000
00010000
01000000
,
00010000
00000000
00000000
00000000
00000000
00000000
00000000
00000000
00000000
00000000
10000000
00100000
01000000
00100000
10000000
00000000
,
00010000
00100000
00010000
00100000
00000000
00000000
00001000
00010000
00001000
00010000
00000000
00000000
00000010
00001000
00000010
00001000
,
00000002
00000000
00000000
00000203
00000000
00000000
00002300
00000000
00000000
00003200
00000000
00000000
00010300
00000000
00001000
00000000
,
01000000
00010000
01000000
00100000
10000000
00100000
01000000
00001000
,
00010000
00000100
00010000
00000100
00001000
00000001
00001000
00000100
,
00020000
00000000
00000000
00032000
00000000
00000000
02003000
00000000
00000000
03020000
00000000
00000000
10030000
00000000
00010000
00000000
,
00200000
00000000
00000000
00000000
00300000
00000000
00001000
00010000
00002000
00000000
00000000
00000000
00003000
00000000
00010000
00000100
,
00020000
00000000
00000000
00000000
00030000
00000000
00000010
00001000
00000020
00000000
00000000
00000000
00000030
00000000
00000100
00000001
,
00002000
00000000
00000000
00000000
00003000
00000000
00000100
00000001
00002000
00000000
00000000
00000000
00003000
00000000
00000010
00001000
,
00000100
00010000
00001000
01000000
00100000
10000000
00100000
01000000
,
00020000
00000000
00000000
00000000
00030000
00000000
00000000
00000000
00000000
10000000
01000000
00100000
00010000
01000000
00100000
00000000
,
10000000
00000000
10000000
00100000
00000000
00100000
01000000
00000000
01000000
00001000
00000000
00001000
00010000
00000000
00000100
00000000
,
00002000
00000000
00003002
00000000
00000103
00000010
00001000
00000100
,
00000010
00000000
00000000
00000010
00000001
00000000
00000100
00000000
00000010
00001000
00000100
00001000
00000010
00000000
00001000
00000000
,
00000100
00000000
00000000
00000100
00010000
00000000
00001000
00000000
00100000
00001000
00100000
00010000
00100000
00000000
00010000
00000000
,
01000000
00000000
00000000
01000000
00010000
00000000
10000000
00000000
00100000
01000000
10000000
01000000
00100000
00000000
01000000
00000000
,
00010000
00000000
00000000
00100000
00010000
00000000
00100000
00000000
00001000
00010000
00000100
00010000
00001000
00000000
00010000
00000000
,
00000100
00000000
00000000
00001000
00000100
00000000
00001000
00000000
00000001
00000100
00000010
00000100
00000001
00000100
00000001
00000000
,
00001000
00000000
00000000
00000100
00001000
00000000
00000100
00000000
00010000
00000100
00001000
00000100
00010000
00000100
00010000
00000000
,
00001000
00000000
00001000
01000000
00000000
01000000
00010000
00000000
00010000
10000000
00000000
10000000
00000000
00000000
00100000
00000000
,
00100000
01000000
00000000
01000000
00001000
00000000
00001000
00010000
00000000
00010000
00000100
00000000
00002000
00000000
00000000
00000000
,
00003020
00000000
00000000
00000000
00000030
00000000
00000000
00000000
00000001
00000010
00000001
00000100
00000001
00001000
00000001
00000000
,
00001000
00000000
00000100
00000000
00010000
00000000
00000100
00000000
00010000
00000000
00001000
00100000
00001000
00010000
00001000
00100000
,
00001000
00000000
00100000
00000000
00010000
00000000
01000000
00000000
00100000
10000000
01000000
10000000
00100000
01000000
00010000
00000000
,
00100000
00000000
00001000
00000000
00010000
00000000
00000010
00000000
00001000
00000000
00000100
00001000
00000001
00001000
00000100
00000000
,
00020000
00000000
00000000
00000000
,
00000000
00000000
00000000
00000000
,
00000000
00000000
00000000
00000000
,
00000000
00000000
00000000
00000000
00000000
00000000
00000000
00030000
;

//---------------dance-double - ----------------
#NOTES:
     dance-double:
     :
     Medium:
     12:
     0.434531,0.572663,0.389768,0.236918,0.427981,398.000000,347.000000,51.000000,31.000000,0.000000,0.000000,0.434531,0.572663,0.389768,0.236918,0.427981,398.000000,347.000000,51.000000,31.000000,0.000000,0.000000:
00000000
00000000
00000000
00000000
,
00000000
00000000
00000000
00000000
,
00000000
00000000
00000000
00000000
,
00000000
00000000
00000000
00000000
,
00000000
00000000
00000000
00000000
,
00020000
00000000
00000000
00001000
00032000
00000000
00000000
00000100
,
00003200
00000000
00000000
00000010
00000320
00000000
00000000
00001000
,
00002030
00003200
00020300
00032000
,
02003000
00000000
00000000
00000000
,
00000000
00000000
00000000
03000000
00000000
00000000
00000000
00000000
00000000
10000000
00010000
10000000
,
00010000
00000000
00000000
00000000
00010000
10000000
00010000
00000000
00000000
00100000
00000000
00000000
,
00001000
00010000
00001000
00010000
00000000
00000000
00000000
00000000
00000000
00010000
00001000
00010000
,
00001000
00000000
00000000
00000000
00010000
00000100
00010000
00000000
00000000
00000100
00000000
00000000
,
00001000
00000001
00001000
00000001
00000000
00000000
00000000
00000000
00000000
00000000
00000000
00000000
,
00000101
00000000
00000000
00001001
00000000
00000000
00001100
00000000
00000000
00001100
00000000
00000000
00000000
00000000
00010100
00000000
,
00000000
00011000
00000000
00000000
00010100
00000000
00000000
00011000
00000000
00000000
00000000
00000000
00001000
00000000
00100000
00000000
,
00000000
00010000
00000000
01000000
00000000
00000000
00100000
00000000
10000000
00000000
00000000
00010000
00000000
01000000
00010000
00000000
,
00000000
10010000
00000000
00000000
01010000
00000000
00000000
10010000
00000000
00000000
00000000
00000000
00011000
00000000
00000000
00010100
,
00000000
00000000
00010010
00000000
00000000
00001010
00000000
00000000
00000000
00000000
00001000
00000000
00000001
00000000
00000000
00001000
,
00000000
00000001
00000000
00000000
00001000
00000000
00000100
00000000
00000000
00010000
00000000
00001000
00000000
00000000
00100000
00000000
,
00010000
00000000
00000000
10000000
00000000
01000000
00000000
00000000
00100000
00000000
00000000
00110000
00000000
00000000
00101000
00000000
,
00000000
00000000
00000000
00110000
00000000
00000000
00000000
00000000
00000000
00000000
00000000
00000000
01010000
00000000
00000000
00000000
00000000
00000000
00000000
00000000
00000000
10010000
00000000
00000000
00000000
00000000
00000000
00000000
00000000
00000000
00000000
00000000
00100000
00000000
00000000
00000000
01000000
00000000
00000000
00000000
00100000
00000000
00000000
00000000
00000000
00000000
00000000
00000000
,
20020000
00000000
00000000
00000000
00000000
00000000
00000000
00000000
00000000
00000000
00000000
00000000
30030000
00000000
00000000
00001000
,
00000000
00011000
00000000
00000000
00000000
00000000
00000000
00000000
00000000
00000000
00000000
00000000
00000000
00000000
00000000
00000010
,
00000000
00000000
00000001
00000000
00000100
00000000
00000000
00000010
00000000
00000000
00001000
00000000
00000100
00000000
00000000
00001000
,
00000000
00000000
00000100
00000000
00000000
00010000
00000000
00000000
00001000
00000000
00000000
01000000
00000000
00000000
00000000
00100000
,
00000000
00000000
10000000
00000000
01000000
00000000
00000000
00100000
00000000
00000000
00010000
00000000
01000000
00000000
00000000
00100000
,
00000000
00000000
00001000
00000000
00000000
00010000
00000000
00000000
00000100
00000000
00000000
00001000
00000000
00000000
00000000
00000001
,
00000000
00000000
00001000
00000000
00000100
00000000
00000000
00010000
00000000
00000000
00001000
00000000
01000000
00000000
00000000
00010000
,
00000000
00000000
10000000
00000000
00000000
01000000
00000000
00000000
00100000
00000000
00000000
00001000
00000000
00000000
00000000
00010000
,
00000000
00000100
00001000
00000001
00000100
00000010
00001000
00000100
,
00010000
00000000
00001000
00000000
00000000
00100000
00000000
00000000
00010000
00000000
00000000
01000000
00000000
00000000
00000000
00100000
,
00000000
00000000
00000000
10010000
00000000
00000000
00000000
01010000
00000000
00000000
00000000
00101000
00000000
00000000
00000000
00010100
,
00000000
00000000
00000100
00000000
00001000
00000000
00000000
00000001
00000000
00000000
00000100
00000000
00001000
00000000
00000000
00001100
,
00000000
00000000
00010100
00000000
00000000
00001100
00000000
00000000
00010100
00000000
00000000
00010100
00000000
00000000
00000000
00101000
,
00000000
00000000
00001000
00000000
01000000
00000000
00000000
00010000
00000000
00000000
10000000
00000000
00100000
00000000
00000000
01010000
,
00000000
00000000
10010000
00000000
00000000
00110000
00000000
00000000
01010000
00000000
00000000
10010000
00000000
00000000
00000000
01000000
,
00000000
00000000
00001000
00000000
00010000
00000000
00000000
00000100
00000000
00000000
00010000
00000000
00001000
00000000
00000000
01000000
,
00000000
00000000
10100000
00000000
00000000
10010000
00000000
00000000
11000000
00000000
00000000
10010000
00000000
00000000
00000000
10000000
,
00000000
00000000
00100000
00000000
10000000
00000000
00010000
00000000
10000000
00000000
00100000
00000000
01000000
00000000
00000000
00001000
,
00000000
00000000
00022000
00000000
00000000
00000000
00000000
00000000
00000000
00000000
00033000
00000000
00000000
00000000
00000000
00001100
,
00000000
00000000
00000000
00000000
00000000
00000000
00000000
00110000
00000000
00000000
00000000
00000000
00000000
00000000
00000000
10000000
,
00000000
00000000
10000000
00000000
00000000
00000000
00000000
00010000
00000000
00000000
00010000
00000000
00000000
00000000
00000000
00001000
,
00000000
00000000
00001000
00000000
00000000
00000000
00000000
00000001
00000000
00000000
00000001
00000000
00000000
00000000
00000000
00000100
,
00000000
00000000
00000100
00000000
00000000
00000000
00000000
00010000
00000000
00000000
00010000
00000000
00000000
00000000
00000000
01000000
,
00000000
00000000
00100000
00000000
00000000
10000000
00000000
00010000
00000000
00000000
00000000
00000000
00000000
00000000
00000000
00100000
,
00000000
00000000
00001000
00000000
00000000
00010000
00000000
00000200
00000000
00000000
00000000
00000000
00000000
00000000
00000000
00000000
,
00000000
00000000
00000000
00000000
,
00000000
00000000
00000000
00000000
00000000
00000000
00000000
00000300
00000000
00000000
00000000
00000000
00000000
00000000
00000000
00000000
,
00002002
00000000
00000000
00000000
00003003
00000000
00000010
00001000
,
00000200
00000000
00000300
00000000
00010000
00001000
00010000
00001000
,
01000000
00000000
00010000
10000000
00000000
00010000
00100000
00000000
,
00001000
00000000
00000000
00010000
00000000
00000000
00000010
00000000
00000000
00001000
00000000
00000000
00000001
00000000
00000000
00000000
,
00000100
00000010
00000100
00000001
00001000
00000001
00000100
00000010
,
00000100
00000001
00000010
00000100
00001000
00000100
00010000
00001000
,
01000000
00000000
00000000
10010000
00000000
00000000
00100000
00000000
00000000
10010000
00000000
00000000
01000000
00000000
00010000
00000000
,
20000000
00000000
00000000
00000000
30000000
00000000
00010000
01000000
00020000
00000000
00000000
00000000
00030000
00000000
00100000
00001000
,
00200000
00000000
00000000
00000000
00300000
00000000
00001000
00010000
00002000
00000000
00000000
00000000
00003000
00000000
00010000
00000100
,
00020000
00000000
00000000
00000000
00030000
00000000
00000010
00001000
00000020
00000000
00000000
00000000
00000030
00000000
00000100
00000001
,
00001000
00000010
00001000
00000100
00010000
00001000
01000000
00010000
,
20000000
00000000
30000000
00000000
00000000
00010000
00100000
01000000
,
10000000
00000000
00000000
00100000
00000000
00000000
00001000
00000000
00000000
00000010
00000000
00000000
00000001
00000000
00000100
00000000
,
00002000
00000000
00000000
00000000
00000000
00003100
00010000
00001000
,
00010000
00000000
00000000
00010000
00001000
00000000
00000000
00000000
00000000
00000000
00100000
00000000
00010000
00000000
01000000
00000000
,
00100000
00000000
00000000
00100000
01000000
00000000
00000000
00000000
00000000
00000000
01000000
00000000
00001000
00000000
00010000
00000000
,
00001000
00000000
00000000
00001000
00010000
00000000
00000000
00000000
00000000
00000000
00010000
00000000
00000100
00000000
00001000
00000000
,
00000010
00000000
00000000
00000010
00001000
00000000
00000000
00000000
00000000
00000000
00000001
00000000
00000100
00000000
00000010
00000000
,
00001000
00000000
00000000
00001000
00000100
00000000
00000000
00000000
00000000
00000000
00001000
00000000
00000100
00000000
00010000
00000000
,
00001000
00000000
00000000
00001000
00010000
00000000
00000000
00000000
00000000
00000000
00010000
00000000
00100000
00000000
00010000
00000000
,
01000000
00000000
00000000
01010000
00000000
00000000
00010000
00000000
00000000
00011000
00000000
00000000
00000000
00000000
00000100
00000000
,
00000000
00001100
00000000
00000000
00001000
00000000
00000000
00011000
00000000
00000000
00100000
00000000
00020000
00000000
00000000
00000000
,
01030000
00000000
00000000
00000000
10000000
01000000
00100000
00020000
,
00000000
00000000
01000000
00000000
01030000
00010000
01000000
00001000
,
00020000
00000000
00000100
00000000
00030100
00001000
00000010
00000200
,
00000000
00000000
00000001
00000000
00000301
00001000
00000100
00020000
,
00002000
00000000
00000000
00000000
,
00000000
00000000
00000000
00000000
,
00000000
00000000
00000000
00000000
,
00000000
00000000
00000000
00000000
00000000
00000000
00000000
00033000
;

//---------------dance-double - ----------------
#NOTES:
     dance-double:
     :
     Easy:
     7:
     0.292599,0.452102,0.244560,0.305701,0.191063,268.000000,236.000000,32.000000,40.000000,0.000000,0.000000,0.292599,0.452102,0.244560,0.305701,0.191063,268.000000,236.000000,32.000000,40.000000,0.000000,0.000000:
00000000
00000000
00000000
00000000
,
00000000
00000000
00000000
00000000
,
00000000
00000000
00000000
00000000
,
00000000
00000000
00000000
00000000
,
00000000
00000000
00000000
00000000
,
00200000
00300000
00020000
00030000
,
00002000
00003000
00000200
00000300
,
00000001
00000010
00000100
00010000
,
00002000
00000000
00000000
00000000
,
00003000
00000000
00000000
00011000
,
00011000
00000000
00000000
00000000
00001000
00010000
00001000
00000000
00000000
00011000
00000000
00000000
,
00011000
00011000
00000000
10010000
,
10010000
00000000
00000000
00000000
10000000
00010000
10000000
00000000
00000000
10010000
00000000
00000000
,
10010000
10010000
00000000
00000000
,
10000000
00000000
00000000
01000000
00000000
00000000
00100000
00000000
00000000
00010000
00000000
00000000
00000000
00000000
00100000
00000000
,
00000000
00001000
00000000
00000000
00010000
00000000
00000000
00000100
00000000
00000000
00000000
00000000
00000100
00000000
00000000
00000000
,
00000000
00000010
00000000
00000000
00000000
00000000
00010000
00000000
00000000
00000000
00000000
00001000
00000000
00000000
00010000
00000000
,
00000000
00100000
00000000
00000000
00010000
00000000
00000000
01000000
00000000
00000000
00000000
00000000
10000000
00000000
00000000
00100000
,
00000000
00000000
01000000
00000000
00000000
00010000
00000000
00000000
00000000
00000000
10000000
00000000
00000000
00000000
00000000
00100000
,
00000000
00000000
00000000
00000000
00001000
00000000
00000000
00000000
00000000
00000010
00000000
00000000
00000000
00000000
00000100
00000000
,
00000000
00000000
00000000
00010000
00000000
00000000
00000000
00000000
01000000
00000000
00000000
00100000
00000000
00000000
01000000
00000000
,
00000000
00000000
00000000
00100000
00000000
00000000
00000000
00000000
00000000
00000000
00000000
00000000
01000000
00000000
00000000
00000000
00000000
00000000
00000000
00000000
00000000
00100000
00000000
00000000
00000000
00000000
00000000
00000000
00000000
00000000
00000000
00000000
01000000
00000000
00000000
00000000
00100000
00000000
00000000
00000000
01000000
00000000
00000000
00000000
00000000
00000000
00000000
00000000
,
02000000
00000000
00000000
00000000
00000000
00000000
00000000
00000000
03000000
00000000
00000000
00000000
00000000
00000000
00000000
00010000
,
00000000
10010000
00000000
00000000
00000000
00000000
00000000
00000000
00000000
00000000
00000000
00000000
00000000
00000000
00000000
00000000
,
00100000
10100000
00100000
00110000
,
00000000
00000000
01000000
00000000
00000000
01000000
00000000
00000000
01000000
00000000
00000000
01000000
00000000
00000000
00000000
00000000
,
00001000
00101000
00001000
00011000
,
00000000
00000000
00010000
00000000
00000000
00010000
00000000
00000000
00010000
00000000
00000000
00000100
00000000
00000000
00000000
00000000
,
00001000
00001001
00001000
00001100
,
00000000
00000000
00000100
00000000
00000000
00000100
00000000
00000000
00000100
00000000
00000000
00010000
00000000
00000000
00000000
00000000
,
00000000
00011000
00000000
00100000
,
00010000
00000000
01000000
00000000
10000000
00100000
01000000
00000000
,
00010000
00100000
01000000
10000000
,
00020000
00030000
00200000
00300000
,
00000000
00000000
00001000
00000000
00000000
00001000
00000000
00000000
00001000
00000000
00000000
00001000
00000000
00000000
00000000
00000000
,
00010000
00000100
00001000
00000001
,
00000000
00000000
00000010
00000000
00000000
00000010
00000000
00000000
00000010
00000000
00000000
00000010
00000000
00000000
00000000
00000000
,
00000001
00001000
00000100
00010000
,
00000000
00000000
00001000
00000000
00000000
00001000
00000000
00000000
00001000
00000000
00000000
00001000
00000000
00000000
00000000
00000000
,
00100000
00010000
01000000
10000000
,
00200000
00020000
00000000
00330000
,
00101000
00000000
00000000
00000000
00000000
00000000
00000000
00000000
00011000
00000000
00000000
00000000
00000000
00000000
00000000
00000010
,
00000000
00000000
00000010
00000000
00000000
00000000
00000000
00010000
00000000
00000000
00010000
00000000
00000000
00000000
00000000
00001000
,
00000000
00000000
00001000
00000000
00000000
00000000
00000000
01000000
00000000
00000000
01000000
00000000
00000000
00000000
00000000
00100000
,
00000000
00000000
00100000
00000000
00000000
00000000
00000000
10000000
00000000
00000000
10000000
00000000
00000000
00000000
00000000
00010000
,
00000000
00000000
00010000
00000000
00000000
00000000
00000000
10010000
00000000
00000000
00000000
00000000
00000000
00000000
00000000
00100000
,
00000000
00000000
00010000
00000000
00000000
01000000
00000000
20000000
00000000
00000000
00000000
00000000
00000000
00000000
00000000
00000000
,
00000000
00000000
00000000
00000000
,
00000000
00000000
00000000
00000000
,
30010000
00000000
00000000
00000000
00000000
00010000
10000000
00010000
,
10000000
00000000
00000000
00000000
00000000
00010000
00100000
00010000
,
00100000
00000000
00000000
00001000
00000000
00000000
00010000
00000000
,
00000100
00000000
00000000
00000100
00000000
00000000
00000100
00000000
00000000
00000000
00000000
00000000
00010000
00000000
00000000
00000000
,
00001000
00000000
00000000
00010000
00000000
00000000
00100000
00000000
,
00000000
01000000
00000000
00000000
10000000
00010000
10000000
00000000
,
00020000
00000000
00000000
20030000
00000000
00000000
30100000
00000000
,
00200000
00000000
00300000
00100000
02000000
00000000
03000000
01000000
,
00002000
00000000
00003000
00001000
00020000
00000000
00030000
00010000
,
00000200
00000000
00000300
00000100
00002000
00000000
00003000
00001000
,
00000001
00000100
00001000
00010000
,
02000000
00000000
03000000
00000000
00000000
00010000
01000000
00000000
,
10000000
00000000
00000000
00010000
00000000
00000000
10000000
00000000
00000000
00010000
00000000
00000000
10000000
00000000
00000000
00000000
,
02000000
03000000
00000000
00000000
,
00100000
20020000
30030000
00100000
,
00001000
00022000
00033000
00010000
,
00000100
00002020
00003030
00000001
,
00001000
00002200
00003300
00010000
,
00001000
00202000
00303000
00010000
,
01000000
02020000
03030000
00100000
,
10010000
00000000
00000000
10010000
00000000
00000000
00000000
10010000
,
00000000
00000000
10010000
00000000
00000000
01000000
00200000
00000000
,
20300000
00000000
30000000
00000000
00010000
00000000
01000000
00020000
,
00000000
00130000
00001000
00010000
,
00000200
00000000
00000000
00000000
00010300
00000000
00001000
00200000
,
00000000
00310000
01000000
10000000
,
20020000
00000000
00000000
00000000
,
00000000
00000000
00000000
00000000
,
00000000
00000000
00000000
00000000
,
00000000
00000000
00000000
00000000
00000000
00000000
00000000
30030000
;

//---------------dance-single - ----------------
#NOTES:
     dance-single:
     :
     Medium:
     12:
     0.434531,0.572663,0.389768,0.236918,0.427981,398.000000,347.000000,51.000000,31.000000,0.000000,0.000000,0.434531,0.572663,0.389768,0.236918,0.427981,398.000000,347.000000,51.000000,31.000000,0.000000,0.000000:
0000
0000
0000
0000
,
0000
0000
0000
0000
,
0000
0000
0000
0000
,
0000
0000
0000
0000
,
0000
0000
0000
0000
,
0002
0000
0000
1000
2003
0000
0000
0100
,
3200
0000
0000
0010
0320
0000
0000
1000
,
2030
3200
0302
2003
,
3200
0000
0000
0000
,
0000
0000
0000
0300
0000
0000
0000
0000
0000
1000
0001
1000
,
0001
0000
0000
0000
0001
1000
0001
0000
0000
0010
0000
0000
,
1000
0001
1000
0001
0000
0000
0000
0000
0000
0001
1000
0001
,
1000
0000
0000
0000
0001
0100
0001
0000
0000
0100
0000
0000
,
1000
0001
1000
0001
0000
0000
0000
0000
0000
0000
0000
0000
,
0101
0000
0000
1001
0000
0000
1100
0000
0000
1100
0000
0000
0000
0000
0101
0000
,
0000
1001
0000
0000
0101
0000
0000
1001
0000
0000
0000
0000
1000
0000
0010
0000
,
0000
0001
0000
0100
0000
0000
0010
0000
1000
0000
0000
0001
0000
0100
0001
0000
,
0000
1001
0000
0000
0101
0000
0000
1001
0000
0000
0000
0000
1001
0000
0000
0101
,
0000
0000
0011
0000
0000
1010
0000
0000
0000
0000
1000
0000
0001
0000
0000
1000
,
0000
0001
0000
0000
1000
0000
0100
0000
0000
0001
0000
1000
0000
0000
0010
0000
,
0001
0000
0000
1000
0000
0100
0000
0000
0010
0000
0000
0011
0000
0000
1010
0000
,
0000
0000
0000
0011
0000
0000
0000
0000
0000
0000
0000
0000
0101
0000
0000
0000
0000
0000
0000
0000
0000
1001
0000
0000
0000
0000
0000
0000
0000
0000
0000
0000
0010
0000
0000
0000
0100
0000
0000
0000
0010
0000
0000
0000
0000
0000
0000
0000
,
2002
0000
0000
0000
0000
0000
0000
0000
0000
0000
0000
0000
3003
0000
0000
0100
,
0000
0101
0000
0000
0000
0000
0000
0000
0000
0000
0000
0000
0000
0000
0000
0010
,
0000
0000
0001
0000
0100
0000
0000
0010
0000
0000
0100
0000
1000
0000
0000
0100
,
0000
0000
1000
0000
0000
0001
0000
0000
0100
0000
0000
0010
0000
0000
0000
0010
,
0000
0000
1000
0000
0010
0000
0000
0001
0000
0000
0100
0000
0010
0000
0000
0001
,
0000
0000
0100
0000
0000
1000
0000
0000
0010
0000
0000
0100
0000
0000
0000
0001
,
0000
0000
0100
0000
0010
0000
0000
1000
0000
0000
0100
0000
0010
0000
0000
1000
,
0000
0000
0001
0000
0000
0010
0000
0000
0001
0000
0000
0100
0000
0000
0000
1000
,
0000
0010
0100
0001
0010
1000
0100
0010
,
1000
0000
0100
0000
0000
0001
0000
0000
1000
0000
0000
0010
0000
0000
0000
0001
,
0000
0000
0000
1001
0000
0000
0000
1010
0000
0000
0000
0101
0000
0000
0000
1010
,
0000
0000
0010
0000
0100
0000
0000
0001
0000
0000
0010
0000
0100
0000
0000
0110
,
0000
0000
1010
0000
0000
0110
0000
0000
1010
0000
0000
1010
0000
0000
0000
0101
,
0000
0000
0100
0000
0010
0000
0000
1000
0000
0000
0001
0000
0100
0000
0000
1010
,
0000
0000
1001
0000
0000
1100
0000
0000
1010
0000
0000
1001
0000
0000
0000
0010
,
0000
0000
0100
0000
1000
0000
0000
0010
0000
0000
1000
0000
0100
0000
0000
0010
,
0000
0000
0101
0000
0000
1001
0000
0000
0011
0000
0000
1001
0000
0000
0000
0001
,
0000
0000
0100
0000
0001
0000
1000
0000
0001
0000
0100
0000
0010
0000
0000
0100
,
0000
0000
2200
0000
0000
0000
0000
0000
0000
0000
3300
0000
0000
0000
0000
0110
,
0000
0000
0000
0000
0000
0000
0000
1100
0000
0000
0000
0000
0000
0000
0000
0001
,
0000
0000
0001
0000
0000
0000
0000
1000
0000
0000
1000
0000
0000
0000
0000
0100
,
0000
0000
0100
0000
0000
0000
0000
0001
0000
0000
0001
0000
0000
0000
0000
0010
,
0000
0000
0010
0000
0000
0000
0000
1000
0000
0000
1000
0000
0000
0000
0000
0010
,
0000
0000
0100
0000
0000
0001
0000
1000
0000
0000
0000
0000
0000
0000
0000
0100
,
0000
0000
0010
0000
0000
1000
0000
0020
0000
0000
0000
0000
0000
0000
0000
0000
,
0000
0000
0000
0000
,
0000
0000
0000
0000
0000
0000
0000
0030
0000
0000
0000
0000
0000
0000
0000
0000
,
0022
0000
0000
0000
0033
0000
1000
0010
,
0200
0000
0300
0000
1000
0010
1000
0010
,
0001
0000
1000
0001
0000
1000
0100
0000
,
0010
0000
0000
1000
0000
0000
0001
0000
0000
0010
0000
0000
0001
0000
0000
0000
,
0100
0001
0100
0001
0010
0001
0100
0001
,
0100
0001
1000
0100
0010
0100
1000
0010
,
0001
0000
0000
1100
0000
0000
0010
0000
0000
1100
0000
0000
0001
0000
1000
0000
,
0200
0000
0000
0000
0300
0000
1000
0001
2000
0000
0000
0000
3000
0000
0010
0100
,
0020
0000
0000
0000
0030
0000
0100
1000
0200
0000
0000
0000
0300
0000
1000
0001
,
2000
0000
0000
0000
3000
0000
0010
0100
0020
0000
0000
0000
0030
0000
0001
1000
,
0100
0010
0100
0001
1000
0100
0001
1000
,
0200
0000
0300
0000
0000
1000
0010
0001
,
0100
0000
0000
0010
0000
0000
0100
0000
0000
0010
0000
0000
1000
0000
0001
0000
,
0200
0000
0000
0000
0000
0301
1000
0100
,
1000
0000
0000
1000
0100
0000
0000
0000
0000
0000
0010
0000
1000
0000
0001
0000
,
0010
0000
0000
0010
0001
0000
0000
0000
0000
0000
0001
0000
0100
0000
1000
0000
,
0100
0000
0000
0100
1000
0000
0000
0000
0000
0000
1000
0000
0001
0000
0100
0000
,
0010
0000
0000
0010
0100
0000
0000
0000
0000
0000
1000
0000
0001
0000
0010
0000
,
0100
0000
0000
0100
0001
0000
0000
0000
0000
0000
0100
0000
0001
0000
1000
0000
,
0100
0000
0000
0100
1000
0000
0000
0000
0000
0000
1000
0000
0010
0000
1000
0000
,
0001
0000
0000
1001
0000
0000
1000
0000
0000
1100
0000
0000
0000
0000
0001
0000
,
0000
0101
0000
0000
0100
0000
0000
1100
0000
0000
0010
0000
2000
0000
0000
0000
,
3001
0000
0000
0000
0100
0001
0010
2000
,
0000
0000
0001
0000
3001
1000
0001
0100
,
2000
0000
0001
0000
3001
0100
0010
0002
,
0000
0000
1000
0000
1003
0100
0001
2000
,
0200
0000
0000
0000
,
0000
0000
0000
0000
,
0000
0000
0000
0000
,
0000
0000
0000
0000
0000
0000
0000
3300
;

//---------------dance-single - ----------------
#NOTES:
     dance-single:
     :
     Easy:
     8:
     0.329720,0.452102,0.298058,0.305701,0.198705,302.000000,263.000000,39.000000,40.000000,0.000000,0.000000,0.329720,0.452102,0.298058,0.305701,0.198705,302.000000,263.000000,39.000000,40.000000,0.000000,0.000000:
0000
0000
0000
0000
,
0000
0000
0000
0000
,
0000
0000
0000
0000
,
0000
0000
0000
0000
,
0000
0000
0000
0000
,
0020
0000
0030
0010
0002
0000
0003
0001
,
2000
0000
3000
1000
0200
0000
0300
0100
,
0001
0010
0100
1000
,
2000
0000
0000
0000
,
3000
0000
0000
1001
,
1001
0000
0000
0000
1000
0001
1000
0000
0000
1001
0000
0000
,
1001
1001
0000
1001
,
1001
0000
0000
0000
1000
0001
1000
0000
0000
1001
0000
0000
,
1001
1001
0000
0000
,
1000
0000
0000
0100
0000
0000
0010
0000
0000
0001
0000
0000
0000
0000
0010
0000
,
0000
1000
0000
0000
0001
0000
0000
0100
0000
0000
0000
0000
0100
0000
0000
0000
,
0000
0010
0000
0000
0000
0000
0001
0000
0000
0000
0000
1000
0000
0000
0001
0000
,
0000
0010
0000
0000
0001
0000
0000
0100
0000
0000
0000
0000
1000
0000
0000
0010
,
0000
0000
0100
0000
0000
0001
0000
0000
0000
0000
1000
0000
0000
0000
0000
0010
,
0000
0000
0000
0000
1000
0000
0000
0000
0000
0010
0000
0000
0000
0000
0100
0000
,
0000
0000
0000
0001
0000
0000
0000
0000
0100
0000
0000
0010
0000
0000
0100
0000
,
0000
0000
0000
0010
0000
0000
0000
0000
0000
0000
0000
0000
0100
0000
0000
0000
0000
0000
0000
0000
0000
0010
0000
0000
0000
0000
0000
0000
0000
0000
0000
0000
0100
0000
0000
0000
0010
0000
0000
0000
0100
0000
0000
0000
0000
0000
0000
0000
,
0200
0000
0000
0000
0000
0000
0000
0000
0300
0000
0000
0000
0000
0000
0000
0001
,
0000
1001
0000
0000
0000
0000
0000
0000
0000
0000
0000
0000
0000
0000
0000
0000
,
0010
1000
0010
0000
0010
0100
0010
0000
,
0000
0000
0100
0000
0000
0100
0000
0000
0100
0000
0000
0100
0000
0000
0000
0000
,
1000
0010
1000
0000
1000
0001
1000
0000
,
0000
0000
0001
0000
0000
0001
0000
0000
0001
0000
0000
0100
0000
0000
0000
0000
,
1000
0001
1000
0000
1000
0100
1000
0000
,
0000
0000
0100
0000
0000
0100
0000
0000
0100
0000
0000
0001
0000
0000
0000
0000
,
0000
1001
0000
0010
,
0001
0000
0100
0000
1000
0010
0100
0000
,
0001
0010
0100
1000
,
2002
3003
0220
0330
,
0000
0000
1000
0000
0000
1000
0000
0000
1000
0000
0000
1000
0000
0000
0000
0000
,
0001
0101
1010
0101
,
0000
0000
0010
0000
0000
0010
0000
0000
0010
0000
0000
0010
0000
0000
0000
0000
,
0001
1000
0010
1000
0001
1000
0010
0000
,
0000
0000
1000
0000
0000
1000
0000
0000
1000
0000
0000
1000
0000
0000
0000
0000
,
0010
1000
0001
1000
0010
1000
0001
0000
,
0020
0200
0000
0330
,
1010
0000
0000
0000
0000
0000
0000
0000
1001
0000
0000
0000
0000
0000
0000
0010
,
0000
0000
0010
0000
0000
0000
0000
0001
0000
0000
0001
0000
0000
0000
0000
1000
,
0000
0000
1000
0000
0000
0000
0000
0100
0000
0000
0100
0000
0000
0000
0000
0010
,
0000
0000
0010
0000
0000
0000
0000
1000
0000
0000
1000
0000
0000
0000
0000
0001
,
0000
0000
0001
0000
0000
0000
0000
1001
0000
0000
0000
0000
0000
0000
0000
0010
,
0000
0000
0001
0000
0000
0100
0000
2000
0000
0000
0000
0000
0000
0000
0000
0000
,
0000
0000
0000
0000
,
0000
0000
0000
0000
,
3001
0000
0000
0000
0000
0001
1000
0001
,
1000
0000
0000
0000
0000
0001
0010
0001
,
0010
0000
0000
1001
0000
0000
0001
0000
,
0100
0000
0000
0100
0000
0000
0100
0000
0000
0000
0000
0000
1000
0000
0001
0000
,
0010
0000
0001
0100
0000
0100
0010
0000
,
0010
1000
0000
1000
0001
0000
1000
0001
,
1000
0000
0000
0100
0000
0000
0001
0000
0000
0010
0000
0000
0010
0000
0000
0000
,
0020
0000
0030
0010
0200
0000
0300
0100
,
2000
0000
3000
1000
0002
0000
0003
0001
,
0200
0000
0300
0100
2000
0000
3000
1000
,
0001
0101
1000
1001
,
0200
0000
0300
0000
0000
0001
0100
0000
,
1000
0000
0000
0001
0000
0000
1000
0000
0000
0001
0000
0000
1000
0000
0000
0000
,
0200
0000
0300
0000
0010
1000
0010
1000
,
0010
2002
3003
0110
,
1000
2002
3003
0101
,
0100
2020
3030
1001
,
1000
2200
3300
0101
,
1000
2020
3030
1001
,
0100
0202
0303
0010
,
1001
0000
0000
1001
0000
0000
0000
1001
,
0000
0000
1001
0000
0000
0100
0020
0000
,
2030
0000
3000
0000
0001
0000
0100
0002
,
0000
0013
1000
0001
,
0200
0000
0000
0000
0301
0000
1000
0020
,
0000
0031
0100
1000
,
2002
0000
0000
0000
,
0000
0000
0000
0000
,
0000
0000
0000
0000
,
0000
0000
0000
0000
0000
0000
0000
3003
;

//---------------dance-double - ----------------
#NOTES:
     dance-double:
     :
     Challenge:
     17:
     0.764251,0.904205,0.244560,0.168135,1.180768,700.000000,668.000000,32.000000,22.000000,0.000000,0.000000,0.764251,0.904205,0.244560,0.168135,1.180768,700.000000,668.000000,32.000000,22.000000,0.000000,0.000000:
00000000
00000000
00000000
00000000
,
00000000
00000000
00000000
00000000
,
00000000
00000000
00000000
00000000
,
00000000
00000000
00000000
00000000
,
00000000
00000000
00000000
00000000
,
00200000
00000000
00000000
00000000
00300000
00000000
10000000
00010000
00200000
00000000
00000000
00000000
00300000
00000000
00001000
00010000
,
00000200
00000000
00000000
00000000
00000300
00000000
00000010
00001000
00000100
00000000
00000010
00000001
00000100
00000000
00000010
00000000
,
00001000
00000000
00000010
00001000
00000100
00000000
00010000
00000100
00010000
00000000
00001000
00100000
00010000
00000000
01000000
00000000
,
00200000
00000000
00000000
00000000
,
00300000
00000000
00000000
00000000
00000000
00000000
00000000
00000000
00000000
10000000
00010000
00100000
,
00110000
00000000
00000000
00000000
00010000
00100000
00001000
00000000
00000000
00001000
00010000
00000100
,
00001000
00000001
00000100
00000110
00000000
00000000
00000000
00000000
00000000
00000010
00001000
00000100
,
00010000
00000000
00000000
00000000
00001000
01000000
00100000
00000000
00000000
10000000
00010000
00100000
,
00001000
00010000
00000010
00001000
00000000
00000000
00000000
00000000
00000000
00000000
00000000
00000000
,
00000001
00000100
00000010
00001000
00000010
00000100
00000001
00000100
00000010
00001000
00000100
00001000
00000000
00000000
00000100
00010000
,
00001000
00010000
00001000
01000000
00010000
01000000
00010000
10000000
00100000
10000000
00100000
10000000
01000000
00000000
11000000
00000000
,
00000000
00100000
00000000
00101000
00000000
00000000
00010000
00000000
00010100
00000000
00000000
00000010
00000000
00001000
00000100
00000010
,
00000001
00001000
00000100
00001000
00000010
00001000
00000100
00000010
00000001
00001000
00000000
00000000
00000100
00001000
00000100
00010000
,
00000100
00010000
00001000
01000000
00001000
01000000
00010000
10000000
00100000
01000000
00010000
00000000
01010000
00000000
00000000
00100000
,
00000000
00101000
00000000
00000000
00011000
00000000
00010000
00000000
00000000
00001010
00000000
00001000
00000000
00000000
00000101
00000000
,
00000001
00000000
00000000
00001100
00000000
00001000
00000000
00000000
00001010
00000000
00000000
00011000
00000000
00000000
00110000
00000000
,
00000000
00000000
00000000
11000000
00000000
00000000
00000000
00000000
00000000
00000000
00000000
00000000
01010000
00000000
00000000
00000000
00000000
00000000
00000000
00000000
00000000
00011000
00000000
00000000
00000000
00000000
00000000
00000000
00000000
00000000
00001000
00000000
00000000
00000000
00000100
00000000
00000000
00000000
00000000
00000001
00000000
00000000
00000000
00000000
00000000
00000000
00000000
00000000
,
00002002
00000000
00000000
00000000
00000000
00000000
00000000
00000000
00000000
00000000
00000000
00000000
00003003
00000000
00000000
00010000
,
00000000
20020000
00000000
00000000
00000000
00000000
00000000
00000000
00000000
00000000
00000000
00000000
30030000
00000000
00000000
00100000
,
00000000
10000000
00100000
10000000
00100000
01000000
00100000
01000000
00000000
00010000
01000000
00100000
01000000
00100000
01000000
00010000
,
00000000
00100000
00001000
00000000
00010000
00001000
00000000
00100000
00001000
00000000
00010000
00001000
00000000
00010000
00000100
00001000
,
00000000
00000010
00001000
00000100
00001000
00000010
00001000
00000010
00000000
00000100
00000001
00000100
00000010
00000100
00000001
00000100
,
00000000
00000000
00000010
00000000
00001000
00000010
00000000
00001000
00000001
00000000
00001000
00000100
00000000
00001000
00000010
00000100
,
00000000
00000001
00001000
00000001
00000100
00000010
00001000
00000100
00000000
00010000
00000100
00010000
00001000
00010000
00000100
00010000
,
00000000
00001000
01000000
00000000
00001000
00010000
00000000
00001000
01000000
00000000
00001000
00010000
00000000
00001000
01000000
00010000
,
00000000
10000000
00010000
00000000
10000000
00000000
01000000
00000000
00100000
00000000
00001000
00000000
00010000
00000100
00010000
00001000
,
00000000
00000000
00010000
00000000
00000000
00000100
00000000
00000000
00001000
00000000
00000000
00000001
00000000
00000000
00000100
00000010
,
00000000
00001000
00000100
00000010
00000000
00010000
00000100
00001000
00000000
00000100
00010000
00001000
00000000
00100000
00010000
01000000
,
00000000
00010000
00100000
00010000
01000000
00010000
10000000
00010000
00000000
00100000
00001000
00100000
00010000
00100000
00001000
00010000
,
00000000
00000000
00000100
00000000
00001000
00000010
00000000
00001000
00000001
00000000
00001000
00000100
00000000
00001000
00000010
00000100
,
00000000
00000010
00001000
00000100
00001000
00000100
00010000
00001000
00000000
00100000
00010000
00100000
00010000
01000000
00010000
10000000
,
00000000
00010000
00100000
00000000
00010000
01000000
00000000
00010000
10000000
00000000
00010000
00100000
00000000
00010000
01000000
00100000
,
00000000
10000000
00010000
01000000
00010000
00100000
00010000
10000000
00000000
00010000
00100000
00010000
01000000
00010000
10000000
00100000
,
00000000
01000000
00001000
00000000
00010000
00001000
00000000
01000000
00001000
01000000
00010000
01000000
00001000
00010000
00001000
00010000
,
00000000
00000100
00001000
00000010
00001000
00000001
00001000
00000100
00000000
00001000
00000100
00010000
00000100
00010000
00001000
00010000
,
00000000
00000000
00100000
00001000
00100000
00001000
00100000
00001000
00100000
00001000
00100000
00000000
00000000
00000000
00000000
01010000
,
00000000
00010000
00100000
01000000
10000000
01000000
00100000
00010000
00000000
01010000
00000000
01000000
00001000
00010000
00001000
01000000
,
00000000
00000000
00000000
00000000
00000000
00000000
00110000
00000000
00000000
00000000
00000000
00000000
00000000
00000000
00000000
10000000
00000000
00000000
00000000
00010000
00000000
00100000
00000000
00000000
00000000
00000000
00000000
00000000
00000000
00000000
00011000
00000000
00000000
00000000
00000000
00000000
00000000
00000000
00000000
00010000
00000000
00000000
00000000
00010000
00000000
00000100
00000000
00000000
,
00000000
00000000
00000000
00000000
00000000
00000000
00001010
00000000
00000000
00000000
00000000
00000000
00000000
00000000
00000000
00000001
00000000
00000000
00000000
00000001
00000000
00000100
00000000
00000000
00000000
00000000
00000000
00000000
00000000
00000000
00001100
00000000
00000000
00000000
00000000
00000000
00000000
00000000
00000000
00010000
00000000
00000000
00000000
00001000
00000000
00010000
00000000
00000000
,
00000000
00000000
00000000
00000000
00000000
00000000
01010000
00000000
00000000
00000000
00000000
00000000
00000000
00000000
00000000
00100000
00000000
00000000
00000000
00100000
00000000
10000000
00000000
00000000
00000000
00000000
00000000
00000000
00000000
00000000
10010000
00000000
00000000
00000000
00000000
00000000
00000000
00000000
00000000
00100000
00000000
00000000
00000000
00100000
00000000
00010000
00000000
00000000
,
00000000
00000000
00101000
00000000
00000000
00010000
00000000
00002200
00000000
00000000
00000000
00003300
00000000
00000000
00000000
00000011
,
00000000
00000000
00001010
00000000
00000000
00000100
00000000
00000220
00000000
00000000
00000000
00000000
00000000
00000000
00000000
00000000
,
00000000
00000000
00000000
00000000
,
00000330
00000000
00000000
00000000
00000000
00000000
00000000
00000000
00000000
00000000
00000000
00000000
00000000
00000000
00001000
00000100
,
00001000
00000000
00000000
00000000
00000000
00000000
00000000
00000000
00000000
00000000
00001000
00100000
00001000
00010000
00001000
00100000
,
00010000
00000000
00000000
00000000
00000000
00000000
00000000
00000000
00000000
00000000
00010000
01000000
00100000
01000000
00010000
00000000
,
00001000
00000000
00000000
01000000
00000000
00000000
10000000
00000000
00000000
01000000
00000000
00000000
00010000
00000000
01000000
00000000
,
00010000
00000000
10000000
00100000
00000000
10000000
01000000
00000000
10000000
00100000
00000000
10000000
00010000
00000000
00100000
00000000
,
00010000
01000000
00100000
01000000
00010000
00000000
10000000
00100000
01000000
00100000
10000000
00000000
00010000
00100000
00001000
00100000
,
00010000
00000000
00100000
00001000
00010000
00001000
00010000
00000000
00000100
00001000
00000010
00000100
00000001
00000000
00001000
00000000
,
00000001
00000100
00000010
00000100
00000001
00001000
00000010
00001000
00000100
00001000
00000010
00001000
00000001
00001000
00000100
00000000
,
00020000
00000000
00001000
00000000
00031000
00000000
00001000
01000000
00002000
00000000
01000000
00000000
01003000
00000000
00010000
01000000
,
00200000
00000000
10000000
00000000
10300000
00000000
00100000
01000000
00020000
00000000
00100000
00000000
00130000
00000000
00100000
00001000
,
00020000
00000000
00000100
00000000
00030100
00000000
00000100
00001000
00000002
00000000
00000100
00000000
00000103
00000000
00000001
00001000
,
00000100
00000000
00001000
00000100
00010000
00000000
00010000
00001000
01000000
00000000
01000000
00010000
10000000
00000000
00100000
10000000
,
02000000
00000000
00010000
00000000
00010000
00000000
00010000
00000000
03010000
00000000
10000000
00100000
01000000
00010000
01000000
00100000
,
10000000
00000000
00010000
00100000
00000000
00001000
00100000
00000000
00001000
00010000
00000000
00001000
00010000
00000000
00000100
00000000
,
00001000
00000010
00001000
00000010
00000100
00000001
00000100
00000001
00001000
00000100
00000010
00000001
00000010
00000100
00001000
00000000
,
00000010
00000000
00000000
00001000
00001000
00000000
00000001
00000000
00001000
00000100
00010000
00000100
00010000
00001000
00010000
00000000
,
00001000
00000000
00000000
01000000
01000000
00000000
00010000
00000000
10000000
00100000
01000000
00100000
01000000
00100000
10000000
00000000
,
00010000
00000000
00000000
00100000
00100000
00000000
00001000
00000000
00010000
00000100
00001000
00000100
00010000
00000100
00010000
00000000
,
00001000
00000000
00000000
00100000
00100000
00000000
00010000
00000000
01000000
00100000
10000000
00010000
10000000
00010000
10000000
00100000
,
01000000
00000000
00000000
00010000
10000000
00000000
00100000
00000000
01000000
00010000
00100000
00010000
01000000
00010000
00100000
00010000
,
00100000
00000000
00000000
00001000
00001000
00000000
00010000
00000000
00000100
00001000
00000010
00001000
00000100
00001000
00000010
00000000
,
00000100
00000000
00000001
00000100
00000000
00000010
00001000
00000000
00000100
00010000
00000000
00010000
00000000
00000000
00001000
00000000
,
00100000
00000000
00010000
00000000
00000000
00000000
10000000
00000000
01000000
00000000
00000000
00000000
00100000
00000000
00010000
00000000
00000000
00000000
10000000
00000000
01000000
00000000
00100000
00000000
00020000
00000000
00000000
00000000
00000000
00000000
00000000
00130000
,
01000000
00000000
00010000
00000000
10000000
00000000
00010000
00000000
00100000
00010000
00100000
00001000
00100000
00010000
00100000
00000000
,
00001000
00000000
00010000
00000000
00000010
00000000
00001000
00000000
00000001
00000100
00000010
00001000
00000010
00000100
00000001
00000100
,
00000010
00000000
00001000
00000000
00000100
00000000
00010000
00000000
00001000
00100000
00001000
00100000
00001000
00010000
00001000
00000000
,
00100000
00000000
00010000
00000000
01000000
00000000
00100000
00000000
10000000
01000000
00100000
00010000
01000000
00000000
00002000
00000000
,
00020000
00000000
00000000
00000000
,
00000000
00000000
00000000
00000000
,
00000000
00000000
00000000
00000000
,
00000000
00000000
00000000
00000000
00000000
00000000
00000000
00033000
;

//---------------dance-single - ----------------
#NOTES:
     dance-single:
     :
     Challenge:
     16:
     0.807923,0.904205,0.374483,0.160493,1.234266,740.000000,691.000000,49.000000,21.000000,0.000000,0.000000,0.807923,0.904205,0.374483,0.160493,1.234266,740.000000,691.000000,49.000000,21.000000,0.000000,0.000000:
0000
0000
0000
0000
,
0000
0000
0000
0000
,
0000
0000
0000
0000
,
0000
0000
0000
0000
,
0000
0000
0000
0000
,
0010
0000
1000
0000
0001
0000
1000
0100
1000
0000
0010
0000
0100
0000
0001
0010
,
0001
0000
1000
0000
0010
0000
1000
0100
1000
0000
0001
0100
0001
0000
1000
0010
,
0100
0000
0001
0010
0100
0000
1000
0001
0100
0000
0010
1000
0100
0000
0010
0000
,
0002
0000
0000
0000
,
0000
0000
0000
0003
0000
0000
0000
0000
0000
0001
1000
0010
,
1010
0000
0000
0000
0010
1000
0100
0000
0000
1000
0001
0100
,
0010
1000
0001
0101
0000
0000
0000
0000
0000
0010
1000
0100
,
1100
0000
0000
0000
0010
0001
0100
0000
0000
0001
0010
0100
,
1000
0100
0010
0110
0000
0000
0000
0000
0000
0000
0000
0000
,
0001
0010
0001
1000
0010
1000
0001
0010
0100
1000
0010
0100
0000
0000
1000
0010
,
1000
0001
0010
0001
1000
0100
0010
0001
0010
0100
0010
0001
1000
0000
1001
0000
,
0000
0011
0000
1001
0000
0000
1100
0000
0011
0000
0000
1010
0000
0100
0001
0100
,
0001
1000
0010
1000
0001
0100
0010
1000
0010
0100
0000
0000
0001
0010
0001
1000
,
0100
1000
0001
0100
0010
1000
0010
0100
0001
1000
0010
0000
0110
0000
0000
1100
,
0000
1000
0000
0000
0011
0000
0001
0000
0000
1001
0000
1000
0000
0000
0110
0000
,
0100
0000
0000
0011
0000
0001
0000
0000
1100
0000
0000
0011
0000
0000
1010
0000
,
0000
0000
0000
0101
0000
0000
0000
0000
0000
0000
0000
0000
0110
0000
0000
0000
0000
0000
0000
0000
0000
1001
0000
0000
0000
0000
0000
0000
0000
0000
0001
0000
0000
0000
0100
0000
0000
0000
0000
1000
0000
0000
0000
0000
0000
0000
0000
0000
,
2002
0000
0000
0000
0000
0000
0000
0000
0000
0000
0000
0000
3003
0000
0000
1100
,
0000
0022
0000
0000
0000
0000
0000
0000
0000
0000
0000
0000
0033
0000
0000
1010
,
0000
0001
0100
0010
0100
0001
1000
0001
0000
1000
0010
0100
0010
1000
0001
1000
,
0000
0000
0001
0000
0010
0001
0000
0100
0001
0000
1000
0001
0000
1000
0100
0010
,
0000
1000
0010
1000
0001
1000
0100
1000
0000
0001
0010
0001
1000
0001
0100
0001
,
0000
0000
1000
0000
0001
0100
0000
0001
0010
0000
0001
0010
0000
1000
0100
0020
,
0000
0000
0001
0000
0031
0100
0010
1000
0000
0001
0010
0001
1000
0001
0010
0001
,
0000
0000
1000
0010
1000
0001
0100
0001
1000
0100
0010
0001
0010
0100
1000
0010
,
0000
1000
0001
1000
0001
0100
0001
0010
0000
0001
1000
0001
1000
0010
1000
0100
,
0000
0000
0010
0000
1000
0001
0000
1000
0100
0000
1000
0100
0010
0001
0100
0010
,
0000
1000
0001
0100
0000
0001
1000
0010
0000
1000
0001
1000
0000
0010
0100
0002
,
0000
0000
0000
0000
0103
0010
0100
0010
0000
1000
0001
0100
0001
0010
0001
0100
,
0000
0000
0001
0000
0100
0001
0000
1000
0010
0000
0100
0001
0000
1000
0100
0010
,
0000
1000
0001
0100
0001
0010
0001
1000
0000
0001
1000
0010
1000
0100
1000
0001
,
0000
0000
0010
0000
0001
1000
0000
0010
1000
0000
0010
0100
0000
0001
1000
0010
,
0000
1000
0010
0100
0010
1000
0001
1000
0000
0001
0100
0010
0100
0001
1000
0001
,
0000
0000
0010
0000
1000
0100
0000
0010
0001
0100
0001
0010
0001
1000
0001
0100
,
0000
0010
1000
0010
0100
0010
0000
1001
0000
0100
0010
0100
0001
0100
0000
1001
,
0000
0000
0010
1000
0010
1000
0001
0100
0001
0100
0001
0000
0000
0000
0000
1010
,
0000
0001
0010
0100
1000
0100
0010
0001
0000
1000
0100
0010
0001
0100
0000
0010
,
0000
0000
0000
0000
0000
0000
1010
0000
0000
0000
0000
0000
0000
0000
0000
0101
0000
0000
0000
0100
0000
0010
0000
0000
0000
0000
0000
0000
0000
0000
1100
0000
0000
0000
0000
0000
0000
0000
0000
0011
0000
0000
0000
0001
0000
1000
0000
0000
,
0000
0000
0000
0000
0000
0000
0101
0000
0000
0000
0000
0000
0000
0000
0000
1010
0000
0000
0000
1000
0000
0001
0000
0000
0000
0000
0000
0000
0000
0000
0110
0000
0000
0000
0000
0000
0000
0000
0000
1001
0000
0000
0000
0100
0000
0010
0000
0000
,
0000
0000
0000
0000
0000
0000
1100
0000
0000
0000
0000
0000
0000
0000
0000
0101
0000
0000
0000
0100
0000
0010
0000
0000
0000
0000
0000
0000
0000
0000
1010
0000
0000
0000
0000
0000
0000
0000
0000
0101
0000
0000
0000
0001
0000
0010
0000
0000
,
0000
0000
1100
0000
0000
0101
0000
2002
0000
0000
0000
3003
0000
0000
0000
0011
,
0000
0000
0110
0000
0000
1100
0000
2002
0000
0000
0000
0000
0000
0000
0000
0000
,
0000
0000
0000
0000
,
3003
0000
0000
0000
0000
0000
0000
0000
0000
0000
0000
0000
0000
0000
0001
0010
,
0100
0000
0000
0000
0000
0000
0000
0000
0000
0000
1000
0001
0100
0010
0100
0001
,
1000
0000
0000
0000
0000
0000
0000
0000
0000
0000
0001
1000
0010
0100
0010
1000
,
0001
0010
0001
0010
0000
0000
0100
1000
0100
1000
0000
0000
0001
0100
0010
1000
,
0001
0000
1000
0100
0000
0010
0001
0000
1000
0100
0000
0010
0001
0100
0001
1000
,
0001
0100
0001
0100
0001
0000
1000
0010
1000
0010
1000
0000
0001
0010
0001
0010
,
0001
0000
1000
0100
1000
0100
1000
0000
0001
0010
0100
1000
0010
0000
1000
0100
,
0010
0001
0100
0010
1000
0001
1000
0100
0010
0001
0100
0010
1000
0001
0100
0010
,
2000
0000
0001
0000
3001
0000
0100
0010
2000
0000
0001
0000
3001
0000
0010
0001
,
0200
0000
0010
0000
0310
0000
0001
0010
0002
0000
0100
0000
0103
0000
0010
0100
,
0020
0000
1000
0000
1030
0000
0100
0001
0200
0000
0010
0000
0310
0000
1000
0001
,
0010
0000
0001
1000
0100
0000
1000
0001
0100
0010
0100
0010
1000
0100
0010
0001
,
2000
0000
0001
0000
0001
0000
0001
0000
3001
0100
0010
1000
0010
0100
0010
1000
,
0001
0000
1000
0010
0000
1000
0001
0000
0100
0001
0000
0010
0001
0000
0100
0010
,
1000
0100
1000
0100
1000
0100
1000
0100
1000
0010
0100
0001
1000
0010
0100
0001
,
1000
0000
0000
0001
0001
0000
0100
0000
0010
1000
0001
1000
0010
1000
0001
0000
,
0100
0000
0000
0001
0001
0000
1000
0000
0010
0100
0001
0100
0010
0100
0001
0000
,
1000
0000
0000
0001
0001
0000
0100
0000
0010
1000
0100
1000
0010
1000
0100
0000
,
1000
0000
0000
0010
0010
0000
1000
0000
0001
0010
0001
1000
0001
0010
0001
0000
,
0100
0000
0000
0010
0010
0000
1000
0000
0001
0100
0010
0100
0001
0100
0010
0000
,
1000
0000
0000
0100
0100
0000
1000
0000
0010
1000
0100
1000
0010
1000
0001
0000
,
0100
0000
0001
0100
0000
0010
1000
0000
0001
0010
0000
1100
0000
0001
0100
0000
,
0010
0000
1000
0000
0000
0000
0001
0000
0100
0000
0000
0000
0001
0000
1000
0000
0000
0000
0001
0000
0010
0000
0100
0000
2000
0000
0000
0000
0000
0000
0000
0010
,
3001
0000
0100
0000
0010
0000
1000
0000
0001
0010
0100
1000
0100
0010
0001
0000
,
1000
0000
0001
0000
0100
0000
0010
0000
1000
0000
0001
0100
1000
0100
0001
0100
,
1000
0000
0010
0000
0100
0000
0001
0000
0100
0001
0010
0001
0100
0001
0010
0000
,
0001
0000
1000
0000
0100
0000
0010
0000
0001
0010
1000
0010
0001
0000
0200
0000
,
0020
0000
0000
0000
,
0000
0000
0000
0000
,
0000
0000
0000
0000
,
0000
0000
0000
0000
0000
0000
0000
0330
;
