#TITLE:THE DAY OF JUBILATIONS;
#SUBTITLE:;
#ARTIST:BEMANI Sound Team "S-C-U vs L.E.D.";
#TITLETRANSLIT:;
#SUBTITLETRANSLIT:;
#ARTISTTRANSLIT:;
#GENRE:;
#CREDIT:;
#BANNER:THE DAY OF JUBILATIONS.png;
#BACKGROUND:THE DAY OF JUBILATIONS-bg.png;
#LYRICSPATH:;
#CDTITLE:;
#MUSIC:THE DAY OF JUBILATIONS.ogg;
#OFFSET:1.305000;
#SAMPLESTART:37.148037;
#SAMPLELENGTH:14.585636;
#LASTBEATHINT:0.920083;
#SELECTABLE:YES;
#BPMS:0.000000=181.000000
;
#STOPS:
;
#BGCHANGES:-1.000=THE DAY OF JUBILATIONS.avi=1.000=0=0=0=StretchNoLoop====,
99999=-nosongbg-=1.000=0=0=0 // don't automatically add -songbackground-
;
#KEYSOUNDS:;
#ATTACKS:;

//---------------dance-single - ----------------
#NOTES:
     dance-single:
     :
     Beginner:
     3:
     0.132146,0.181623,0.026180,0.061086,0.000000,106.000000,103.000000,3.000000,7.000000,0.000000,0.000000,0.132146,0.181623,0.026180,0.061086,0.000000,106.000000,103.000000,3.000000,7.000000,0.000000,0.000000:
0000
0000
0000
0000
,
0000
0000
0000
0000
,
0000
0000
0000
0000
,
0000
0000
0000
0000
,
0000
0000
0000
0000
,
1000
0000
1000
0000
,
1000
0000
0000
0000
,
0001
0000
0001
0000
,
0001
0000
0000
0000
,
0100
0000
0100
0000
,
0100
0000
0000
0000
,
0010
0000
0010
0000
,
0010
0000
0000
0000
,
1000
0000
0000
0000
,
0001
0000
0000
0000
,
0100
0000
0000
0000
,
0010
0000
0000
0000
,
1000
0000
0000
0000
,
0100
0000
0000
0000
,
0010
0000
0000
0000
,
0001
0000
0000
0000
,
0100
0000
0000
0000
,
0010
0000
0000
0000
,
0100
0000
0000
0000
,
0010
0000
0000
0000
,
1000
0000
0000
0000
,
0001
0000
0000
0000
,
1000
0000
1000
0000
,
2000
0000
3000
0000
,
1001
0000
0000
0000
,
0000
0000
1000
0000
,
0001
0000
0001
0000
,
0001
0000
0000
0000
,
1000
0000
1000
0000
,
1000
0000
0000
0000
,
0010
0000
0010
0000
,
0010
0000
0000
0000
,
0100
0000
0100
0000
,
0100
0000
0000
0000
,
0001
0000
0001
0000
,
0001
0000
0000
0000
,
1000
0000
1000
0000
,
1000
0000
0000
0000
,
0010
0000
0010
0000
,
0010
0000
0000
0000
,
0100
0000
0100
0000
,
0100
0000
0000
0000
,
0001
0000
0000
0000
,
1000
0000
0000
0000
,
0010
0000
0010
0000
,
0010
0000
0000
0000
,
0100
0000
0100
0000
,
0100
0000
0000
0000
,
0001
0000
1000
0000
,
0001
0000
0000
0000
,
1000
0000
0001
0000
,
1000
0000
0000
0000
,
0010
0000
0000
0010
,
0000
0000
0010
0000
,
0100
0000
0000
0100
,
0000
0000
0100
0000
,
0001
0000
0000
0000
,
1000
0000
0000
0000
,
0010
0000
0010
0000
,
0010
0000
0000
0000
,
0100
0000
0100
0000
,
0100
0000
0000
0000
,
0010
0000
0000
0000
,
0100
0000
0000
0000
,
0002
0000
0003
0000
,
0001
0000
0000
0000
,
2000
0000
3000
0000
,
1000
0000
0000
0000
,
0020
0000
0030
0000
,
0010
0000
0000
0000
,
0100
0000
0100
0000
,
0200
0000
0300
0000
,
0100
0000
0000
0000
,
2002
0000
3003
0000
,
0010
0000
0000
0100
,
0000
0000
0010
0000
,
0010
0000
0000
0100
,
0000
0000
0010
0000
,
0000
1001
0000
0000
;

//---------------dance-single - ----------------
#NOTES:
     dance-single:
     :
     Easy:
     6:
     0.289225,0.370881,0.157079,0.296705,0.000000,232.000000,214.000000,18.000000,34.000000,0.000000,0.000000,0.289225,0.370881,0.157079,0.296705,0.000000,232.000000,214.000000,18.000000,34.000000,0.000000,0.000000:
0000
0000
0000
0000
,
0000
0000
0000
0000
,
0000
0000
0000
0000
,
0000
0000
0000
0000
,
0000
0000
0000
0000
,
0001
0000
1000
0000
,
0001
1000
0001
0000
,
1000
0000
0001
0000
,
1000
0001
1000
0000
,
0010
0000
0100
0000
,
0010
0100
0010
0000
,
1000
0000
0001
0000
,
2002
0000
3003
0000
,
0001
0000
0100
0000
,
1000
0000
0100
0000
,
0001
0100
0001
0000
,
1000
0100
1000
0000
,
0001
0000
0010
0000
,
1000
0000
0010
0000
,
0001
0010
0001
0000
,
1000
0010
1000
0000
,
0001
0100
0001
0100
,
1000
0100
1000
0100
,
0001
0100
0001
0100
,
0001
0010
0100
1000
,
0010
1000
0010
1000
,
0010
0001
0010
0001
,
0020
0030
2000
3000
,
0002
0000
2000
3003
,
1001
0000
0000
0010
0000
0000
1001
0000
,
0000
0100
0000
0000
0110
0000
0000
0000
,
0020
0030
2000
3000
,
0001
0100
0010
1000
,
0020
0030
2002
3003
,
1000
0100
0010
0001
,
0200
0300
0220
0330
,
1000
0001
0100
0010
,
2000
3000
0002
0003
,
1000
1000
1000
0000
,
0010
0100
0010
0000
,
1000
0100
0001
0000
,
0100
0010
0100
0000
,
0001
0100
1000
0000
,
0010
0100
0010
0100
,
1000
0001
1000
0000
,
0020
0030
0200
0300
,
0001
1000
0001
1000
,
0020
0030
0200
0300
,
2002
0000
3003
0000
,
0010
0000
0001
0000
,
0100
0000
1000
0000
,
0010
0010
1000
1000
,
0100
0100
0001
0001
,
0010
0000
0001
0000
,
0100
0000
1001
0000
,
0010
1000
0001
0200
,
0020
0000
0330
0000
,
0010
0000
0000
0100
0000
0000
0010
0000
,
0000
0100
0000
0000
0000
0000
0000
0000
,
0100
0000
0000
0010
0000
0000
0100
0000
,
0000
0010
0000
0000
0110
0000
0000
0000
,
0010
0000
1000
0000
,
0100
0000
0001
0000
,
1000
1000
0001
0001
,
1000
0001
1001
0000
,
0001
0001
1000
1000
,
0001
1000
1001
0000
,
0200
0300
0020
0030
,
1000
0100
0001
0000
,
0010
0001
1000
0100
,
1000
0001
0010
0001
,
1000
0010
0001
0010
,
1000
0100
0001
0100
,
1000
0000
0001
0000
,
1000
0000
0001
0000
,
0200
0300
0020
0030
,
1000
0100
0010
0001
,
0220
0000
0330
0000
,
2002
0000
3003
0000
,
0010
0000
0000
0100
0000
0000
1001
0000
,
0000
0100
0000
0000
0110
0000
0000
0000
,
0100
0000
0000
0100
0000
0000
1001
0000
,
0000
0010
0000
0000
0110
0000
0000
0000
,
0000
2002
0000
0000
,
0000
0000
0000
0000
,
3003
0000
0000
0000
;

//---------------dance-double - ----------------
#NOTES:
     dance-double:
     :
     Easy:
     7:
     0.299198,0.445057,0.218165,0.148352,0.000000,240.000000,215.000000,25.000000,17.000000,0.000000,0.000000,0.299198,0.445057,0.218165,0.148352,0.000000,240.000000,215.000000,25.000000,17.000000,0.000000,0.000000:
00000000
00000000
00000000
00000000
,
00000000
00000000
00000000
00000000
,
00000000
00000000
00000000
00000000
,
00000000
00000000
00000000
00000000
,
00000000
00000000
00000000
00000000
,
00100000
00000000
00001000
00000000
,
00010000
00000000
00000100
00000000
,
00001000
00000010
00000100
00000000
,
00000001
00000100
00000010
00000000
,
00001000
00000000
00000100
00000000
,
00010000
00000000
00001000
00000000
,
00100000
00000000
00010000
00000000
,
20020000
00000000
30030000
00000000
,
10000000
00000000
00100000
00000000
,
00010000
00000000
01000000
00000000
,
10000000
00100000
01000000
00000000
,
00001000
00010000
00000100
00000000
,
00001000
00000000
00000100
00000000
,
00000010
00000000
00000001
00000000
,
00000010
00000100
00000001
00000000
,
00001000
00000010
00000100
00000000
,
00001000
00000000
00000100
00000000
,
00010000
00000000
00001000
00000000
,
00100000
00010000
10000000
00010000
,
01000000
00010000
00100000
00001000
,
00010000
00000000
00000010
00000000
,
00001000
00000000
00000001
00000000
,
00001000
00000100
00000010
00000001
,
00002002
00000000
00000000
00003003
,
00000110
00000000
00000000
00000010
00000000
00000000
00001001
00000000
,
00000000
00000100
00000000
00000000
00000110
00000000
00000000
00000000
,
00000010
00001000
00000100
00000000
,
00010000
00001000
01000000
00000000
,
00010000
01000000
10000000
01000000
,
00010000
00100000
10000000
00100000
,
00010000
00000000
01000000
00000000
,
00001000
00000000
00010000
00000000
,
00000100
00001000
00000010
00000000
,
00000100
00000001
00000010
00000000
,
00001000
00000001
00000100
00000000
,
00000001
00001000
00000100
00000000
,
00010000
00000000
00001000
00000000
,
00100000
00010000
01000000
10000000
,
00100000
00000000
00001000
00000000
,
00010000
00001000
00010000
00000000
,
00000200
00000000
00002300
00000000
,
00003010
00000100
00000001
00001000
,
00002002
00000000
00003003
00000000
,
00000220
00000000
00000330
00000000
,
00000010
00000000
00001000
00000000
,
00000100
00000000
00010000
00000000
,
00001000
00001000
00100000
00100000
,
00010000
00010000
01000000
01000000
,
00100000
00000000
10010000
00000000
,
01100000
00000000
10010000
00000000
,
00100000
00001000
00010000
00000100
,
00002000
00000000
00000002
00003003
,
00000010
00000000
00000000
00000100
00000000
00000000
00001001
00000000
,
00000000
00000010
00000000
00000000
00000100
00000000
00000000
00000000
,
00001000
00000000
00000000
00000100
00000000
00000000
00001001
00000000
,
00000000
00000010
00000000
00000000
00000001
00000000
00000000
00000000
,
00001000
00000000
00000100
00000000
,
00010000
00000000
00001000
00000000
,
00100000
00100000
00010000
00010000
,
10000000
00010000
10000000
10010000
,
00100000
00100000
00001000
00001000
,
00010000
00001000
00010000
00011000
,
00010000
00000100
00001000
00000010
,
00000100
00000100
00000010
00001001
,
00000001
00000100
00001000
00000100
,
00000001
00000010
00001000
00000010
,
00000001
00000100
00001000
00000000
,
00010000
01000000
10000000
00000000
,
10000000
00100000
00010000
00100000
,
10000000
01000000
00010000
00000000
,
10000000
00000000
00010000
00000000
,
00100000
00001000
00010000
00001000
,
00020000
00000000
00030000
00000000
,
00022000
00000000
00033000
00000000
,
00011000
00000000
00000000
00011000
00000000
00000000
00011000
00000000
,
00000000
00011000
00000000
00000000
00010000
00000000
00000010
00000000
,
00001001
00000000
00000000
00001001
00000000
00000000
00001100
00000000
,
00000000
00001100
00000000
00000000
00000100
00010000
00001000
00000000
,
00000000
00022000
00000000
00000000
,
00000000
00000000
00000000
00000000
,
00033000
00000000
00000000
00000000
;

//---------------dance-single - ----------------
#NOTES:
     dance-single:
     :
     Hard:
     12:
     0.655743,0.815938,0.462510,0.209439,0.340338,526.000000,473.000000,53.000000,24.000000,0.000000,0.000000,0.655743,0.815938,0.462510,0.209439,0.340338,526.000000,473.000000,53.000000,24.000000,0.000000,0.000000:
// measure 0
0000
0000
0000
0000
,  // measure 1
0000
0000
0000
0000
,  // measure 2
0000
0000
0000
0000
,  // measure 3
0000
0000
0000
0000
,  // measure 4
0000
0000
0000
0000
,  // measure 5
1000
0000
0000
1000
0000
0000
0010
0000
0100
0000
0000
0100
0000
0000
1000
0000
,  // measure 6
0001
0000
0000
0001
0000
0000
0001
0000
1000
0000
0000
0000
0010
0000
0000
0000
,  // measure 7
0100
0000
0000
0100
0000
0000
0001
0000
1000
0000
0000
1000
0000
0000
0001
0000
,  // measure 8
0100
0000
0000
0100
0000
0000
0001
0000
1000
0000
0000
0000
0010
0000
0000
0000
,  // measure 9
0100
0000
0000
0100
0000
0000
0001
0000
0010
0000
0000
0010
0000
0000
0100
0000
,  // measure 10
1000
0000
0000
1000
0000
0000
0010
0000
0100
0000
0000
0001
0000
0000
1000
0000
,  // measure 11
0100
0000
0000
0010
0000
0000
0001
0000
0000
0000
1000
0000
0001
0000
0000
0000
,  // measure 12
1001
0000
0000
1001
0000
0000
1001
0000
0000
0000
0000
0000
0000
0000
0000
0000
,  // measure 13
0001
0000
0000
0100
0000
0000
0010
0000
0200
0000
0000
0000
0301
0000
0001
0000
,  // measure 14
1000
0000
0000
0100
0000
0000
0010
0000
0002
0000
0000
0000
1003
0000
0000
0000
,  // measure 15
0002
0000
0000
0000
0000
0000
0103
0001
0100
0000
0010
0000
1000
0000
0001
0000
,  // measure 16
1000
0000
0000
0001
0000
0000
1000
0000
0001
0000
0000
0000
1001
0000
0000
0000
,  // measure 17
1000
0000
0000
0100
0000
0000
0010
0000
0002
0000
0000
0000
1003
0000
0010
0000
,  // measure 18
0100
0000
0000
0100
0000
0000
0001
0000
2000
0000
0000
0000
3001
0000
0000
0000
,  // measure 19
1000
0000
0010
0000
0100
0000
0001
1000
0001
0000
0100
0000
0010
0000
1000
0000
,  // measure 20
0001
0000
0000
0001
0000
0000
1000
0000
1001
0000
0000
0000
0000
0000
0000
0000
,  // measure 21
0001
0100
0001
0100
1000
0100
1000
0100
,  // measure 22
0001
0100
0001
0100
0010
1000
0100
0010
,  // measure 23
0001
0100
0001
0100
0010
1000
0010
1000
,  // measure 24
0001
0100
1000
0100
0001
1000
0010
1000
,  // measure 25
0001
0100
0010
0100
0001
1000
0010
0100
,  // measure 26
0001
1000
0100
0010
0001
0100
0010
1000
,  // measure 27
0001
0000
0000
0001
0000
0000
1000
0000
0001
0000
0000
0001
0000
0000
1000
0000
,  // measure 28
1001
1010
0110
1001
,  // measure 29
1001
0000
0000
1001
0000
0000
1100
0000
0000
1100
0000
0000
0011
0000
0000
0011
,  // measure 30
0000
0000
0101
0000
0000
0101
0000
0000
1000
0000
0001
0000
1000
0000
0100
0000
,  // measure 31
0020
0000
0000
0031
0000
0000
1000
0000
2000
0000
0000
3010
0000
0000
0100
0000
,  // measure 32
0200
0000
0000
0301
0000
0000
1000
0000
2000
0000
0000
0000
3001
0000
0000
0000
,  // measure 33
1000
0100
0010
0000
0100
0010
0001
0000
,  // measure 34
0010
0000
0000
0010
0000
0000
0100
0000
1000
0000
0000
0000
0001
0000
0010
0000
,  // measure 35
0100
0000
0000
0100
0000
0000
1000
0000
0001
0000
0000
0001
0000
0000
1000
0000
,  // measure 36
0010
0000
0000
0010
0000
0000
1000
0000
0100
0000
0010
0000
0001
0000
0100
0000
,  // measure 37
0010
0000
0001
1000
0000
0001
0100
0010
,  // measure 38
1000
0001
1000
0001
1000
0100
0010
0001
,  // measure 39
1000
0000
0000
0002
0000
0000
0103
0000
0100
0000
0000
0020
0000
0000
1030
0000
,  // measure 40
1000
0000
0000
0002
0000
0000
1003
0000
1000
0000
0000
0000
0101
0000
0000
0000
,  // measure 41
1000
0000
1000
0010
0000
0000
0100
0000
0001
0000
0001
0100
0000
0000
0010
0000
,  // measure 42
0010
0000
1000
0010
0000
0000
0100
0000
0001
0000
1000
0000
0100
0000
0010
0000
,  // measure 43
0001
0000
0000
0001
0000
0000
0100
0000
0010
0000
0000
0010
0000
0000
1000
0000
,  // measure 44
0100
0000
0000
0010
0000
0000
0001
0000
0100
0000
0010
0000
1000
0000
0001
0000
,  // measure 45
2000
0000
0000
3001
0002
0000
1003
0000
,  // measure 46
0001
0000
0100
0000
1000
0000
0100
0000
0001
0000
0000
1000
0000
0000
0010
0000
,  // measure 47
0200
0000
0000
0001
0302
0000
2003
0002
,  // measure 48
0000
0000
0000
3003
,  // measure 49
0001
0100
1000
0000
0001
0100
1000
0000
,  // measure 50
0001
0010
1000
0000
0001
0010
1000
0000
,  // measure 51
0001
0100
0010
1000
0001
0100
0010
1000
,  // measure 52
0001
0100
0010
1000
0010
0100
0010
0100
,  // measure 53
1000
0100
0010
0001
1000
0100
0010
0001
,  // measure 54
1000
0010
0100
0001
1000
0010
0100
0001
,  // measure 55
1000
0000
0000
0010
0000
0000
0100
0000
0001
0000
0000
0100
0000
0000
0010
0000
,  // measure 56
1001
0101
1000
0011
,  // measure 57
0110
0000
0000
0010
0000
0000
1010
0000
0000
1000
0000
0000
1100
0000
0000
0100
,  // measure 58
0000
0000
0101
0000
0000
0001
0000
0000
1000
0000
0100
0000
0010
0000
0001
0000
,  // measure 59
0101
0000
0000
0001
0000
0000
1001
0000
0000
1000
0000
0000
1010
0000
0000
1010
,  // measure 60
0000
0000
0101
0000
0000
0101
0000
0000
0100
0000
0010
0000
1000
0000
0001
0000
,  // measure 61
0100
0000
0000
0100
0000
0000
0010
0000
1000
0000
0000
0000
0001
0000
0000
0000
,  // measure 62
0100
0000
0000
0100
0000
0000
0010
0000
1000
0000
0000
0000
0000
0000
0000
0000
,  // measure 63
1000
0100
0010
0000
0100
0010
0001
0000
,  // measure 64
1000
0000
0000
0001
0000
0000
0100
0000
0010
0000
0000
0000
1000
0000
0100
0000
,  // measure 65
0001
0000
0000
0001
0000
0000
0100
0000
1000
0000
0000
1000
0000
0000
0010
0000
,  // measure 66
0001
0000
0000
0001
0000
0000
0010
0000
1000
0000
0000
1000
0000
0000
0010
0000
,  // measure 67
0100
0000
1000
0010
0000
0100
0001
1000
,  // measure 68
0100
1000
0001
0100
0010
1000
0010
0100
,  // measure 69
0010
0000
0010
1000
0000
0000
0001
0000
0100
0000
0100
0001
0000
0000
0001
0000
,  // measure 70
1000
0000
1000
0010
0000
0000
0010
0000
0100
0000
0001
0000
1000
0000
0100
0000
,  // measure 71
0010
0000
0100
0010
0000
0000
1000
0000
0001
0000
1000
0001
0000
0000
1000
0000
,  // measure 72
0010
0000
0010
0100
0000
0000
0001
0000
1000
0000
0100
0000
0010
0000
0001
0000
,  // measure 73
1000
0000
0000
1000
0001
0000
0000
0001
,  // measure 74
0010
0000
0000
0010
0000
0000
0010
0000
1000
0000
0000
0000
0100
0000
0010
0000
,  // measure 75
0002
0000
0000
0200
0000
0000
0303
0000
,  // measure 76
0001
0000
1000
0000
0100
0000
0010
0000
0001
0000
0000
1000
0000
0000
0001
0000
,  // measure 77
1001
0000
0000
0110
0110
0000
1001
2002
,  // measure 78
0000
0000
0000
0000
0000
0000
0000
0000
0000
0000
0000
3003
0000
0000
0000
0000
,  // measure 79
0101
0000
0000
0101
0000
0000
1100
0000
0000
1100
0000
0000
0011
0000
0000
0011
,  // measure 80
0000
0000
1010
0000
0000
1010
0000
0000
0001
0000
0100
0000
0010
0000
1000
0000
,  // measure 81
1010
0000
0000
1010
0000
0000
0101
0000
0000
0101
0000
0000
0110
0000
0000
0110
,  // measure 82
0000
0000
1001
0000
0000
1001
0000
0000
0001
0000
0100
0000
0010
1000
0010
1000
,  // measure 83
0000
2002
0000
0000
,  // measure 84
0000
0000
0000
0000
,  // measure 85
3003
0000
0000
0000
;

//---------------dance-double - ----------------
#NOTES:
     dance-double:
     :
     Hard:
     12:
     0.622083,0.815938,0.401424,0.200712,0.353428,499.000000,453.000000,46.000000,23.000000,0.000000,0.000000,0.622083,0.815938,0.401424,0.200712,0.353428,499.000000,453.000000,46.000000,23.000000,0.000000,0.000000:
00000000
00000000
00000000
00000000
,
00000000
00000000
00000000
00000000
,
00000000
00000000
00000000
00000000
,
00000000
00000000
00000000
00000000
,
00000000
00000000
00000000
00000000
,
00100000
00000000
00000000
00100000
00000000
00000000
00001000
00000000
00010000
00000000
00000000
00010000
00000000
00000000
00010000
00000000
,
00000100
00000000
00000000
00000100
00000000
00000000
00001000
00000000
00000010
00000000
00000100
00000000
00000001
00000000
00001000
00000000
,
00000100
00000000
00000000
00000100
00000000
00000000
00010000
00000000
00001000
00000000
00000000
00001000
00000000
00000000
00100000
00000000
,
00010000
00000000
00000000
00010000
00000000
00000000
01000000
00000000
00100000
00000000
10000000
00000000
01000000
00000000
00100000
00000000
,
00010000
00000000
00000000
00010000
00000000
00000000
00100000
00000000
00001000
00000000
00000000
00001000
00000000
00000000
00010000
00000000
,
00000100
00000000
00000000
00000100
00000000
00000000
00001000
00000000
00000010
00000000
00000100
00000000
00000001
00000000
00001000
00000000
,
00000100
00000000
00000000
00000100
00000000
00000000
00010000
00000000
00000000
00010000
00000000
00000000
00001000
00000000
00100000
00000000
,
00110000
00000000
00000000
00110000
00000000
00000000
00110000
00000000
00000000
00000000
00000000
00000000
00000000
00000000
00000000
00000000
,
00100000
00000000
00000000
00100000
00000000
00000000
00010000
00000000
10000000
00000000
00000000
00000000
10000000
00000000
00100000
00000000
,
01000000
00000000
00000000
01000000
00000000
00000000
00010000
00000000
00200000
00000000
00000000
00000000
00301000
00000000
00000000
00000000
,
00020000
00000000
00000000
00000000
00030000
00000000
00001000
00010000
00001000
00000000
00000000
00000000
00010000
00000000
00000000
00000000
,
00000100
00000000
00001000
00000010
00000100
00000000
00000001
00000000
,
00001000
00000000
00000000
00001000
00000000
00000000
00000100
00000000
00010000
00000000
00000000
00000000
00001000
00000000
00000000
00000000
,
00100000
00000000
00000000
00100000
00000000
00000000
00010000
00000000
01000000
00000000
00000000
00000000
00100000
00000000
00000000
00000000
,
10000000
00000000
00000000
00000000
00000000
00000000
00010000
10000000
00010000
00000000
00000000
00000000
00100000
00000000
00000000
00000000
,
00001000
00000000
00000000
00001000
00000000
00000000
00010000
00000000
00000100
00000000
00000000
00000000
00000000
00000000
00000000
00000000
,
00001000
00000010
00001000
00000010
00000001
00000010
00000001
00000010
,
00001000
00000010
00001000
00000010
00000100
00000000
00000010
00000000
,
00001000
00000010
00001000
00000010
00001000
00000100
00001000
00000100
,
00010000
00001000
00100000
00010000
,
01000000
00100000
01000000
00100000
10000000
00010000
10000000
00010000
,
10000000
01000000
00100000
00010000
00200000
00000000
00302000
00000000
,
00013000
00000000
00000000
00010000
00000000
00000000
00000100
00000000
00001000
00000000
00000000
00000010
00000000
00000000
00000100
00000000
,
00000001
00001010
00000101
00001001
,
00001001
00000000
00000000
00000001
00000000
00000000
00001001
00000000
00000000
00001000
00000000
00000000
00001010
00000000
00000000
00000010
,
00000000
00000000
00001010
00000000
00000000
00001000
00000000
00000000
00000100
00000000
00010000
00000000
00001000
00000000
00100000
00000000
,
00010000
00000000
00000000
00020000
00000000
00000000
01030000
00000000
00100000
00000000
00000000
00200000
00000000
00000000
10300000
00000000
,
01000000
00000000
00000000
00200000
00000000
00000000
01300000
00000000
00010000
00000000
00000000
00000000
00100000
00000000
00001000
00000000
,
00010000
00000000
00000000
00020000
00000000
00000000
00030100
00000000
00001000
00000000
00000000
00002000
00000000
00000000
00003001
00000000
,
00001000
00000000
00000000
00002000
00000000
00000000
00003100
00000000
00010000
00000000
00000000
00000000
00001000
00000000
00100000
00000000
,
00010000
00000000
00000000
00010000
00000000
00000000
01000000
00000000
10000000
00000000
00000000
10000000
00000000
00000000
01000000
00000000
,
00010000
00000000
00000000
00010000
00000000
00000000
00100000
00000000
00002000
00000000
00000000
00000000
00013000
00000000
00000100
00000000
,
00001000
00000000
00000010
00001000
00000000
00000001
00000100
00000010
,
00001000
00000100
00011000
00101000
,
01000000
00000000
00000000
01000000
00000000
00000000
00010000
00000000
10000000
00000000
00000000
10000000
00000000
00000000
00100000
00000000
,
01000000
00000000
00000000
00010000
00000000
00000000
00100000
00000000
00001000
00000000
00010000
00000000
00000010
00000000
00001000
00000000
,
00000001
00000000
00000000
00000001
00000000
00000000
00001000
00000000
00000100
00000000
00000000
00000100
00000000
00000000
00010000
00000000
,
00001000
00000000
00000000
00001000
00000000
00000000
00100000
00000000
00010000
00000000
01000000
00000000
00100000
00000000
10000000
00000000
,
00010000
00000000
00000000
00010000
00000000
00000000
00100000
00000000
00001000
00000000
00000000
00001000
00000000
00000000
00010000
00000000
,
00000010
00000000
00000000
00000010
00000000
00000000
00001000
00000000
00000100
00000000
00000010
00000000
00000001
00000000
00001000
00000000
,
00000100
00000000
00000100
00010000
00000000
00010000
00001000
00100000
,
00010000
00000000
10000000
00000000
01000000
00000000
00100000
00000000
00010000
00000000
00000000
10010000
00000000
00000000
10000000
00000000
,
00200000
00000000
00000000
01300000
00020000
00000000
10030000
20020000
,
00000000
00000000
00000000
30030000
,
10000000
00100000
00010000
00100000
10000000
00100000
00010000
00100000
,
10000000
00100000
01000000
00001000
,
00010000
00001000
00010000
00000100
00010000
00001000
00010000
00000100
,
00001000
00000010
00000100
00000001
,
00001000
00000100
00000001
00000100
00001000
00000100
00000001
00000100
,
00001000
00000000
00000010
00000000
00000100
00000001
00001000
00000000
,
00000001
00000000
00000000
00001001
00000000
00000000
00001000
00000000
00000100
00000000
00000000
00001100
00000000
00000000
00000100
00000000
,
00010000
00000000
00001000
00000000
00100000
00000000
00010000
10000000
,
01000000
00000000
00000000
01000000
00000000
00000000
10010000
00000000
00000000
10010000
00000000
00000000
00110000
00000000
00000000
00110000
,
00000000
00000000
01010000
00000000
00000000
01010000
00000000
00000000
01000000
00000000
00001000
00000000
00010000
00000000
00000010
00000000
,
00001000
00000000
00000000
00001010
00000000
00000000
00001010
00000000
00000000
00000101
00000000
00000000
00000101
00000000
00000000
00001001
,
00000000
00000000
00001100
00000000
00000000
00001010
00000000
00000000
00000010
00000000
00001000
00000000
00000100
00000000
00010000
00000000
,
00002000
00003000
00200000
00300000
,
00010000
00000000
01000000
00000000
00100000
00000000
10000000
00010000
,
00100000
00000000
00000000
00100000
00000000
00000000
00001000
00000000
00010000
00000000
00000000
00010000
00000000
00000000
00000010
00000000
,
00001000
00000000
00000000
00001000
00000000
00000000
00000001
00000000
00000100
00000000
00000010
00000000
00001000
00000000
00000100
00000000
,
00010000
00000000
00000000
00010000
00000000
00000000
00001000
00000000
00100000
00000000
00000000
00100000
00000000
00000000
00010000
00000000
,
01000000
00000000
00000000
00100000
00000000
00000000
10000000
00000000
00010000
00000000
00100000
00000000
00001000
00000000
00010000
00000000
,
00000100
00000000
00000010
00001000
00000010
00000100
00000001
00001000
,
00000100
00010000
00001000
00100000
00010000
10000000
00100000
00000000
,
00010000
00000000
00000000
00000100
00000000
00000000
00001000
00000000
00001000
00000000
00000000
00000100
00000000
00000000
00000010
00000000
,
00000001
00000000
00000000
00001000
00000000
00000000
00000100
00000000
00010000
00000000
00001000
00000000
00100000
00000000
00010000
00000000
,
10000000
00000000
00000000
01000000
00000000
00000000
00010000
00000000
00100000
00000000
00000000
00001000
00000000
00000000
00010000
00000000
,
00000100
00000000
00000000
00001000
00000000
00000000
00000010
00000000
00000100
00000000
00000001
00000000
00001000
00000100
00001000
00000100
,
00001000
00000000
00000000
00000100
00000000
00000000
00010000
00000000
00001000
00000000
00000000
00100000
00000000
00000000
00010000
00000000
,
01000000
00000000
00000000
00100000
00000000
00000000
10000000
00000000
01000000
00000000
00100000
00000000
00010000
00000000
01000000
00000000
,
00001000
00010000
00000100
00001000
,
00000010
00001000
00000100
00010000
,
00002000
00000000
00000000
00100000
00203000
00000000
00320000
20000000
,
00000000
00000000
00000000
30030000
,
11000000
00000000
00000000
11000000
00000000
00000000
00110000
00000000
00000000
00110000
00000000
00000000
01010000
00000000
00000000
01010000
,
00000000
00000000
00011000
00000000
00000000
00011000
00000000
00000000
00010000
00000000
00000100
00000000
00001000
00000000
00000001
00000000
,
00000101
00000000
00000000
00000101
00000000
00000000
00001010
00000000
00000000
00001010
00000000
00000000
00001100
00000000
00000000
00001100
,
00000000
00000000
00011000
00000000
00000000
00011000
00000000
00000000
00001000
00000000
00100000
00000000
00001000
00010000
00001000
00010000
,
00000000
00022000
00000000
00000000
,
00000000
00000000
00000000
00000000
,
00033000
00000000
00000000
00000000
;

//---------------dance-double - ----------------
#NOTES:
     dance-double:
     :
     Medium:
     9:
     0.476224,0.519233,0.200712,0.122173,0.000000,382.000000,359.000000,23.000000,14.000000,0.000000,0.000000,0.476224,0.519233,0.200712,0.122173,0.000000,382.000000,359.000000,23.000000,14.000000,0.000000,0.000000:
00000000
00000000
00000000
00000000
,
00000000
00000000
00000000
00000000
,
00000000
00000000
00000000
00000000
,
00000000
00000000
00000000
00000000
,
00000000
00000000
00000000
00000000
,
00100000
00001000
00010000
00000010
,
00001000
00000100
00000010
00000000
00000100
00000010
00000001
00000000
,
00001000
00000100
00010000
00001000
,
00100000
00010000
01000000
00000000
00100000
10000000
01000000
00000000
,
00100000
00001000
00010000
00000010
,
00001000
00000100
00000010
00000000
00000100
00000010
00000001
00000000
,
00001000
00000100
00010000
00001000
,
00022000
00000000
00033000
00000000
,
00001000
00000000
00100000
00000000
00010000
00000000
01000000
00100000
,
10000000
00100000
01000000
00001000
,
00010000
00000000
00000010
00000000
00001000
00000000
00000001
00000100
,
00000010
00001000
00000200
00000300
,
00010000
00000000
00001000
00000000
00100000
00000000
00010000
01000000
,
00100000
20000000
30010000
00100000
,
00001000
00010000
00010000
00000100
,
00001000
00000000
00000010
00000100
00000001
00000000
00000000
00000000
,
00000001
00000100
00000001
00000000
00001000
00000000
00000200
00000000
,
00010300
00001000
00010000
00000000
00001000
00000000
00200000
00000000
,
00310000
01000000
00100000
00000000
10000000
00000000
00200000
00000000
,
01300000
00010000
00100000
00000000
00001000
00000000
00010000
00000000
,
00000010
00001000
00000100
00000000
00001000
00000000
00000010
00000000
,
00000100
00000001
00000010
00000000
00000001
00000000
00001000
00000000
,
00000100
00010000
00000100
00000000
00010000
00001000
00010000
00000000
,
00002000
00100000
00100000
00103000
,
00110000
00000000
00000000
11000000
00000000
00000000
00110000
00000000
,
00000000
00011000
00000000
00000000
00000010
00001000
00000100
00000010
,
00000001
00000100
00001000
00010000
,
00001000
00000000
00010000
00001000
00100000
00000000
00020000
00000000
,
10030000
00010000
00100000
00001000
,
00010000
00000010
00001000
00000001
00001000
00000000
00000020
00000000
,
00001030
00000100
00010000
00001000
,
00100000
00010000
01000000
00010000
00100000
00000000
00002000
00000000
,
00013000
00000100
00001000
00000010
,
00000100
00000001
00001000
00000100
00000010
00000001
00001000
00000100
,
00010000
00001000
00100000
00010000
,
01000000
00100000
10010000
01100000
,
10000000
00010000
00100000
00001000
,
00010000
00000000
00000010
00000000
00001000
00000100
00000010
00000001
,
00001000
00000000
00000100
00000000
00010000
00000000
00001000
00100000
,
00010000
00000000
01000000
00000000
00100000
00000000
10000000
00010000
,
10000000
00000000
00100000
01000000
00100000
00000000
01000000
00000000
,
00001000
00010000
00001000
00010000
00001000
00000000
00010000
00000000
,
00000010
00000000
00000000
00001000
00000100
00000000
00000010
00000001
,
00001000
00000000
00000010
00000000
00000100
00000001
00001000
00000001
,
00000100
00000010
00001000
00000100
,
00010000
00000000
00001000
00000000
00100000
00000000
00010000
01000000
,
00100000
10000000
00010000
00100000
,
00001000
00000000
00010000
00000000
00000010
00001000
00000100
00001000
,
00000010
00000000
00001000
00000000
00000001
00000100
00000010
00000000
,
00001000
00000000
00000100
00000000
00010000
00001000
00100000
00000000
,
00010000
01000000
10000000
00000000
00010000
00100000
10000000
00000000
,
00020000
00100000
00100000
00130000
,
00100000
00000000
00000000
00011000
00000000
00000000
00000010
00000000
,
00000000
00011000
00000000
00000000
00100000
00001000
00010000
00000000
,
00011000
00000000
00000000
01000000
00000000
00000000
00011000
00000000
,
00000000
00000100
00000000
00000000
00010000
00001000
01000000
00000000
,
00100000
10000000
01000000
00000000
,
00100000
00001000
00010000
00000000
,
00000010
00001000
00000001
00000100
,
00000010
00001000
00000100
00000000
00010000
00001000
00100000
00000000
,
00010000
01000000
10000000
01000000
,
00010000
00100000
00001000
00010000
00001000
00000000
00010000
00000000
,
00000010
00001000
00000100
00000000
00001000
00000010
00000100
00000000
,
00000001
00001000
00001100
00000101
,
00000010
00001100
00000010
00000101
,
00000010
00001000
00000100
00000000
00010000
00001000
00100000
00000000
,
00010000
01000000
10000000
00100000
,
00010000
00001000
00010000
00000100
00010000
00000000
00000100
00000000
,
00001001
00000000
00000010
00000000
,
00010000
00000000
00001000
00000000
,
00100000
00010000
01000000
00000000
00100000
10000000
01000000
00000000
,
00100000
00001000
00010000
00001000
00010000
00000000
00000100
00000000
,
00000010
00000000
00000000
00001000
00000001
00000000
00001000
00000100
,
00000010
00000000
00000001
00000000
00001000
00000100
00001000
00000000
,
00000100
00000000
00000000
00011000
00000000
00000000
00001000
00000000
,
00000000
00110000
00000000
00000000
00010000
01000000
00100000
00000000
,
10010000
00000000
00000000
00110000
00000000
00000000
00011000
00000000
,
00000000
00001100
00000000
00000000
00010000
00000100
00010000
00001000
,
00000000
00022000
00000000
00000000
,
00000000
00000000
00000000
00000000
,
00033000
00000000
00000000
00000000
;

//---------------dance-single - ----------------
#NOTES:
     dance-single:
     :
     Medium:
     9:
     0.467497,0.556322,0.279252,0.200712,0.043633,375.000000,343.000000,32.000000,23.000000,0.000000,0.000000,0.467497,0.556322,0.279252,0.200712,0.043633,375.000000,343.000000,32.000000,23.000000,0.000000,0.000000:
0000
0000
0000
0000
,
0000
0000
0000
0000
,
0000
0000
0000
0000
,
0000
0000
0000
0000
,
0000
0000
0000
0000
,
0001
0010
1000
0010
,
0001
0100
1000
0100
,
0001
0010
0100
1000
,
1000
0001
1000
0001
,
1000
0010
0100
0001
,
1000
0100
0010
0001
,
1000
0001
1000
0000
0001
1000
0001
0000
,
1000
0000
0000
1000
0000
0000
1001
0000
0000
0000
0000
0000
0000
0000
0000
0000
,
0001
0000
0010
0000
0100
0000
1000
0010
,
1000
0100
0020
0030
,
0002
0000
0003
0000
0001
1000
0001
0000
,
1000
0100
0001
0000
,
0001
0000
1000
0000
0010
0000
1000
0010
,
1000
0001
0200
0300
,
0002
0000
0003
0000
0001
0100
0001
0000
,
1000
0010
1001
0000
,
0001
0100
0001
0100
,
1000
0100
1000
0100
,
0001
0010
0100
0000
0010
0100
1000
0000
,
0001
0010
0100
1000
,
0010
0000
1000
0000
0010
1000
0010
0000
,
0100
0000
0001
0000
0100
0001
0100
0000
,
0010
1000
0010
0000
0100
0001
0100
0000
,
1001
0110
2002
3003
,
1001
0000
0000
0110
0000
0000
1001
0000
,
0000
0110
0000
0000
1000
0001
1000
0000
,
0010
1001
0100
1001
,
0010
0100
0010
1000
,
0002
0103
2000
3100
,
1000
0100
0010
0001
,
0100
0000
0001
1000
0001
0000
0100
0000
,
0010
0000
1000
0001
1000
0000
0010
0000
,
1000
0000
1000
0001
0000
1000
0001
1000
,
0000
0010
0100
1001
,
0010
0000
1000
0010
1000
0000
0001
0100
,
0001
1000
0010
0100
,
0001
0000
1000
0100
1000
0000
0001
0010
,
0001
0100
0010
1000
,
0101
0000
0001
0100
0001
0000
1000
0100
,
1000
0010
0100
0001
,
1000
0000
0000
0001
0001
0000
0000
0000
,
1000
0010
0100
0001
,
1000
0000
0000
1000
0100
0000
0010
0001
,
1000
0000
0001
0000
1000
0001
1000
0000
,
0020
0030
0002
0003
,
0200
0300
2000
3000
,
0010
0001
0100
1000
,
0100
0001
1000
0000
0010
1000
0001
0000
,
0010
0100
1000
0001
,
0100
0010
1000
0000
0010
0100
0001
0000
,
0010
0100
0010
0000
1000
0001
1000
0000
,
0220
0000
0330
0000
,
1010
0000
0000
0101
0000
0000
0011
0000
,
0000
1100
0000
0000
1000
0001
1000
0001
,
0100
0000
0000
1010
0000
0000
0101
0000
,
0000
0110
0000
0000
1000
0001
1000
0001
,
0020
0030
2000
3000
,
0200
0300
0002
0003
,
1000
0100
1000
0000
0001
0100
0001
0000
,
1000
0100
0001
0000
0110
0000
0000
0000
,
0001
0100
0001
0000
1000
0010
1000
0000
,
0001
0100
1000
0000
0110
0000
0000
0000
,
0100
0000
0010
1000
0000
0010
1000
0010
,
1000
0000
0001
0000
0100
0010
0100
0010
,
0100
1001
0010
1001
,
1000
0010
1000
0010
1000
0000
0001
0000
,
1000
0100
0010
0000
0100
0010
0001
0000
,
1000
0001
0100
0001
1000
0000
0010
0000
,
2000
3000
0002
0003
,
0100
0010
0100
0001
,
1000
0001
1000
0000
0001
1000
0001
0000
,
1000
0000
0010
0000
1000
0000
0010
0000
1000
0000
0000
0001
0000
0000
1000
0000
,
0002
0000
0003
1000
1000
0000
0001
1000
,
0001
0100
0110
1001
,
0010
0000
0000
0010
0000
0000
0100
0000
0000
0100
0000
0000
1000
0000
0000
0001
,
0000
0000
1000
0000
0000
0001
0000
0000
1001
0000
0000
0000
1001
0000
0000
0000
,
0010
0000
0000
0010
0000
0000
0100
0000
0000
0100
0000
0000
1000
0000
0000
0001
,
0000
0000
1000
0000
0000
0001
0000
0000
1001
0000
0000
0000
0110
0000
0000
0000
,
0000
2002
0000
0000
,
0000
0000
0000
0000
,
3003
0000
0000
0000
;
