#TITLE:TDSV 3RD TRAX ULTIMATE MEDLEY;
#SUBTITLE:-HISTORIA 2018-;
#ARTIST:TT Sound Team "DANNY VS. EVERYONE";
#TITLETRANSLIT:;
#SUBTITLETRANSLIT:;
#ARTISTTRANSLIT:;
#GENRE:;
#CREDIT:;
#BANNER:TDSV 3RD TRAX ULTIMATE MEDLEY -HISTORIA 2018-.png;
#BACKGROUND:TDSV 3RD TRAX ULTIMATE MEDLEY -HISTORIA 2018--bg.png;
#LYRICSPATH:;
#CDTITLE:;
#MUSIC:TDSV 3RD TRAX ULTIMATE MEDLEY -HISTORIA 2018-.ogg;
#OFFSET:1.271000;
#SAMPLESTART:39.120094;
#SAMPLELENGTH:13.854000;
#LASTBEATHINT:0.858167;
#SELECTABLE:YES;
#DISPLAYBPM:190.000000;
#BPMS:0.000000=190.000000
,36.000000=192.000000
,46.000000=190.000000
,72.000000=194.000000
,75.000000=190.039993
,103.000000=191.000000
,118.000000=190.000000
,174.000000=190.300003
,180.000000=190.000000
,226.000000=195.000000
,230.000000=190.000000
,258.500000=205.000000
,260.000000=190.000000
,289.000000=188.000000
,293.000000=189.970001
,304.000000=184.000000
,308.000000=190.000000
,356.000000=194.000000
,362.000000=190.000000
,373.000000=190.800003
,390.000000=186.000000
,394.000000=190.000000
;
#STOPS:
;
#BGCHANGES:;
#KEYSOUNDS:;
#ATTACKS:;

//---------------dance-single - ----------------
#NOTES:
     dance-single:
     :
     Beginner:
     5:
     0.227558,0.312570,0.060110,0.172815,0.018784,212.000000,204.000000,8.000000,23.000000,0.000000,0.000000,0.227558,0.312570,0.060110,0.172815,0.018784,212.000000,204.000000,8.000000,23.000000,0.000000,0.000000:
// measure 0
0000
0000
0000
0000
,  // measure 1
0000
0000
0000
0000
,  // measure 2
0000
0000
0000
0000
,  // measure 3
0000
0000
0000
0000
,  // measure 4
0000
0000
0000
0000
,  // measure 5
0002
0000
0003
2000
,  // measure 6
0000
3000
0010
0000
,  // measure 7
2002
0000
0000
0000
,  // measure 8
0000
0000
0000
3003
,  // measure 9
0020
0030
0200
0300
,  // measure 10
2002
0000
3003
0000
,  // measure 11
0010
0000
0010
0000
,  // measure 12
0001
0000
1000
0000
,  // measure 13
0010
0000
0010
0000
,  // measure 14
1000
0000
0001
0000
,  // measure 15
0010
0000
0100
0000
,  // measure 16
0001
0000
1000
0000
,  // measure 17
0001
0000
1000
0000
,  // measure 18
0100
0100
0100
0000
,  // measure 19
0010
0000
0000
0100
,  // measure 20
0100
0000
0000
0010
,  // measure 21
0010
0000
0000
0100
,  // measure 22
0100
0000
0100
0000
,  // measure 23
0001
0000
0010
0000
,  // measure 24
0100
0000
1000
0000
,  // measure 25
0001
0000
0100
0000
,  // measure 26
1001
0000
0000
0000
,  // measure 27
1000
0000
0010
0010
,  // measure 28
0010
0000
0100
0100
,  // measure 29
0100
0000
0010
0000
,  // measure 30
0100
0000
0010
0000
,  // measure 31
0001
0000
0001
0000
,  // measure 32
0001
0001
0001
0000
,  // measure 33
0010
0000
0100
0000
,  // measure 34
0001
0000
1000
0000
,  // measure 35
0010
0010
0010
0000
,  // measure 36
0100
0100
0100
0000
,  // measure 37
0100
0000
0010
0000
,  // measure 38
1000
0000
0001
0000
,  // measure 39
1000
1000
1000
0000
,  // measure 40
0001
0001
0001
0000
,  // measure 41
0100
0000
0000
0100
0000
0000
0100
0000
0000
0000
0000
0000
0000
0000
0000
0000
,  // measure 42
0010
0000
0000
0010
0000
0000
0010
0000
0000
0000
0000
0000
0000
0000
0000
0000
,  // measure 43
1000
0000
0000
0001
0000
0000
0000
0000
,  // measure 44
1000
0000
0000
1000
0000
0000
1000
0000
0000
0000
0000
0000
0000
0000
0000
0000
,  // measure 45
0001
0000
0000
0001
0000
0000
0001
0000
0000
0000
0000
0000
0000
0000
0000
0000
,  // measure 46
1000
0000
0000
1000
0000
0000
1000
0000
0000
0000
0000
0000
0000
0000
0000
0000
,  // measure 47
0010
0000
0000
0100
0000
0000
0010
0000
,  // measure 48
1000
0000
1001
0000
,  // measure 49
0001
0000
1000
0000
,  // measure 50
0001
0000
1000
0000
,  // measure 51
0010
0000
0100
0000
,  // measure 52
0010
0000
0100
0000
,  // measure 53
0001
0000
1000
0000
,  // measure 54
0010
0000
0100
0000
,  // measure 55
0001
0000
1001
0000
,  // measure 56
0010
0000
1001
0000
,  // measure 57
0001
0000
0001
0000
,  // measure 58
1000
0000
1000
0000
,  // measure 59
0001
0000
1000
0000
,  // measure 60
0001
0000
1000
0000
,  // measure 61
1000
0000
0001
0000
,  // measure 62
1000
0000
0001
0000
,  // measure 63
0100
0000
0010
0000
,  // measure 64
0100
0000
0010
0000
,  // measure 65
0010
0010
0000
0010
,  // measure 66
0000
0010
0000
0000
,  // measure 67
0010
0010
0000
0010
,  // measure 68
0020
0000
0030
0000
,  // measure 69
0100
0100
0000
0100
,  // measure 70
0000
0100
0000
0100
,  // measure 71
0010
0010
0000
0010
,  // measure 72
0020
0000
0000
0030
,  // measure 73
0200
0000
0300
0000
,  // measure 74
0200
0000
0300
0000
,  // measure 75
0020
0000
0030
0000
,  // measure 76
2000
0000
3000
0000
,  // measure 77
0002
0000
0003
0000
,  // measure 78
2000
0000
3000
0000
,  // measure 79
0020
0000
0030
0000
,  // measure 80
0100
0000
0100
0000
,  // measure 81
1001
0000
0000
0000
,  // measure 82
0010
0000
0001
0000
,  // measure 83
2000
0000
3000
0000
,  // measure 84
0000
1000
1000
0000
,  // measure 85
0020
0000
0030
0000
,  // measure 86
0000
0000
0001
0000
,  // measure 87
0002
0000
0003
0000
,  // measure 88
0000
1000
1000
1000
,  // measure 89
2000
0000
3000
0000
,  // measure 90
1000
1000
1000
0000
,  // measure 91
0001
0001
0001
0000
,  // measure 92
0100
0100
0100
0000
,  // measure 93
0010
0010
0010
0000
,  // measure 94
0001
1000
0001
0000
,  // measure 95
1000
0001
1000
0000
,  // measure 96
0010
0100
0010
0100
,  // measure 97
0010
0100
0010
0000
,  // measure 98
0010
0000
0100
0000
,  // measure 99
0001
1000
0001
1000
,  // measure 100
0010
0000
0010
0000
,  // measure 101
0100
0000
0100
0100
,  // measure 102
2002
0000
0000
0000
,  // measure 103
0000
0000
0000
0000
,  // measure 104
3003
0000
0000
0000
;

//---------------dance-single - ----------------
#NOTES:
     dance-single:
     :
     Easy:
     8:
     0.397153,0.546998,0.217898,0.255466,0.015027,370.000000,341.000000,29.000000,34.000000,0.000000,0.000000,0.397153,0.546998,0.217898,0.255466,0.015027,370.000000,341.000000,29.000000,34.000000,0.000000,0.000000:
// measure 0
0000
0000
0000
0000
,  // measure 1
0000
0000
0000
0000
,  // measure 2
0000
0000
0000
0000
,  // measure 3
0000
0000
0000
0000
,  // measure 4
0000
0000
0000
0000
,  // measure 5
0100
0000
0000
0001
0000
0000
0010
0000
,  // measure 6
0000
1000
0000
0000
0010
0000
0100
0000
,  // measure 7
2002
0000
0000
0000
,  // measure 8
0000
0000
0000
3003
,  // measure 9
0010
0100
0010
0100
,  // measure 10
1001
0000
0000
0000
,  // measure 11
0001
0010
0001
0010
,  // measure 12
0001
0100
1000
0010
,  // measure 13
1000
0010
0001
0100
,  // measure 14
0000
0001
0100
1000
,  // measure 15
0010
0010
0100
0100
,  // measure 16
0001
0100
0010
1000
,  // measure 17
0001
1000
0010
0100
,  // measure 18
0100
0100
1001
0000
,  // measure 19
0100
0000
0010
0000
1000
0000
0010
0100
,  // measure 20
0001
0000
1000
0000
0010
0000
1000
0010
,  // measure 21
0100
0000
0001
0000
0100
0000
0010
1000
,  // measure 22
0001
0100
1000
0100
,  // measure 23
0001
0000
0000
0001
0000
0000
0001
0000
0010
0000
0000
0010
0000
0000
0010
0000
,  // measure 24
0100
0000
0000
0100
0000
0000
0100
0000
1000
0000
0000
1000
0000
0000
1000
0000
,  // measure 25
0001
0010
0100
1000
,  // measure 26
0002
0000
2003
3010
,  // measure 27
1001
0000
0110
0000
,  // measure 28
1001
0000
0110
0000
,  // measure 29
1000
0100
0010
0001
,  // measure 30
1000
1000
0001
0001
,  // measure 31
0110
0000
1001
0000
,  // measure 32
0110
0110
1001
0000
,  // measure 33
0000
0001
0100
1000
,  // measure 34
0000
0001
0100
1000
,  // measure 35
0010
0010
0100
0100
,  // measure 36
1000
0001
1000
0001
,  // measure 37
0000
1000
0100
0001
,  // measure 38
0000
1000
0100
0001
,  // measure 39
0010
0010
0100
0100
,  // measure 40
1000
0001
1000
0001
,  // measure 41
1000
0001
1000
0000
0001
0100
0010
0000
,  // measure 42
0001
1000
0001
0000
1000
0010
0100
0000
,  // measure 43
0001
0100
0010
0000
1000
0001
1000
0000
,  // measure 44
0010
1000
0100
0000
1000
0001
1000
0001
,  // measure 45
0200
0000
0310
0000
2000
0000
0000
3001
,  // measure 46
0000
0010
0000
0100
0000
1000
0000
0001
,  // measure 47
0200
0310
2000
3001
,  // measure 48
1001
0000
2000
3001
,  // measure 49
1000
0000
0010
0000
0100
0000
0001
1000
,  // measure 50
0000
1000
0001
0100
,  // measure 51
0010
0000
1000
0000
0001
0000
1000
0100
,  // measure 52
0000
0010
0001
0100
,  // measure 53
1000
0000
0010
0000
0100
0000
0001
1000
,  // measure 54
0000
0000
0010
0000
1000
0010
1000
0000
,  // measure 55
0010
0000
0100
0000
0001
0000
0010
0001
,  // measure 56
0000
0100
2002
3003
,  // measure 57
0010
0000
1000
0100
,  // measure 58
0010
0000
0100
0010
,  // measure 59
0001
0001
1000
1000
,  // measure 60
0001
0010
0100
1000
,  // measure 61
0001
0000
1000
1000
,  // measure 62
0001
0000
0001
0001
,  // measure 63
1000
0100
0010
0001
,  // measure 64
2002
0000
0000
3003
,  // measure 65
0010
0010
0001
0010
,  // measure 66
1000
0010
0001
0100
,  // measure 67
0010
0010
1000
0010
,  // measure 68
0200
0300
2000
3000
,  // measure 69
0010
0010
0001
0010
,  // measure 70
1000
0010
0100
1001
,  // measure 71
0010
0010
0001
0010
,  // measure 72
0200
0300
2000
3000
,  // measure 73
2002
0000
0000
3003
,  // measure 74
2002
0000
3003
0000
,  // measure 75
2000
0000
3000
0000
,  // measure 76
0002
0003
2000
3000
,  // measure 77
0001
0010
0100
1000
,  // measure 78
0020
0000
0030
0000
,  // measure 79
0200
0000
0300
0000
,  // measure 80
0001
0000
1000
0000
,  // measure 81
0010
0000
1001
0000
,  // measure 82
1001
0000
0000
0010
0010
0000
0000
1000
,  // measure 83
2000
0000
3000
0000
,  // measure 84
0001
0000
1000
0010
1000
0000
0001
0100
,  // measure 85
0020
0000
0030
0000
,  // measure 86
0200
0000
0000
0001
0001
0000
0000
0001
,  // measure 87
0002
0000
0303
0000
,  // measure 88
0020
1000
1000
1000
,  // measure 89
2000
0000
0000
3030
,  // measure 90
0001
0100
1000
0010
,  // measure 91
1000
0100
0001
1001
,  // measure 92
0010
1000
0100
0010
,  // measure 93
0001
0100
0010
1001
,  // measure 94
0001
0101
1000
1100
,  // measure 95
0001
0011
1000
1010
,  // measure 96
0001
0010
0100
1000
,  // measure 97
0010
0100
0010
0000
1000
0000
0001
0000
,  // measure 98
0010
0100
0010
0000
0100
0010
0100
0000
,  // measure 99
0010
0100
1000
0010
,  // measure 100
0110
0000
1000
1000
0000
0010
0010
0000
,  // measure 101
0001
0001
0000
0010
0010
0000
1001
0000
,  // measure 102
2002
0000
0000
0000
,  // measure 103
0000
0000
0000
0000
,  // measure 104
3003
0000
0000
0000
;

//---------------dance-single - ----------------
#NOTES:
     dance-single:
     :
     Medium:
     13:
     0.629005,0.820497,0.405740,0.338117,0.244196,586.000000,532.000000,54.000000,45.000000,0.000000,0.000000,0.629005,0.820497,0.405740,0.338117,0.244196,586.000000,532.000000,54.000000,45.000000,0.000000,0.000000:
// measure 0
0000
0000
0000
0000
,  // measure 1
0000
0000
0000
0000
,  // measure 2
0000
0000
0000
0000
,  // measure 3
0000
0000
0000
0000
,  // measure 4
0000
0000
0000
0000
,  // measure 5
0110
0000
0000
0101
0000
0000
0110
0000
,  // measure 6
0000
1010
0000
0000
0010
0000
0100
0000
,  // measure 7
2002
0000
0000
0000
,  // measure 8
0000
0000
0000
3003
,  // measure 9
0010
1000
0100
0000
0010
0001
0100
0000
,  // measure 10
0020
0000
0200
0330
,  // measure 11
0001
0000
1010
0000
0001
0100
0010
0000
,  // measure 12
1000
0010
0100
0000
0001
0100
0010
0000
,  // measure 13
1000
1010
0001
0101
,  // measure 14
0000
0001
1000
0001
0100
0001
0010
0001
,  // measure 15
0100
0101
1001
0101
,  // measure 16
0010
2000
3010
0200
,  // measure 17
0301
0000
1000
0000
0010
0000
0100
0001
,  // measure 18
0100
0010
0100
0001
0100
0000
1001
0000
,  // measure 19
0010
0000
0000
0001
0000
0000
0100
0001
0000
0100
0000
0000
0010
0000
1000
0000
,  // measure 20
0010
0000
0000
0100
0000
0000
0001
0010
0000
0001
0000
0000
0010
0000
0001
0000
,  // measure 21
1000
0000
0000
0001
0000
0000
1000
0001
0000
1000
0000
0000
0100
0000
1000
0000
,  // measure 22
0001
0000
0000
1001
0000
0000
1000
0000
0000
1001
0000
0000
0001
0000
0100
0000
,  // measure 23
0010
0000
0000
1000
0000
0000
0001
0000
1000
0000
0000
0000
0001
0000
0010
0000
,  // measure 24
0001
0000
0000
0100
0000
0000
0010
0000
1000
0000
0000
0010
0000
0000
0100
0000
,  // measure 25
0001
0000
0010
0001
0000
0010
0001
0000
1000
0000
0010
1000
0000
0010
1000
0000
,  // measure 26
0002
0203
0020
0330
,  // measure 27
1000
0000
0010
0000
0001
0000
1000
0100
,  // measure 28
0010
0000
1000
0000
0001
0000
0010
1000
,  // measure 29
0100
1000
0002
0013
,  // measure 30
0001
0100
0001
0100
0001
0100
0001
0000
,  // measure 31
0110
0000
1001
0000
,  // measure 32
0110
0110
1001
1001
,  // measure 33
1001
0000
1000
0100
0001
0100
1000
0000
,  // measure 34
0010
0000
0001
0100
1000
0100
0001
0000
,  // measure 35
0010
1000
0010
1000
0001
0100
0001
0000
,  // measure 36
0001
0000
0000
1000
0000
1000
0000
0000
0001
0000
0000
0000
1001
0000
0000
0000
,  // measure 37
0110
0000
1000
0010
0100
0010
1000
0000
,  // measure 38
0001
0000
0100
0010
0001
0010
0100
0000
,  // measure 39
0010
0000
1000
0100
0010
0100
1000
0000
,  // measure 40
0001
0000
0000
0100
0000
0100
0000
0000
0001
0000
0000
0000
1001
0000
0000
0000
,  // measure 41
2000
0000
0000
3002
0000
0103
0000
0001
,  // measure 42
2000
0000
0000
0010
3010
0000
0001
0000
,  // measure 43
0100
0001
1000
0001
0010
0001
0100
0001
,  // measure 44
0020
0032
2003
3200
,  // measure 45
2300
0000
3000
0000
0001
0100
0001
0100
,  // measure 46
0010
1000
0001
1000
0001
1000
0001
1000
,  // measure 47
0010
0100
0100
0001
1000
1000
0010
1000
,  // measure 48
0100
0010
0001
0010
0001
0010
0100
0000
,  // measure 49
1000
0000
0000
1000
0000
0000
1000
0000
0010
0100
0000
0000
0100
0000
0001
0000
,  // measure 50
0100
0000
0000
0100
0000
0000
0100
0000
0010
1000
0000
0000
1000
0000
0001
0000
,  // measure 51
0100
0000
0000
0100
0000
0000
0100
0000
0001
1000
0000
0000
1000
0000
0010
0000
,  // measure 52
0100
0000
0000
0100
0000
0000
0100
0000
0001
0100
0000
0000
0001
0000
1000
0000
,  // measure 53
0010
0000
0000
0010
0000
0000
0010
0000
1000
0010
0000
0000
0100
0000
0001
0000
,  // measure 54
1000
0000
0000
1000
0000
0000
1000
0000
0001
1000
0000
0000
0010
0000
0100
0000
,  // measure 55
0001
1000
0010
1000
0100
0000
1000
0001
,  // measure 56
1000
0010
1000
0000
2002
0000
3003
0000
,  // measure 57
0001
0000
0000
1001
0000
0000
1000
0000
0010
0100
0000
0100
0010
0000
1000
0000
,  // measure 58
0001
0000
0010
0000
0001
0000
0100
0000
0001
1000
0000
1000
0001
0000
0100
0000
,  // measure 59
0010
0000
0000
1010
0000
0000
1000
0000
0001
0100
0000
0100
0001
0000
1000
0000
,  // measure 60
0010
0000
0100
0000
0010
0000
1000
0010
0000
0000
1000
0010
0000
1000
0001
1000
,  // measure 61
0001
0000
0000
0101
0000
0000
0100
0000
0010
1000
0000
1000
0010
0000
0100
0000
,  // measure 62
0001
0000
0010
0000
0001
0000
0100
0000
0001
1000
0000
1000
0001
0000
1000
0000
,  // measure 63
0100
0000
0000
1001
0000
0000
0010
0000
1000
0001
0000
0001
1000
0000
0010
0000
,  // measure 64
1000
0000
0001
0100
0001
0000
1000
0010
1000
0000
0000
0000
1001
0000
0000
0000
,  // measure 65
0010
0000
0010
0000
0001
1000
0010
0000
,  // measure 66
1000
0001
0010
0000
1001
0000
0110
0000
,  // measure 67
0010
0000
0010
0000
1000
0001
1000
0000
,  // measure 68
0100
0100
1000
0001
,  // measure 69
0010
0000
0010
0000
0001
1000
0010
0000
,  // measure 70
1000
0001
0010
0000
0110
0000
1001
0000
,  // measure 71
0010
0000
0010
0000
0001
1000
0010
1000
,  // measure 72
0001
0000
0000
1001
0000
0000
0000
0000
0100
0000
0000
0110
0000
0000
0000
0000
,  // measure 73
2002
0000
0000
3003
,  // measure 74
2000
3000
0002
0003
,  // measure 75
0200
0300
0020
0030
,  // measure 76
2000
0000
3001
0000
,  // measure 77
0002
0023
0230
2300
,  // measure 78
3002
0003
2000
3000
,  // measure 79
0020
0030
0200
0300
,  // measure 80
0202
0303
2200
3300
,  // measure 81
0100
0100
0100
0100
0010
0010
0010
0000
,  // measure 82
0020
0000
0030
0001
0100
0000
0010
1000
,  // measure 83
0010
0100
1001
0110
,  // measure 84
0010
0000
1000
0100
0010
0000
0100
0010
,  // measure 85
0001
0100
0010
1000
,  // measure 86
0001
0000
0010
0001
0010
0000
0100
1000
,  // measure 87
0100
0010
0001
0100
,  // measure 88
0010
0000
1000
0001
1000
0000
0010
0100
,  // measure 89
0020
2030
3200
0310
,  // measure 90
0001
0010
0100
0010
0001
0100
0010
0100
,  // measure 91
0001
0010
0100
0010
0110
0000
0011
0000
,  // measure 92
1001
0000
1000
0100
0001
0100
1000
0001
,  // measure 93
1001
0000
0001
0100
1000
0100
0001
1000
,  // measure 94
1001
0000
0000
0001
0000
0000
0001
0000
0010
0000
0001
0000
0100
0000
0010
0000
,  // measure 95
1000
0000
0000
1000
0000
0000
0100
0000
0000
0010
0000
0010
0001
0000
1000
0000
,  // measure 96
0001
0000
0000
0001
0000
0000
0100
0000
1000
0000
0000
1000
0000
0000
0100
0000
,  // measure 97
0001
0010
0100
1000
0010
0100
0110
0000
,  // measure 98
0010
0010
0010
0000
0100
0100
0100
0000
,  // measure 99
0010
0000
0000
1000
0000
0000
0001
0000
0010
0000
0001
0000
1000
0000
0100
0000
,  // measure 100
0110
0000
0010
0011
0000
0001
1001
0000
,  // measure 101
1000
1010
0000
0010
0110
0000
1001
0000
,  // measure 102
2002
0000
0000
0000
,  // measure 103
0000
0000
0000
0000
,  // measure 104
3003
0000
0000
0000
;

//---------------dance-single - ----------------
#NOTES:
     dance-single:
     :
     Hard:
     17:
     0.908086,1.093997,0.435795,0.210384,0.875348,846.000000,788.000000,58.000000,28.000000,0.000000,0.000000,0.908086,1.093997,0.435795,0.210384,0.875348,846.000000,788.000000,58.000000,28.000000,0.000000,0.000000:
// measure 0
0000
0000
0000
0000
,  // measure 1
0000
0000
0000
0000
,  // measure 2
0000
0000
0000
0000
,  // measure 3
0000
0000
0000
0000
,  // measure 4
0000
0000
0000
0000
,  // measure 5
1010
0000
0000
0011
0000
0000
1100
0000
,  // measure 6
0000
0101
0000
0000
0110
0000
0110
0000
,  // measure 7
2000
0001
0010
3002
,  // measure 8
0100
1000
0010
0103
,  // measure 9
1000
0100
1000
0000
0001
0100
0001
0000
1000
0010
0100
0000
0001
0100
0010
0000
,  // measure 10
1000
0000
0000
1001
0000
0000
0110
0000
0110
0000
0000
1001
0000
0000
0000
0000
,  // measure 11
0010
0000
1000
0010
0000
1000
0001
0000
0100
0000
0001
0100
0000
0001
1000
0000
,  // measure 12
0010
0000
1000
0010
0000
1000
0001
0000
2000
0000
0010
0000
0010
0000
3010
0000
,  // measure 13
1000
0010
1000
0001
0100
0001
1000
0010
1000
0001
0100
0001
,  // measure 14
1000
0000
0010
0100
0010
0000
0010
0000
1000
0000
0001
0000
0100
0000
0010
0000
,  // measure 15
1000
0000
0000
0001
0001
0100
0010
0010
1000
0010
0010
0100
,  // measure 16
0001
0000
0000
1000
1000
1000
0010
0000
0000
1000
1000
1000
,  // measure 17
0002
0000
0103
0010
2000
0000
3001
0010
,  // measure 18
0001
0010
0001
0100
0010
0000
1001
0000
,  // measure 19
0001
0000
0100
0001
0000
1000
0001
0000
1000
0010
0000
1000
0001
0000
0010
0000
,  // measure 20
0001
0000
1000
0010
0000
1000
0001
0000
1000
0100
0000
1000
0001
0000
0010
0000
,  // measure 21
0001
0000
0100
0010
0000
0100
0001
0000
0100
0010
0000
0100
0001
0000
1000
0000
,  // measure 22
0010
0000
1000
0100
0000
1000
0010
0000
1000
0001
0000
1000
0100
0000
1000
0000
,  // measure 23
0001
0000
0100
0010
0000
1000
0100
0010
0001
0000
0100
0010
0000
1000
0100
0010
,  // measure 24
0001
0000
1000
0010
0000
1000
0010
0100
0001
0000
1000
0010
0000
1000
0010
0100
,  // measure 25
0001
0000
1000
0010
0000
1000
0001
0100
0010
0000
0000
1000
0010
1000
0001
1000
,  // measure 26
0200
0302
2003
3001
,  // measure 27
1000
0000
0010
0100
0000
0010
0100
0000
0001
1000
0000
0001
1000
0000
0010
0000
,  // measure 28
1000
0000
0100
1000
0000
0100
1000
0000
0001
0100
0000
0001
0100
0000
0010
0000
,  // measure 29
2000
0000
0000
0100
0000
0000
3100
0000
0002
0000
0000
0010
0000
0000
0013
0000
,  // measure 30
1000
0100
1000
0000
0001
0100
0001
0000
1000
0010
1000
0010
0100
0001
0100
0001
,  // measure 31
1000
1000
1000
0000
1001
0001
0001
0000
,  // measure 32
1001
0110
1001
0110
,  // measure 33
1000
0000
0000
1000
0000
0000
1000
0000
0001
0000
0000
0001
0000
0000
0001
0000
,  // measure 34
0100
0000
0000
0100
0000
0000
0100
0000
0010
0000
1000
0010
0000
1000
0010
0000
,  // measure 35
0100
0000
0000
0100
0000
0000
0001
0000
1000
0000
0001
1000
0000
0001
1000
0000
,  // measure 36
0010
0000
0000
0010
0000
0000
1000
0000
0001
0000
0100
0001
0000
0100
0001
0000
,  // measure 37
1000
0000
0000
1000
0000
0000
1000
0000
0010
0000
0000
0010
0000
0000
0010
0000
,  // measure 38
0100
0000
0000
0100
0000
0000
0100
0000
0001
0000
1000
0001
0000
1000
0001
0000
,  // measure 39
0100
0000
0000
0100
0000
0000
0100
0000
0001
0000
1000
0001
0000
1000
0001
0000
,  // measure 40
0010
0000
0000
0010
0000
0000
1000
0000
1001
0000
0000
1001
0000
0000
1001
0000
,  // measure 41
0012
0000
0000
0100
0203
0000
0310
1000
,  // measure 42
2100
0000
0000
0000
0000
0000
0010
0000
3010
0000
0100
0000
0001
0010
0100
1000
,  // measure 43
0010
1000
0010
1000
0001
0010
0100
1000
,  // measure 44
0001
0010
0001
1000
0001
0100
0001
1000
,  // measure 45
0020
0000
0000
0100
0000
0000
1030
0000
,  // measure 46
0001
0100
0001
0100
0010
1000
0100
1000
,  // measure 47
0001
0100
0010
0100
0001
0000
1000
0010
0100
0010
1000
0000
0001
0010
0001
0100
,  // measure 48
0001
1000
0100
0010
0001
1000
0010
0100
0002
0000
1000
0000
1003
0000
0000
0000
,  // measure 49
0100
0000
0010
0000
1000
0100
1000
0000
0100
0010
0100
0000
0010
0001
0010
0000
,  // measure 50
0001
0000
0100
0000
0010
1000
0010
0000
0100
0001
0100
0000
1000
0010
1000
0000
,  // measure 51
0001
0000
0100
0000
0010
0000
1010
0000
0000
0000
0100
0001
1000
0000
0020
0000
,  // measure 52
0130
0000
0001
0000
0002
0000
0010
0000
0013
0000
0010
0001
1000
0000
0010
0000
,  // measure 53
0100
0000
0010
0100
0010
0000
1000
0000
0010
0000
0100
0001
1000
0000
0001
0000
,  // measure 54
0100
0000
0010
1000
0010
0000
0100
0000
0001
0000
1000
0001
0100
0000
0010
0000
,  // measure 55
1000
0100
1000
0100
0010
0001
0010
0001
1000
0010
1000
0010
0100
0001
0100
0001
,  // measure 56
1000
0100
0010
0001
0100
0000
0000
0000
2002
0000
0000
0000
3003
0000
0000
0000
,  // measure 57
1000
0000
0100
0000
1000
0100
0000
0010
0001
0000
0100
0000
0010
0000
1000
0000
,  // measure 58
0001
0000
0010
0000
0001
0010
0000
0100
1000
0000
0010
0000
0100
0000
0001
0000
,  // measure 59
1000
0000
1000
0000
1000
0100
0000
0010
0001
0000
0001
0000
0001
0100
0000
0010
,  // measure 60
1000
0000
0100
0000
0010
0001
0000
0001
0010
0000
0100
0000
1001
0000
0000
0000
,  // measure 61
1000
0000
0001
0000
1000
0010
0000
0010
0100
0000
0010
0000
1000
0000
0001
0000
,  // measure 62
1000
0000
0001
0000
0100
1000
0000
1000
0001
0000
0100
0000
0010
0000
1000
0000
,  // measure 63
0001
0000
0001
0000
0010
0100
0000
0100
1000
0000
1000
0000
0100
0010
0000
0001
,  // measure 64
2000
0000
0002
3003
,  // measure 65
0010
0000
0000
1000
0010
0000
0000
0001
1000
0000
1000
0010
0000
0000
0000
0000
,  // measure 66
1001
0000
1001
0000
0010
0000
0001
1000
0001
0000
1000
0010
0000
0000
0100
0000
,  // measure 67
0010
0000
0000
0000
0010
0000
1000
0001
1000
0000
1000
0010
0000
0000
0000
0000
,  // measure 68
0101
0000
0000
0101
0000
0000
0000
0000
1010
0000
0000
1010
0000
0000
0000
0000
,  // measure 69
0010
0000
0000
0100
0010
0000
0000
0001
0100
0000
0100
0010
0000
0000
0000
0000
,  // measure 70
1001
0000
1001
0000
0010
0000
0001
1000
0100
0000
1000
0010
0000
0000
1000
0000
,  // measure 71
1010
0000
0000
0000
1010
0000
0100
0001
1000
0000
1000
0010
0000
0000
1000
0000
,  // measure 72
0101
0000
0000
0101
0000
0000
0000
0000
1010
0000
0000
1010
0000
0000
0000
0000
,  // measure 73
0020
0100
1000
0130
,  // measure 74
0001
0000
0100
0001
0000
0000
1000
0000
0001
0000
1000
0001
0000
0000
1000
0000
,  // measure 75
0010
0000
1000
0010
0000
0000
1000
0000
0100
0000
0010
0001
0000
0000
0100
0000
,  // measure 76
0010
0000
1000
0010
0000
0000
0100
0000
0100
0000
0000
0000
0000
0000
1000
0001
,  // measure 77
2000
0000
3020
0000
0230
0000
0301
1000
,  // measure 78
0010
0000
1000
0010
0000
0000
0100
0000
0100
0000
0001
0100
0000
0000
0001
0000
,  // measure 79
0001
0000
1000
0001
0000
0000
1000
0000
0100
0000
1000
0100
0000
0000
0010
0000
,  // measure 80
0001
0000
0100
0001
0000
0000
1000
0000
0001
0000
0000
1000
0000
0000
0010
0000
,  // measure 81
1000
0100
1000
0000
0010
0100
0000
0001
0000
1000
0001
0000
1000
0100
0010
0000
,  // measure 82
1000
0000
0000
0010
0000
0000
0100
0000
0001
0000
0000
0100
0000
0100
0010
0000
,  // measure 83
1000
0000
0000
0001
0000
0000
0100
0000
0001
1000
0000
0000
0010
0000
0100
0000
,  // measure 84
0001
0000
0000
0001
0000
0000
0010
0000
0100
0000
0000
0100
0000
0100
0010
0000
,  // measure 85
1000
0100
1000
0100
0002
0000
0013
0001
,  // measure 86
1000
0000
0000
1000
0000
0000
0010
0000
0100
0000
0000
0100
0000
0001
1000
0000
,  // measure 87
0010
0000
0000
0010
1000
0000
0100
0000
0001
0000
0000
0001
0100
0000
1000
0000
,  // measure 88
0010
0000
0000
0010
0000
0000
1000
0000
0100
0000
0010
0000
0001
0000
0100
0000
,  // measure 89
0010
0000
1000
0001
1000
0000
0010
0000
0100
0000
0010
0000
1001
0000
0000
0000
,  // measure 90
0101
0000
0001
0100
0000
0100
0001
0000
1000
0000
0001
0100
0010
0000
1000
0000
,  // measure 91
1001
0000
1000
0010
0000
0100
0001
0000
1000
0000
0100
0000
1001
0000
1000
0000
,  // measure 92
0001
0000
1000
0010
0000
0100
0001
0000
1000
0000
0100
0010
0001
0000
1000
0000
,  // measure 93
1010
0000
0001
0100
0001
0000
1000
0000
0100
0000
0010
0000
1001
0000
0000
0000
,  // measure 94
0001
0000
1000
0001
0000
1000
0001
0000
1000
0000
0100
0000
0010
0000
0001
0000
,  // measure 95
1000
0000
0010
1000
0000
0010
1000
0000
1000
0100
0000
0100
0010
0000
0001
0000
,  // measure 96
0100
0010
0100
0010
0100
0010
0100
0000
0001
1000
0001
1000
0001
1000
0001
0000
,  // measure 97
0100
0010
0100
0000
0001
0010
0001
0000
1000
0100
1000
0000
0110
0000
0000
0000
,  // measure 98
1010
0010
1010
0000
0011
0001
0011
0000
,  // measure 99
1000
0000
0000
0001
0000
0000
1000
0000
0110
0000
1000
0000
0001
0000
0100
0000
,  // measure 100
0101
0000
0101
1100
0000
1100
1001
0000
,  // measure 101
0010
0001
0100
0010
0000
1000
0000
0010
0100
0000
0101
0000
1001
0000
0000
0000
,  // measure 102
2002
0000
0000
0000
,  // measure 103
0000
0000
0000
0000
,  // measure 104
3003
0000
0000
0000
;
