#TITLE:Survival Of The Fittest;
#SUBTITLE:;
#ARTIST:Richie Branson;
#TITLETRANSLIT:;
#SUBTITLETRANSLIT:;
#ARTISTTRANSLIT:;
#GENRE:;
#CREDIT:;
#BANNER:Survival Of The Fittest.png;
#BACKGROUND:Survival Of The Fittest-bg.png;
#LYRICSPATH:;
#CDTITLE:;
#MUSIC:Survival Of The Fittest.ogg;
#OFFSET:-0.007000;
#SAMPLESTART:42.686668;
#SAMPLELENGTH:11.999996;
#SELECTABLE:YES;
#BPMS:0.000000=90.000000
;
#STOPS:
;
#BGCHANGES:;
#KEYSOUNDS:;
#ATTACKS:;

//---------------dance-single - ----------------
#NOTES:
     dance-single:
     :
     Hard:
     11:
     0.498032,0.485219,0.117250,0.015633,0.441641,446.000000,431.000000,15.000000,2.000000,0.000000,0.000000,0.498032,0.485219,0.117250,0.015633,0.441641,446.000000,431.000000,15.000000,2.000000,0.000000,0.000000:
0000
0000
0000
0000
,
0000
0000
0000
0000
,
0010
0000
0000
1000
0000
0000
0001
0000
0000
1000
0000
0001
0000
0000
0001
1000
0000
0000
0010
0000
0000
1000
0000
0000
,
0001
0000
0000
0100
0000
0010
0000
0000
0010
0100
0000
0001
0000
0000
1000
0000
0000
0001
1000
0000
0000
1001
0000
0000
,
0000
0000
0010
0000
1000
0100
0010
0001
0100
0000
0001
0100
0010
0000
1000
0000
,
0001
0100
0010
0000
1000
0000
0001
0010
0100
0000
1000
0000
0101
0000
1000
0100
,
1000
0000
0001
0100
0001
0000
0010
1000
0100
0000
1000
0000
0101
0000
1000
0010
,
1000
0000
0001
0100
0001
0000
1000
0010
0100
0000
0010
0000
1001
0000
1000
0100
,
1000
0000
0001
0000
0100
0010
0100
0000
0001
0000
1000
0000
0010
1000
0010
1000
,
0010
0000
0100
0001
0100
0001
0100
0000
0010
0000
0100
0000
0001
0010
0001
0010
,
0001
0000
1000
0100
1000
0100
1000
0000
0001
0000
0100
0000
1000
0010
1000
0001
,
1000
0000
0001
0010
0001
1000
0001
0000
0100
0000
0010
0000
1000
0100
1000
0000
,
0000
0000
0001
0100
0001
1000
0001
1000
0001
0000
0100
0000
0000
0000
0000
0000
,
0001
0100
0001
0100
0001
0000
1000
0010
1000
0000
0001
0000
0000
0000
0010
1000
,
0010
1000
0001
1000
0001
0000
1000
0100
1000
0000
0001
0000
0100
0010
0100
0010
,
1000
0001
1000
0001
0100
0010
0100
0010
1000
0000
0001
0000
0000
0000
0100
0010
,
1000
0000
0001
0100
0001
0000
1000
0001
1000
0000
0000
0000
0010
0000
0000
0000
,
0001
0000
1000
0100
1000
0000
0001
1000
0001
0000
0000
0000
0010
0000
0000
0000
,
1000
0000
0001
0100
0001
0000
1000
0001
1000
0000
0000
0000
0010
0000
0000
0000
,
1000
0000
0001
0100
0001
0000
1000
0001
0100
0000
0000
0000
0010
0000
0000
0000
,
1000
0000
0010
0100
0010
0000
1000
0001
1000
0000
0010
0000
0100
0000
0000
0000
,
0001
0000
1000
0100
1000
0000
0001
0100
0001
0000
1000
0000
0001
0000
0000
0000
,
0010
0000
1000
0010
1000
0000
0001
0100
0001
0000
1000
0000
0010
0000
0000
0000
,
1000
0000
0100
1000
0100
0000
0001
0100
0001
0000
1000
0000
1001
0000
0000
0000
,
0001
0000
0100
0000
1000
0000
0100
0000
0001
0100
0001
0100
0001
0000
0000
0000
,
1000
0000
0100
0000
0001
0000
0100
0000
1000
0100
1000
0100
1000
0000
0000
0000
,
0001
0000
1000
0000
0010
0000
0100
0000
0001
1000
0001
1000
0010
0000
0000
0000
,
1000
0000
0001
0000
0100
0000
0010
0000
1000
0001
1000
0001
0100
0000
0000
0000
,
0011
1000
0101
0000
1010
0001
0100
0010
,
1000
0001
1000
0001
1000
0000
0010
1000
0100
0000
1000
0000
0002
0000
0000
0000
,
0103
0000
0100
0000
0001
0000
1000
0001
1000
0000
0010
0000
0010
0000
1000
0100
,
1000
0001
0010
0100
1000
0001
0100
0001
,
1000
0000
0011
0100
1000
0001
0101
0000
,
1000
0100
0001
1000
0010
0001
1001
0000
,
0001
0010
0100
1000
0100
0010
1001
0000
,
1100
0010
0001
0100
1000
0100
1001
0000
,
0010
0001
0100
0001
0010
0000
1000
0000
0010
1000
0100
1000
0010
0000
0000
0000
,
0001
1000
0100
1000
0001
0000
0010
0000
1000
0001
0010
0001
1000
0000
0000
0000
,
0001
0100
0010
0100
0001
0000
1000
0100
0010
0000
0100
0000
0001
0000
0100
0010
,
0001
0000
1000
0000
0010
0000
0100
0010
1000
0010
0100
0000
1001
0000
0000
0000
,
1000
0000
0001
0100
0001
0000
1000
0001
1000
0000
0000
0000
0010
0000
0000
0000
,
0001
0000
1000
0100
1000
0000
0001
1000
0001
0000
0000
0000
0010
0000
0000
0000
,
1000
0000
0001
0100
0001
0000
1000
0001
1000
0000
0000
0000
0010
0000
0000
0000
,
1000
0000
0001
0100
0001
0000
1000
0001
0100
0000
0000
0000
0010
0000
0000
0000
,
1000
0000
0010
0100
0010
0000
1000
0001
1000
0000
0010
0000
0100
0000
0000
0000
,
0001
0000
1000
0100
1000
0000
0001
0100
0001
0000
1000
0000
0001
0000
0000
0000
,
0010
0000
1000
0010
1000
0000
0001
0100
0001
0000
1000
0000
0001
1000
0001
1000
,
0000
0010
0100
0001
1000
0100
0010
0001
2000
0000
0000
0000
3000
0000
0000
0000
;

//---------------dance-double - ----------------
#NOTES:
     dance-double:
     :
     Hard:
     11:
     0.460066,0.466556,0.062533,0.070350,0.324391,412.000000,404.000000,8.000000,9.000000,0.000000,0.000000,0.460066,0.466556,0.062533,0.070350,0.324391,412.000000,404.000000,8.000000,9.000000,0.000000,0.000000:
// measure 0
00000000
00000000
00000000
00000000
,  // measure 1
00000000
00000000
00000000
00000000
,  // measure 2
00100000
00001000
00010000
00000010
00001000
00000001
00000101
00000001
,  // measure 3
00001000
00000100
00010000
00001000
01000000
00100000
10010000
00000000
,  // measure 4
00000000
00000000
00100000
00000000
10000000
00100000
10000000
00000000
00010000
00000000
00100000
00000000
00001000
00000000
00010000
00000000
,  // measure 5
00000100
00010000
00000100
00000000
00001000
00000000
00000100
00000000
00010000
00000000
00000010
00000000
00001000
00000000
00000001
00000010
,  // measure 6
00000001
00000000
00001000
00000100
00001000
00000000
00000010
00001000
00000100
00000000
00010000
00000000
00001000
00000000
01000000
00000000
,  // measure 7
00010000
00000000
10000000
00010000
00100000
00000000
00010000
00000000
10000000
00000000
01000000
00000000
00110000
00000000
00000000
00000000
,  // measure 8
00001000
00000000
00010000
00000000
00000100
00010000
00000100
00000000
00001000
00000000
00000010
00000000
00000001
00000000
00000010
00000000
,  // measure 9
00001000
00000000
00000100
00000000
00010000
00001000
00010000
00000000
00001000
00000000
00100000
00000000
00010000
00000000
10000000
00000000
,  // measure 10
00100000
00000000
01000000
00000000
00010000
00100000
00010000
00000000
01000000
00000000
00010000
00000000
10000000
00000000
00010000
00000000
,  // measure 11
00100000
00000000
00001000
00000000
00010000
00001000
00010000
00000000
00000100
00000000
00001000
00000000
00000001
00000000
00000010
00000000
,  // measure 12
00000100
00000000
00000001
00001000
00000001
00000100
00000001
00001000
00000001
00000000
00001000
00000000
00000100
00000000
00010000
00000000
,  // measure 13
00001000
00000000
00100000
00010000
00100000
00001000
00100000
00010000
01000000
00000000
00100000
00000000
10000000
00000000
01000000
00000000
,  // measure 14
10000000
00000000
00010000
00100000
00010000
01000000
00010000
10000000
00010000
00000000
00100000
00000000
00001000
00010000
00001000
00000000
,  // measure 15
00010000
00000000
00000100
00001000
00000010
00000000
00001000
00000100
00000010
00000000
00000001
00000000
00001000
00000000
00000001
00000100
,  // measure 16
00000010
00000000
00000010
00000000
00001000
00000100
00000010
00000100
00001000
00000000
00000000
00000000
00010000
00000000
00000000
00000000
,  // measure 17
00001000
00000000
01000000
00000000
00010000
10000000
00010000
00100000
00010000
00000000
00000000
00000000
00001000
00000000
00000000
00000000
,  // measure 18
00010000
00000000
00000100
00000000
00001000
00000100
00000010
00000100
00001000
00000000
00000000
00000000
00000001
00000000
00000100
00000000
,  // measure 19
00000010
00000000
00001000
00000000
00000100
00010000
00001000
00010000
00000100
00000000
00000000
00000000
00010000
00000000
00001000
00000000
,  // measure 20
01000000
00000000
00100000
00000000
10000000
01000000
00100000
01000000
10000000
00000000
00000000
00000000
00010000
00000000
00000000
00000000
,  // measure 21
00100000
00000000
00001000
00000000
00010000
00000100
00010000
00001000
00010000
00000000
00000000
00000000
00000100
00000000
00001000
00000000
,  // measure 22
00000010
00000000
00000001
00000000
00001000
00000100
00000010
00000001
00000100
00000000
00000000
00000000
00000010
00000000
00001000
00000000
,  // measure 23
00000100
00000000
00001000
00000000
00000100
00010000
00001000
00010000
00000100
00000000
00000000
00000000
00010000
00000000
00000000
00000000
,  // measure 24
00002000
00000000
02003000
00000000
03010000
00010000
10010000
00000000
,  // measure 25
00200000
00000000
00302000
00000000
00013000
00010000
00010100
00000000
,  // measure 26
00002000
00000000
00003002
00000000
00000103
00000100
00000110
00000000
,  // measure 27
00000020
00000000
00020030
00000000
00031000
00001000
00011000
00000000
,  // measure 28
00100000
00010000
01000000
10000000
01000000
00010000
00100000
00001000
,  // measure 29
00010000
00000010
00000100
00000010
00001000
00000100
00000001
00000010
,  // measure 30
00001000
00000000
00000010
00000000
00000001
00000000
00000100
00000001
00000010
00000001
00000100
00000000
00000010
00000000
00001000
00000000
,  // measure 31
00000100
00000000
00010000
00000000
00001000
00000000
00010000
00001000
00010000
00001000
00010000
00000000
00001000
00000000
01000000
00000000
,  // measure 32
00010000
00000000
00000000
00000000
10010000
00000000
00000000
00000000
10000000
00100000
01000000
00010000
10000000
00000000
00010000
00000000
,  // measure 33
00100000
00000000
00001000
00000000
00010000
00000000
00000100
00001000
00000010
00001000
00000100
00000000
00001000
00000000
00000000
00000000
,  // measure 34
00000010
00000000
00001000
00000000
00000001
00000000
00001000
00000100
00000010
00000001
00001000
00000000
00000100
00000000
00010000
00000000
,  // measure 35
00001000
00000000
01000000
00000000
00010000
00000000
10000000
01000000
00100000
01000000
10000000
00000000
00010000
00000000
00100000
00000000
,  // measure 36
00001000
00010000
00000100
00010000
00001000
00000000
00010000
00000000
00001000
01000000
00010000
01000000
00001000
00000000
00000000
00000000
,  // measure 37
10000000
00100000
01000000
00100000
10000000
00000000
00010000
00000000
00100000
00001000
00010000
00001000
00100000
00000000
00000000
00000000
,  // measure 38
00001000
00000000
00010000
00000100
00010000
00000000
00000100
00000000
00001000
00000010
00000100
00000001
00001000
00000000
00000010
00000000
,  // measure 39
00001000
00000100
00010000
00000100
00001000
00000000
00000100
00000000
00010000
00001000
01000000
00001000
00010000
00000000
00000100
00000000
,  // measure 40
00001000
00000000
00000010
00000000
00001000
00000100
00000010
00000100
00001000
00000000
00000000
00000000
00010000
00000000
00000000
00000000
,  // measure 41
00001000
00000000
01000000
00000000
00010000
10000000
00010000
00100000
00010000
00000000
00000000
00000000
00001000
00000000
00000000
00000000
,  // measure 42
00010000
00000000
00000100
00000000
00001000
00000100
00000010
00000100
00001000
00000000
00000000
00000000
00000001
00000000
00000100
00000000
,  // measure 43
00000010
00000000
00001000
00000000
00000100
00010000
00001000
00010000
00000100
00000000
00000000
00000000
00010000
00000000
00001000
00000000
,  // measure 44
01000000
00000000
00100000
00000000
10000000
01000000
00100000
01000000
10000000
00000000
00000000
00000000
00010000
00000000
00000000
00000000
,  // measure 45
00100000
00000000
00001000
00000000
00010000
00000100
00010000
00001000
00010000
00000000
00000000
00000000
00000100
00000000
00001000
00000000
,  // measure 46
00000010
00000000
00000001
00000000
00001000
00000100
00000010
00000001
00000100
00000000
00000000
00000000
00000010
00000000
00000000
00000000
,  // measure 47
00000000
00001000
00000100
00000010
00000001
00000010
00000100
00000000
00020000
00000000
00000000
00000000
00030000
00000000
00000000
00000000
;

//---------------dance-single - ----------------
#NOTES:
     dance-single:
     :
     Beginner:
     1:
     0.096033,0.092823,0.000000,0.031267,0.000000,86.000000,86.000000,0.000000,4.000000,0.000000,0.000000,0.096033,0.092823,0.000000,0.031267,0.000000,86.000000,86.000000,0.000000,4.000000,0.000000,0.000000:
0000
0000
0000
0000
,
0000
0000
0000
0000
,
0001
0000
0000
0000
,
1000
0000
0000
0000
,
0000
0001
0000
0001
,
0000
1000
0000
1000
,
0000
0001
0000
0001
,
0000
1000
0000
1000
,
0000
0001
0000
1000
,
0000
0001
0000
0001
,
0000
1000
0000
0001
,
0000
1000
0000
1000
,
0000
0001
0000
0001
,
0000
0100
0000
0001
,
0000
1000
0000
1000
,
0000
0100
0000
1000
,
0000
0001
0001
0000
,
0000
1000
1000
0000
,
0000
0001
0001
0000
,
0000
1000
1000
0000
,
0000
0010
0010
0000
,
0000
0001
0001
0000
,
0000
0100
0100
0000
,
0000
1000
1000
0000
,
0001
0000
0000
0000
,
1000
0000
0000
0000
,
0010
0000
0000
0000
,
0100
0000
0000
0000
,
0000
0001
0000
1000
,
0000
0010
0000
0100
,
0000
1000
0000
0001
,
0000
0100
0000
0010
,
0000
2000
3000
1000
,
0000
0002
0003
0001
,
0000
0200
0300
0100
,
0000
0020
0030
0010
,
0000
0001
0000
0100
,
0000
1000
0000
0100
,
0000
0001
0000
0010
,
0000
1000
0000
0010
,
0000
0001
0001
0000
,
0000
1000
1000
0000
,
0000
0010
0010
0000
,
0000
0100
0100
0000
,
0000
0001
0001
0000
,
0000
1000
1000
0000
,
0000
0010
0010
0000
,
0000
0100
0100
0000
;

//---------------dance-single - ----------------
#NOTES:
     dance-single:
     :
     Easy:
     3:
     0.129533,0.167960,0.039083,0.093800,0.000000,116.000000,111.000000,5.000000,12.000000,0.000000,0.000000,0.129533,0.167960,0.039083,0.093800,0.000000,116.000000,111.000000,5.000000,12.000000,0.000000,0.000000:
0000
0000
0000
0000
,
0000
0000
0000
0000
,
0002
0000
0003
0000
,
2000
0000
3000
0000
,
0020
0000
0030
0000
,
0200
0000
0300
0000
,
2000
0000
3000
0000
,
0002
0000
0003
0000
,
0000
1000
0000
0001
,
0000
1000
0000
0001
,
0000
0100
0000
0010
,
0000
0100
0000
0010
,
0000
1000
0000
1001
,
0000
0001
0000
1001
,
0000
0010
0000
1001
,
0000
0100
0000
1001
,
0100
0010
0100
0000
,
0001
1000
0001
0000
,
0010
0100
0010
0000
,
1000
0001
1000
0000
,
0001
1000
0100
0000
,
1000
0001
0100
0000
,
0010
1000
0001
0000
,
0010
0001
1000
0000
,
0002
0000
0003
0000
,
2000
0000
3000
0000
,
0020
0000
0030
0000
,
0020
0000
0030
0000
,
0000
1000
0001
0100
,
0000
0001
1000
0100
,
0000
1000
0001
0010
,
0000
0001
1000
0010
,
1000
0001
0100
0100
,
0001
1000
0100
0100
,
1000
0001
0010
0010
,
0001
1000
0010
0010
,
1000
0000
0001
0000
,
0100
0000
0010
0000
,
1000
0001
1000
0000
,
0001
1000
0001
0000
,
0010
0001
0100
0000
,
0010
1000
0100
0000
,
0001
0100
1000
0000
,
1000
0100
0001
0000
,
0100
1000
0010
0000
,
0100
0001
0010
0000
,
0001
0010
1000
0000
,
0000
0010
2002
3003
;

//---------------dance-double - ----------------
#NOTES:
     dance-double:
     :
     Easy:
     3:
     0.140700,0.167960,0.062533,0.093800,0.000000,126.000000,118.000000,8.000000,12.000000,0.000000,0.000000,0.140700,0.167960,0.062533,0.093800,0.000000,126.000000,118.000000,8.000000,12.000000,0.000000,0.000000:
00000000
00000000
00000000
00000000
,
00000000
00000000
00000000
00000000
,
00020000
00000000
00030000
00000000
,
00002000
00000000
00003000
00000000
,
00020000
00000000
00030000
00000000
,
00002000
00000000
00003000
00000000
,
00200000
00000000
00300000
00000000
,
00020000
00000000
00030000
00000000
,
00001000
00000001
00000000
00000001
,
00001000
00000100
00000000
00000100
,
00010000
00001000
00000000
00001000
,
01000000
00010000
00000000
00010000
,
00000000
10000000
00000000
01000000
,
00000000
00100000
00000000
00010000
,
00000000
00001000
00000000
00010000
,
00000000
00000100
00000000
00000010
,
00000001
00000001
00001001
00000000
,
00000100
00000100
00010000
00000000
,
00001000
00001000
01000000
00000000
,
10000000
10000000
10010000
00000000
,
00010000
00010000
10010000
00000000
,
00100000
00100000
00001000
00000000
,
00010000
00010000
00000010
00000000
,
00000001
00000001
00001001
00000000
,
00000020
00000000
00000030
00000000
,
00020000
00000000
00030000
00000000
,
00002000
00000000
00003000
00000000
,
00200000
00000000
00300000
00000000
,
00010000
01000000
10000000
00000000
,
10000000
00100000
00010000
00000000
,
00001000
00000100
00000010
00000001
,
00001000
00000100
00001000
00010000
,
00001000
00010000
01000000
00010000
,
10000000
01000000
00100000
00010000
,
10000000
00010000
00100000
00100000
,
00001000
00010000
00000010
00000010
,
00010000
00000000
00001000
00000000
,
00010000
00000000
00001000
00000000
,
00010000
00010000
00001000
00001000
,
00010000
00001000
00000100
00000000
,
00001000
00001000
00001001
00000000
,
00000100
00000100
00010000
00000000
,
00001000
00001000
01000000
00000000
,
00010000
00010000
10010000
00000000
,
10000000
10000000
10010000
00000000
,
00100000
00100000
00001000
00000000
,
00010000
00010000
00000010
00000000
,
00000000
00000100
00022000
00033000
;

//---------------dance-double - ----------------
#NOTES:
     dance-double:
     :
     Medium:
     6:
     0.228916,0.261272,0.070350,0.039083,0.000000,205.000000,196.000000,9.000000,5.000000,0.000000,0.000000,0.228916,0.261272,0.070350,0.039083,0.000000,205.000000,196.000000,9.000000,5.000000,0.000000,0.000000:
00000000
00000000
00000000
00000000
,
00000000
00000000
00000000
00000000
,
00100000
10000000
01000000
00010000
,
00001000
00000010
00000001
00000100
,
00000010
00001000
00000100
00010000
,
01000000
10000000
01000000
00010000
,
10000000
00100000
01000000
00010000
,
00001000
00010000
01000000
00001000
,
00000100
00000001
00000010
00000001
,
00000100
00010000
00001000
01000000
,
00100000
10000000
01000000
00010000
,
00100000
00001000
00010000
00000010
,
00001000
00000100
00001000
00000000
00000001
00000000
00001000
00000000
,
00000100
00010000
00000100
00000000
00010000
00000000
00001000
00000000
,
01000000
00010000
01000000
00000000
00100000
00000000
10000000
00000000
,
00010000
10000000
00010000
00000000
00100000
00000000
10010000
00000000
,
10000000
00000000
00100000
01000000
00100000
00000000
00000000
00000000
,
00001000
00000000
00010000
00000100
00010000
00000000
00000000
00000000
,
00000010
00000000
00001000
00000001
00001000
00000000
00000000
00000000
,
00000100
00000000
00010000
00001000
00010000
00000000
00000000
00000000
,
00001000
00000000
01000000
00100000
01000000
00000000
00000000
00000000
,
00100000
00000000
10000000
01000000
10000000
00000000
00000000
00000000
,
00010000
00000000
00100000
00001000
00100000
00000000
00000000
00000000
,
00001000
00000000
00010000
00000010
00010000
00000000
00000000
00000000
,
00000200
00000300
00002000
00003000
,
00000020
00000030
00000002
00000003
,
00000100
00001000
00000100
00000000
00010000
00000000
00001000
00000000
,
01000000
00010000
01000000
00000000
00001000
00000000
00010000
00000000
,
00000010
00000000
00001001
00000000
00001000
00000100
00001000
00000000
,
00000100
00000000
00010100
00000000
00010000
00001000
00010000
00000000
,
00001000
00000000
01001000
00000000
01000000
00010000
01000000
00000000
,
00100000
00000000
10010000
00000000
10000000
00100000
01000000
00000000
,
00010000
00100000
00010000
00000000
01000000
00000000
10000000
00000000
,
00100000
00010000
00100000
00000000
10000000
00000000
01000000
00000000
,
00001000
00010000
00001000
00000000
00010000
00000000
00000010
00000000
,
00001000
00000001
00001000
00000000
00000100
00000000
00010000
00000000
,
00001000
01000000
00001000
00000000
01000000
00000000
00100000
00000000
,
10000000
00100000
10000000
00000000
00100000
00000000
01000000
00000000
,
00001000
00010000
00001000
00000000
00010000
00001000
00010000
00000000
,
00000010
00001000
00000100
00000000
00000010
00000001
00000100
00000000
,
00000000
00000000
00000001
00001000
00001100
00000000
00000000
00000000
,
00000000
00000000
00010000
00001000
01001000
00000000
00000000
00000000
,
00000000
00000000
10000000
00100000
10100000
00000000
00000000
00000000
,
00000000
00000000
00001000
00010000
00010100
00000000
00000000
00000000
,
00000000
00000010
00001000
00000100
00001000
00000000
00000000
00000000
,
00000000
00010000
00001000
01000000
00001000
00000000
00000000
00000000
,
00000000
00100000
10000000
01000000
00010000
00000000
00000000
00000000
,
00000000
00000010
00000001
00000100
00002000
00000000
00003000
00000000
;

//---------------dance-single - ----------------
#NOTES:
     dance-single:
     :
     Medium:
     6:
     0.235616,0.261272,0.093800,0.039083,0.000000,211.000000,199.000000,12.000000,5.000000,0.000000,0.000000,0.235616,0.261272,0.093800,0.039083,0.000000,211.000000,199.000000,12.000000,5.000000,0.000000,0.000000:
0000
0000
0000
0000
,
0000
0000
0000
0000
,
0010
1000
0100
0001
,
0010
0001
0100
1000
,
0010
1000
0010
0001
,
0100
1000
0100
0001
,
1000
0010
0100
0001
,
0010
0001
0100
1000
,
0001
0010
0100
1000
,
0010
0001
0100
1000
,
0010
0000
0010
0000
1000
0001
1000
0000
,
0010
0000
0010
0000
0001
1000
0001
0000
,
0100
0001
0100
0000
0010
0000
0010
0000
,
1000
0010
1000
0000
0100
0000
0100
0000
,
0001
1001
0010
1000
,
1000
1001
0010
0001
,
1000
0000
0010
0100
0010
0000
0000
0000
,
0001
0000
0100
0010
0100
0000
0000
0000
,
0010
0000
1000
0001
1000
0000
0000
0000
,
0100
0000
0001
1000
0001
0000
0000
0000
,
1000
0000
0100
0010
0100
0000
0000
0000
,
0010
0000
1000
0100
1000
0000
0000
0000
,
0001
0000
0010
1000
0010
0000
0000
0000
,
0000
0000
0001
0010
0001
0000
0000
0000
,
0200
0300
2000
3000
,
0020
0030
0002
0003
,
0100
1000
0100
0000
0001
0000
1000
0000
,
0100
0001
0100
0000
1000
0000
0001
0000
,
0010
0000
1001
0000
0010
0100
0010
0000
,
0010
0000
1001
0000
0100
0010
0100
0000
,
0001
0000
0010
0000
1000
0001
0100
0000
,
1000
0000
0010
0000
0001
1000
0100
0000
,
0001
0010
0001
0000
0100
0000
1000
0000
,
0010
0001
0010
0000
1000
0000
0100
0000
,
1000
0001
1000
0000
0001
0000
0010
0000
,
0001
1000
0001
0000
0100
0000
0001
0000
,
1000
1001
0100
0110
,
1000
0010
1000
0000
0010
0001
0100
0000
,
0010
0001
0010
0000
0001
0100
0010
0000
,
1000
0001
0100
0000
0010
1000
0001
0000
,
0000
0000
1000
0001
1001
0000
0010
0000
,
0000
0000
0001
1000
1001
0000
0010
0000
,
0000
0000
1000
0010
0110
0000
1001
0000
,
0000
0000
0001
0100
0110
0000
1001
0000
,
0000
0001
0010
0100
1000
0000
0000
0000
,
0000
0001
1000
0010
0100
0000
0000
0000
,
0000
0010
1000
0100
0001
0000
0000
0000
,
0000
0010
0001
0100
2000
0000
3000
0000
;
