#TITLE:Summer's End;
#SUBTITLE:;
#ARTIST:Nhato;
#TITLETRANSLIT:;
#SUBTITLETRANSLIT:;
#ARTISTTRANSLIT:;
#GENRE:;
#CREDIT:;
#BANNER:Summer's End.png;
#BACKGROUND:Summer's End-bg.png;
#LYRICSPATH:;
#CDTITLE:;
#MUSIC:Summer's End.ogg;
#OFFSET:1.900000;
#SAMPLESTART:76.195244;
#SAMPLELENGTH:13.333336;
#LASTBEATHINT:1.890000;
#SELECTABLE:YES;
#BPMS:0.000000=125.999992
;
#STOPS:63.833332=1.429000,
125.000000=0.476000
;
#BGCHANGES:;
#KEYSOUNDS:;
#ATTACKS:;

//---------------dance-single - ----------------
#NOTES:
     dance-single:
     :
     Hard:
     13:
     0.460093,0.529046,0.377890,0.051530,0.425126,375.000000,331.000000,44.000000,6.000000,0.000000,0.000000,0.460093,0.529046,0.377890,0.051530,0.425126,375.000000,331.000000,44.000000,6.000000,0.000000,0.000000:
0000
0000
0000
0000
,
0000
0000
0000
0000
,
0000
0000
0000
0000
,
0000
0000
0000
0000
,
0000
0000
0000
0000
,
1010
0000
0000
0000
0001
0000
0000
0001
0000
0000
0001
0000
0000
0100
0000
0000
,
1000
0000
0000
1000
0000
0000
1000
0000
0000
1000
0000
0000
0001
0000
1000
0000
,
1001
0000
0000
0000
0010
0000
0000
0010
0000
0000
0010
0000
0000
1000
0000
0000
,
0100
0000
0000
0100
0000
0000
0100
0000
0000
0100
0000
0000
1001
0000
0000
0000
,
1100
0000
0000
0000
0001
0000
0000
0010
0001
0000
0100
0000
0010
0000
1000
0000
,
0001
0000
0000
0000
1000
0000
0000
0010
1000
0000
0001
0000
0100
0000
0010
0000
,
1000
0000
0000
0000
0011
0000
0000
0100
0001
0000
1000
0000
0010
0000
0100
0000
,
0100
0000
0000
0000
1010
0000
0000
0100
0001
0000
1000
0000
0010
0000
1000
0000
,
0001
0000
0100
0001
0000
0100
0001
0000
1000
0010
0000
1000
0010
0000
1000
0000
,
0001
0000
0100
0010
0000
0100
0010
0000
1000
0100
0000
1000
0100
0000
1000
0000
,
0010
0010
0010
0010
0010
0010
0010
0010
,
1001
0000
0000
0000
0110
0000
0000
0000
0001
1000
0000
1000
0000
0000
0010
0000
,
0000
0010
0000
0000
1000
0000
0000
1000
0000
0000
0001
1000
0100
1000
0001
0000
,
1000
0100
1000
0000
0010
0000
0000
0000
0100
0000
0000
0100
0000
0000
0001
1000
,
0000
1000
0001
0000
1000
0000
0010
0000
0100
0000
0001
0000
1000
0010
1000
0000
,
0001
0100
0001
1000
0010
0000
0000
0000
1100
0000
0000
1000
0100
0000
0010
0000
,
0001
0010
0100
0000
0010
0000
0000
0010
0001
0000
1000
0010
0100
0001
1000
0000
,
0001
0000
0100
0000
0010
0000
0000
0000
1010
0000
0000
1000
0001
0000
1000
0000
,
0000
1000
0001
1000
0010
0000
0100
0000
1000
0000
0100
0000
0010
0000
1000
0001
,
0000
0000
1000
0000
1010
0000
0000
0000
0001
0000
0100
0010
0000
0000
0001
0000
,
1000
0010
0000
0000
1000
0000
0000
0001
0010
0000
0001
0100
0010
0100
0001
0000
,
1000
0001
0100
0001
0010
0000
0000
0000
0100
0000
0010
1000
0000
0000
0001
0000
,
0100
0001
1000
0000
0010
0000
1000
0000
0010
0000
0100
0001
0000
1000
0000
0100
,
1000
0000
0001
0000
0010
0000
0000
0000
0011
0000
0001
0100
0000
0000
0010
0000
,
1000
0010
0000
0000
1000
0000
0000
0001
0100
0000
0001
1000
0100
0000
1000
0000
,
0010
0000
0100
0000
0001
0000
0000
0000
1010
0000
0000
1001
0000
0000
1100
0000
,
0000
0010
1000
0010
0100
0000
0000
0000
0001
1000
0001
1000
0010
0100
0001
0000
,
2000
0000
0000
0000
,
3020
0000
0000
0000
,
0032
0000
0000
0000
,
0203
0000
0000
0000
,
1300
0000
0000
0000
0001
0000
0000
0001
0000
0000
0100
0000
0000
1000
0000
0000
,
0110
0000
0000
0000
1000
0000
0000
1000
0000
0000
0100
0000
0000
0001
0000
0000
,
0110
0010
0010
0010
0010
0010
0010
0010
,
2000
0000
0002
3003
,
1100
0000
0000
0000
0101
0000
0000
0001
0000
0000
1001
0000
0000
1000
0000
0000
,
1010
0000
0000
0010
0000
0000
0110
0000
0000
0100
0000
0000
0001
0000
0100
0000
,
1001
0000
0000
0000
1010
0000
0000
0010
0000
0000
0110
0000
0000
0100
0000
0000
,
0101
0000
0000
0001
0000
0000
1001
0000
0000
1000
0000
0000
1010
0000
0100
0000
,
0001
0000
0000
0000
1010
0000
0000
0010
0000
0000
0101
0000
0000
0100
0000
0000
,
1001
0000
0000
1000
0000
0000
0011
0000
0000
0010
0000
0000
0101
0000
1000
0000
,
0010
0000
0000
0000
1001
0000
0000
0001
0000
0000
1010
0000
0000
1000
0000
0000
,
0101
0000
0000
0001
0000
0000
1000
0000
0001
0000
0100
0000
0010
0000
1000
0000
,
0001
0000
0000
0000
1100
0000
0000
0001
0100
0000
0010
0000
0000
0100
0000
0000
,
0001
0000
0000
1000
0001
0000
1000
0000
0000
0010
0000
0000
0100
0000
0001
0000
,
1001
0000
0000
0000
1010
0000
0000
0001
0100
0000
0010
0000
0000
1010
0000
0000
,
0100
0000
0000
0001
1000
0000
0010
0000
0000
1100
0000
0000
0001
0000
0100
0000
,
0110
0000
0000
0000
1001
0000
0000
1000
0000
0000
1000
0000
0000
0100
0000
0000
,
0001
0000
0000
0001
0000
0000
0010
0000
0000
1000
0000
0000
1000
0000
0100
0000
,
0001
0000
0000
0000
0010
0000
0000
0010
0000
0000
0001
0000
0000
0100
0000
0000
,
1000
0000
0000
1000
0000
0000
1000
0000
0000
0010
0000
0000
0001
0000
0100
0000
,
1001
0000
0000
0000
;

//---------------dance-double - ----------------
#NOTES:
     dance-double:
     :
     Hard:
     13:
     0.473589,0.577141,0.609777,0.068707,0.420832,386.000000,315.000000,71.000000,8.000000,0.000000,0.000000,0.473589,0.577141,0.609777,0.068707,0.420832,386.000000,315.000000,71.000000,8.000000,0.000000,0.000000:
00000000
00000000
00000000
00000000
,
00000000
00000000
00000000
00000000
,
00000000
00000000
00000000
00000000
,
00000000
00000000
00000000
00000000
,
00000000
00000000
00000000
00000000
,
01010000
00000000
00000000
00000000
10000000
00000000
00000000
10000000
00000000
00000000
00100000
00000000
00000000
00010000
00000000
00000000
,
01000000
00000000
00000000
01000000
00000000
00000000
01000000
00000000
00000000
00001000
00000000
00000000
00010000
00000000
00000010
00000000
,
00000100
00000000
00000000
00000000
00001001
00000000
00000000
00000001
00000000
00000000
00000001
00000000
00000000
00001000
00000000
00000000
,
00000100
00000000
00000000
00000100
00000000
00000000
00000100
00000000
00000000
00010000
00000000
00000000
00001000
00000000
00100000
00000000
,
00110000
00000000
00000000
00000000
10010000
00000000
00000000
10000000
00100000
00000000
10000000
00000000
00010000
00000000
01000000
00000000
,
00010000
00000000
00000000
00000000
00110000
00000000
00000000
00100000
00001000
00000000
00010000
00000000
00001000
00000000
00010000
00000000
,
00000100
00000000
00000000
00000000
00001100
00000000
00000000
00000010
00001000
00000000
00000001
00000000
00001000
00000000
00000100
00000000
,
00001000
00000000
00000000
00000000
00010100
00000000
00000000
00010000
00001000
00000000
00010000
00000000
00001000
00000000
00100000
00000000
,
00010000
00000000
00010000
01000000
00000000
00000000
00010000
00000000
00000000
10000000
00000000
00000000
00100000
00000000
00000000
10000000
,
00100000
00000000
10000000
00000000
00000000
00010000
00000000
00000000
00100000
00000000
00000000
00001000
00000000
00000000
00010000
00000000
,
00000100
00000100
00000100
00000100
00000100
00000100
00000100
00000100
,
00110000
00000000
00000000
00000000
20000000
00000000
00000000
00000000
30100000
01000000
00000000
01000000
00000000
00000000
00010000
00000000
,
00000000
10000000
00000000
00000000
00100000
00000000
00000000
00100000
00000000
00000000
10000000
00100000
01000000
00010000
01000000
00000000
,
00010000
00000000
00100000
00000000
00001000
00000000
00000000
00000000
00010000
00001000
00000000
00001000
00000000
00000000
00010000
00000000
,
00000000
00000100
00010000
00000000
00001000
00000000
00000000
00001000
00000000
00000000
00010000
00000000
00000100
00000000
00001000
00000000
,
00000001
00000000
00000001
00000000
00001000
00000000
00000000
00000000
00000010
00001000
00000000
00001000
00000000
00000000
00000100
00000000
,
00000000
00010000
00000000
00000000
00001000
00000000
00000000
01000000
00000000
00000000
00010000
00100000
01000000
00100000
00010000
00000000
,
10000000
00000000
00100000
00000000
10000000
00000000
00000000
00000000
00110000
00000000
00000000
01010000
00000000
00000000
10010000
00000000
,
00000000
01000000
00010000
10000000
00200000
00000000
00000000
00000000
10300000
00000000
00000000
00000000
00010000
00000000
00100000
00001000
,
00000000
00000000
00010000
00000000
00010100
00000000
00000000
00000000
00011000
00000000
00000000
00011000
00000000
00000000
00101000
00000000
,
00000000
00101000
00000000
00000000
00011000
00000000
00000000
00011000
00000000
00000000
00001000
00100000
00010000
00100000
00001000
00000000
,
00100000
00010000
01000000
00100000
10000000
00000000
00000000
00000000
10100000
00000000
00000000
10100000
00000000
00000000
01010000
00000000
,
00000000
10000000
00010000
00000000
00100000
00000000
00001000
00000000
00100000
00000000
00001000
00010000
00000100
00010000
00000000
00001000
,
00010000
00000000
00000100
00000000
00001000
00000000
00000000
00000000
00000110
00000000
00000000
00000110
00000000
00000000
00001010
00000000
,
00000000
00001001
00000000
00000000
00001010
00000000
00000000
00001010
00000000
00000000
00000010
00001000
00000100
00001000
00000100
00000000
,
00010000
00000100
00010000
00001000
00010000
00000000
00000000
00000000
00101000
00000000
00000000
00100000
00000000
00000000
00110000
00000000
,
00000000
00010000
01000000
00100000
10000000
00000000
00000000
00000000
01000000
00100000
00000000
00100000
10000000
00010000
10000000
01000000
,
20000000
00000000
00000000
00000000
,
30020000
00000000
00000000
00000000
,
00032000
00000000
00000000
00000000
,
00003002
00000000
00000000
00001003
,
00000110
00000000
00000000
00000000
00000001
00000000
00000000
00000001
00000000
00000000
00000100
00000000
00000000
00001000
00000000
00000000
,
00010000
00000000
00000000
00000000
00010000
00000000
00000000
00010000
00000000
00000000
01000000
00000000
00000000
10000000
00000000
00000000
,
01000000
00100000
01000000
00100000
10000000
00010000
10000000
00010000
,
00200000
00000000
00002000
00303000
,
00011000
00000000
00000000
00000000
00010100
00000000
00000000
00000100
00000000
00000000
00001100
00000000
00000000
00001000
00000000
00000000
,
00001010
00000000
00000000
00000010
00000000
00000000
00000110
00000000
00000000
00000100
00000000
00000000
00000001
00000000
00001000
00000000
,
00001100
00000000
00000000
00000000
00000100
00000000
00000000
00010100
00000000
00000000
00010000
00000000
00000000
00011000
00000000
00000000
,
00001000
00000000
00000000
00101000
00000000
00000000
00100000
00000000
00000000
00110000
00000000
00000000
00010000
00000000
01000000
00000000
,
10010000
00000000
00000000
00000000
10100000
00000000
00000000
00100000
00000000
00000000
01010000
00000000
00000000
00010000
00000000
00000000
,
00011000
00000000
00000000
00001000
00000000
00000000
00001100
00000000
00000000
00000100
00000000
00000000
00000001
00000000
00001000
00000000
,
00001100
00000000
00000000
00000000
00001010
00000000
00000000
00000010
00000000
00000000
00001100
00000000
00000000
00000100
00000000
00000000
,
00010100
00000000
00000000
00010000
00000000
00000000
00011000
00000000
00001000
00000000
00100000
00000000
00010000
00000000
01000000
00000000
,
10100000
00000000
00000000
00000000
01010000
00000000
00000000
01000000
00010000
00000000
00100000
00000000
00001000
00010000
00000000
00000000
,
00000100
00000000
00000000
00010000
00000100
00000000
00001000
00000000
00000010
00001000
00000000
00000000
00000101
00000000
00001000
00000000
,
00001100
00000000
00000000
00000000
00000100
00000000
00000000
00010000
00001000
00000000
00100000
00000000
00001000
00100000
00000000
00000000
,
00010000
00000000
00000000
01000000
00100000
00000000
10000000
00000000
00100000
01000000
00000000
00000000
10010000
00000000
00100000
00000000
,
10000000
00000000
00000000
00000000
01010000
00000000
00000000
10010000
00000000
00000000
01010000
00000000
00000000
10010000
00000000
00000000
,
00110000
00000000
00000000
00110000
00000000
00000000
00110000
00000000
00000000
00110000
00000000
00000000
00100000
00000000
00001000
00000000
,
00010000
00000000
00000000
00000000
00010100
00000000
00000000
00010100
00000000
00000000
00011000
00000000
00000000
00010100
00000000
00000000
,
00010010
00000000
00000000
00010010
00000000
00000000
00010010
00000000
00000000
00010100
00000000
00000000
00010000
00000000
00001000
00000000
,
01000000
00000000
00000000
00000000
;

//---------------dance-double - ----------------
#NOTES:
     dance-double:
     :
     Medium:
     9:
     0.306729,0.384761,0.197533,0.060119,0.261946,250.000000,227.000000,23.000000,7.000000,0.000000,0.000000,0.306729,0.384761,0.197533,0.060119,0.261946,250.000000,227.000000,23.000000,7.000000,0.000000,0.000000:
00000000
00000000
00000000
00000000
,
00000000
00000000
00000000
00000000
,
00000000
00000000
00000000
00000000
,
00000000
00000000
00000000
00000000
,
00000000
00000000
00000000
00000000
,
10010000
00000000
00000000
00000000
00100000
00000000
00000000
00100000
00000000
00000000
00010000
00000000
00000000
01000000
00000000
00000000
,
00100000
00000000
00000000
00100000
00000000
00000000
00100000
00000000
00000000
00100000
00000000
00000000
10010000
00000000
00000000
00000000
,
00100000
00000000
00000000
00000000
00001000
00000000
00000000
00001000
00000000
00000000
00010000
00000000
00000000
00000100
00000000
00000000
,
00001000
00000000
00000000
00001000
00000000
00000000
00001000
00000000
00000000
00000010
00000000
00000000
00001001
00000000
00000000
00000000
,
00000100
00000000
00001100
00000000
00000100
00010000
00001000
00000000
,
00010000
00000000
00011000
00000000
00001000
00100000
00010000
00000000
,
01010000
00000000
10100000
00000000
00010000
01000000
00100000
00000000
,
00110000
00000000
00011000
00000000
00010000
00000100
00001000
00000000
,
00000001
00000000
00000000
00000001
00000000
00000000
00000001
00000000
00000000
00000001
00000000
00000000
00001000
00000000
00000000
00001000
,
00000000
00000000
00001000
00000000
00000000
00001000
00000000
00000000
00000010
00000000
00000000
00010000
00000000
00000000
00001000
00000000
,
00010000
00001000
00010000
00001000
00010000
00001000
00010000
00001000
,
00000000
00000000
00000000
00000000
01000000
00000000
00000000
00000000
00100000
00000000
00000000
00100000
00000000
00000000
10000000
00000000
,
00000000
10000000
00000000
00000000
00010000
00000000
00000000
00010000
00000000
00000000
00000000
00000000
10000000
00000000
00000000
00000000
,
10010000
00000000
00000000
00000000
00100000
00000000
00000000
00000000
00001000
00000000
00000000
00001000
00000000
00000000
00010000
00000000
,
00000000
00000000
00000100
00000000
00001000
00000000
00000000
00001000
00000000
00000000
00000010
00000000
00000100
00000000
00000000
00000000
,
00001001
00000000
00000000
00000000
00000010
00000000
00000000
00000000
00000001
00000000
00000000
00000001
00000000
00000000
00001000
00000000
,
00000000
00001000
00000000
00000000
00000001
00000000
00000000
00000001
00000000
00000000
00001000
00000000
00000100
00000000
00000000
00000000
,
00010000
00000000
00000000
00000000
00011000
00000000
00000000
00000000
00001000
00000000
00000000
00001000
00000000
00000000
00001000
00000000
,
00000000
00100000
00000000
00000000
00010000
00000000
00000000
00000000
01000000
00000000
00000000
00000000
00200000
00000000
00000000
00000000
,
00300000
00000000
00000000
00000000
10000000
00000000
00000000
00000000
01010000
00000000
00000000
00010000
00000000
00000000
00010000
00000000
,
00000000
10000000
00000000
00000000
10000000
00000000
00000000
10000000
00000000
00000000
00100000
00000000
01000000
00000000
00000000
00000000
,
01010000
00000000
00000000
00000000
00010000
00000000
00000000
00000000
00100000
00000000
00000000
00100000
00000000
00000000
00001000
00000000
,
00000000
00010000
00001000
00000000
00010000
00000000
00000100
00001000
,
00000010
00000000
00000000
00000000
00001000
00000000
00000000
00000000
00001001
00000000
00000000
00000001
00000000
00000000
00000001
00000000
,
00000000
00001000
00000000
00000000
00001000
00000000
00000000
00001000
00000000
00000000
00000100
00000000
00010000
00000000
00000000
00000000
,
00011000
00000000
00000000
00000000
00001000
00000000
00000000
00000000
00100000
00000000
00000000
00100000
00000000
00000000
00010000
00000000
,
00000000
01000000
00000000
00000000
01000000
00000000
00000000
00000000
00100000
00000000
10000000
00000000
10010000
00000000
00000000
00000000
,
00200000
00000000
00000000
00000000
,
00302000
00000000
00000000
00000000
,
00023000
00000000
00000000
00000000
,
00030200
00000000
00000000
00000000
,
00001300
00000000
00000000
00000000
00000001
00000000
00000000
00000001
00000000
00000000
00000001
00000000
00000000
00000001
00000000
00000000
,
00000000
00000000
00000000
00000000
00001000
00000000
00000000
00001000
00000000
00000000
00001000
00000000
00000000
00001000
00000000
00000000
,
00000010
00000010
00000010
00000010
,
00002002
00000000
00003003
00000000
,
00000100
00000000
00000000
00000000
00001000
00000000
00000000
00001000
00000000
00000000
00001000
00000000
00000000
00000000
00000000
00000000
,
00010000
00000000
00000000
00010000
00000000
00000000
00010000
00000000
00000000
00000000
00000000
00000000
00001000
00000000
00000000
00000000
,
01000000
00000000
00000000
00000000
00010000
00000000
00000000
00010000
00000000
00000000
00100000
00000000
00000000
00000000
00000000
00000000
,
10000000
00000000
00000000
10000000
00000000
00000000
00100000
00000000
00000000
00000000
00000000
00000000
10010000
00000000
00000000
00000000
,
01000000
00000000
00000000
00000000
00001000
00000000
00000000
00001000
00000000
00000000
00010000
00000000
00000000
00000000
00000000
00000000
,
00000100
00000000
00000000
00000100
00000000
00000000
00000100
00000000
00000000
00000000
00000000
00000000
00001001
00000000
00000000
00000000
,
00001000
00000000
00000000
00000000
00000010
00000000
00000000
00000010
00000000
00000000
00000010
00000000
00000000
00000000
00000000
00000000
,
00001000
00000000
00000000
00000001
00000000
00000000
00001000
00000000
00000000
00000001
00000000
00000000
00001000
00000000
00000000
00000000
,
00001100
00000000
00000000
00000000
00000010
00000000
00000000
00000010
00000000
00000000
00000001
00000000
00000000
00000001
00000000
00000000
,
00000100
00000000
00000000
00000100
00000000
00000000
00001000
00000000
00000000
00001000
00000000
00000000
00000010
00000000
00000000
00000000
,
00010000
00000000
00000000
00000000
00001000
00000000
00000000
00001000
00000000
00000000
01000000
00000000
00000000
01000000
00000000
00000000
,
00010000
00000000
00000000
00010000
00000000
00000000
00100000
00000000
00000000
00100000
00000000
00000000
10010000
00000000
00000000
00000000
,
01000000
00000000
00000000
00000000
00001000
00000000
00000000
00001000
00000000
00000000
00010000
00000000
00000000
00010000
00000000
00000000
,
00000100
00000000
00000000
00000100
00000000
00000000
00000100
00000000
00000000
00000100
00000000
00000000
00010000
00000000
00000000
00000000
,
00001000
00000000
00000000
00000000
00100000
00000000
00000000
00100000
00000000
00000000
00100000
00000000
00000000
00100000
00000000
00000000
,
00001000
00000000
00000000
00001000
00000000
00000000
00010000
00000000
00000000
00010000
00000000
00000000
00001000
00000000
00000000
00000000
,
00011000
00000000
00000000
00000000
;

//---------------dance-double - ----------------
#NOTES:
     dance-double:
     :
     Easy:
     5:
     0.238022,0.288571,0.163180,0.120238,0.000000,194.000000,175.000000,19.000000,14.000000,0.000000,0.000000,0.238022,0.288571,0.163180,0.120238,0.000000,194.000000,175.000000,19.000000,14.000000,0.000000,0.000000:
00000000
00000000
00000000
00000000
,
00000000
00000000
00000000
00000000
,
00000000
00000000
00000000
00000000
,
00000000
00000000
00000000
00000000
,
00000000
00000000
00000000
00000000
,
00011000
00000200
00000000
00000300
,
00002000
00000000
00003000
00010000
,
00011000
00200000
00000000
00300000
,
00020000
00000000
00030000
00011000
,
00001000
00000100
00000010
00000001
,
00001000
00000010
00010000
00000100
,
00001000
00100000
00010000
01000000
,
00100000
10000000
01000000
00010000
,
00100000
00100000
00100000
00001000
,
00010000
00010000
00010000
00000010
,
00000100
00000100
00000100
00000100
,
00000000
00001001
00000010
00000010
,
00000001
00001000
00001000
00000100
,
00010000
00001000
00100000
00100000
,
00010000
10000000
10000000
00010000
,
10010000
00000000
00100000
00100000
,
00001000
00010000
00010000
00000100
,
00001000
00000010
00000100
00000100
,
00000001
00002002
00003003
00000010
,
00001000
00000100
00001100
00000100
,
00010000
00001000
01000000
01010000
,
01000000
00100000
10000000
10100000
,
10000000
00010000
00100000
00001000
,
00011000
00010000
00000100
00001100
,
00000100
00001000
00000010
00000001
,
00000100
00010000
00022000
00000000
,
00033000
00011000
00000000
00000000
,
00020000
00000000
00000000
00000000
,
02030000
00000000
00000000
00000000
,
23000000
00000000
00000000
00000000
,
30200000
00000000
00000000
00000000
,
00301000
00010000
00010000
00010000
,
00011000
00001000
00001000
00001000
,
00010000
00001000
00010000
00002000
,
00020000
00000000
00033000
00000000
,
00010000
00000100
00001000
00000001
,
00001000
00000010
00000100
00001000
,
00010000
00001000
00001000
00100000
,
00010000
01000000
00100000
10000000
,
00010000
00100000
00100000
00001000
,
00010000
00010000
00000100
00001000
,
00000001
00001000
00000010
00000010
,
00001000
00000100
00010000
00011000
,
00001000
00100000
00100000
00010000
,
01000000
01000000
00100000
10010000
,
01000000
00010000
00010000
00100000
,
00001000
00001000
00010000
00011000
,
00010000
00000100
00000100
00001000
,
00000010
00000010
00000001
00000101
,
00001000
00000100
00000100
00010000
,
00001000
00001000
00010000
00001000
,
00011000
00000000
00000000
00000000
;

//---------------dance-single - ----------------
#NOTES:
     dance-single:
     :
     Medium:
     9:
     0.312863,0.384761,0.249064,0.068707,0.261946,255.000000,226.000000,29.000000,8.000000,0.000000,0.000000,0.312863,0.384761,0.249064,0.068707,0.261946,255.000000,226.000000,29.000000,8.000000,0.000000,0.000000:
0000
0000
0000
0000
,
0000
0000
0000
0000
,
0000
0000
0000
0000
,
0000
0000
0000
0000
,
0000
0000
0000
0000
,
1001
0000
0000
0000
0010
0000
0000
0010
0000
0000
0001
0000
0000
0100
0000
0000
,
0010
0000
0000
0010
0000
0000
0010
0000
0000
0010
0000
0000
1001
0000
0000
0000
,
0010
0000
0000
0000
0001
0000
0000
0001
0000
0000
0001
0000
0000
0001
0000
0000
,
1000
0000
0000
1000
0000
0000
1000
0000
0000
1000
0000
0000
1001
0000
0000
0000
,
0010
0000
0110
0000
1000
0001
1000
0000
,
0100
0000
0110
0000
0001
1000
0001
0000
,
0101
0000
1010
0000
0001
0100
0001
0000
,
1100
0000
0011
0000
1000
0100
1000
0000
,
0001
0000
0000
0001
0000
0000
0001
0000
0000
0001
0000
0000
1000
0000
0000
1000
,
0000
0000
1000
0000
0000
1000
0000
0000
0010
0000
0000
0010
0000
0000
1000
0000
,
0001
1000
0001
1000
0001
1000
0001
1000
,
0000
0000
0000
0000
0100
0000
0000
0000
0010
0000
0000
0010
0000
0000
1000
0000
,
0000
1000
0000
0000
0001
0000
0000
0001
0000
0000
0000
0000
1000
0000
0000
0000
,
1001
0000
0000
0000
0010
0000
0000
0000
0001
0000
0000
0001
0000
0000
0100
0000
,
0000
0000
0010
0000
1000
0000
0000
1000
0000
0000
0010
0000
0100
0000
0000
0000
,
1001
0000
0000
0000
0010
0000
0000
0000
0001
0000
0000
0001
0000
0000
1000
0000
,
0000
1000
0000
0000
0001
0000
0000
0001
0000
0000
1000
0000
0100
0000
0000
0000
,
0001
0000
0000
0000
1001
0000
0000
0000
0010
0000
0000
0010
0000
0000
0100
0000
,
0000
0100
0000
0000
0001
0000
0000
0000
0100
0000
0000
0000
2002
0000
0000
0000
,
3003
0000
0000
0000
1000
0000
0000
0000
0101
0000
0000
0001
0000
0000
0001
0000
,
0000
1000
0000
0000
1000
0000
0000
1000
0000
0000
0010
0000
0100
0000
0000
0000
,
0101
0000
0000
0000
0001
0000
0000
0000
0010
0000
0000
0010
0000
0000
0001
0000
,
0000
0100
0010
0000
1001
0000
0010
1000
,
0001
0000
0000
0000
1000
0000
0000
0000
1001
0000
0000
0001
0000
0000
0001
0000
,
0000
1000
0000
0000
1000
0000
0000
1000
0000
0000
0010
0000
0100
0000
0000
0000
,
1001
0000
0000
0000
0110
0000
0000
0000
0010
0000
0000
0010
0000
0000
0001
0000
,
0000
0100
0000
0000
0100
0000
0000
0000
0010
0000
1000
0000
1001
0000
0000
0000
,
0020
0000
0000
0000
,
2030
0000
0000
0000
,
3200
0000
0000
0000
,
0302
0000
0000
0000
,
0013
0000
0000
0000
0001
0000
0000
0001
0000
0000
0001
0000
0000
0001
0000
0000
,
0000
0000
0000
0000
1000
0000
0000
1000
0000
0000
1000
0000
0000
1000
0000
0000
,
0010
0010
0010
0010
,
2002
0000
3003
0000
,
0100
0000
0000
0000
1000
0000
0000
1000
0000
0000
1000
0000
0000
0000
0000
0000
,
0001
0000
0000
0001
0000
0000
0001
0000
0000
0000
0000
0000
1001
0000
0000
0000
,
0100
0000
0000
0000
0001
0000
0000
0001
0000
0000
0010
0000
0000
0000
0000
0000
,
1000
0000
0000
1000
0000
0000
0010
0000
0000
0000
0000
0000
1001
0000
0000
0000
,
0100
0000
0000
0000
0001
0000
0000
0001
0000
0000
0001
0000
0000
0000
0000
0000
,
1000
0000
0000
1000
0000
0000
1000
0000
0000
0000
0000
0000
1001
0000
0000
0000
,
0010
0000
0000
0000
0001
0000
0000
0001
0000
0000
0001
0000
0000
0000
0000
0000
,
1000
0000
0000
0001
0000
0000
1000
0000
0000
0001
0000
0000
1000
0000
0000
0000
,
0110
0000
0000
0000
0001
0000
0000
0001
0000
0000
0100
0000
0000
0100
0000
0000
,
1000
0000
0000
1000
0000
0000
0010
0000
0000
0010
0000
0000
0100
0000
0000
0000
,
0001
0000
0000
0000
1000
0000
0000
1000
0000
0000
0100
0000
0000
0100
0000
0000
,
0001
0000
0000
0001
0000
0000
0010
0000
0000
0010
0000
0000
1001
0000
0000
0000
,
0100
0000
0000
0000
0001
0000
0000
0001
0000
0000
0001
0000
0000
0001
0000
0000
,
1000
0000
0000
1000
0000
0000
1000
0000
0000
1000
0000
0000
1001
0000
0000
0000
,
0000
0000
0000
0000
0010
0000
0000
0010
0000
0000
0010
0000
0000
0010
0000
0000
,
0100
0000
0000
0100
0000
0000
0100
0000
0000
0100
0000
0000
0110
0000
0000
0000
,
1001
0000
0000
0000
;

//---------------dance-single - ----------------
#NOTES:
     dance-single:
     :
     Easy:
     5:
     0.256425,0.312618,0.334948,0.154591,0.000000,209.000000,170.000000,39.000000,18.000000,0.000000,0.000000,0.256425,0.312618,0.334948,0.154591,0.000000,209.000000,170.000000,39.000000,18.000000,0.000000,0.000000:
0000
0000
0000
0000
,
0000
0000
0000
0000
,
0000
0000
0000
0000
,
0000
0000
0000
0000
,
0000
0000
0000
0000
,
1001
0020
0030
0002
,
0003
0200
0300
1001
,
0110
0020
0030
2000
,
3000
0200
0300
0110
,
1001
0001
0001
0110
,
1000
1000
1000
0110
,
0001
0001
0001
1010
,
0100
0100
0100
1010
,
0001
0100
1000
0010
,
1000
0100
0001
0010
,
0200
0000
0020
0330
,
0000
0000
0101
0001
,
0001
1100
1000
1000
,
0110
1001
0010
0010
,
0100
0001
1000
0001
,
1001
0100
0011
0001
,
0001
1100
1000
1000
,
0010
1000
0101
0001
,
0001
2002
0000
3003
,
0000
0010
1000
0100
,
0001
0010
0100
0010
,
1001
0010
0001
0100
,
1000
0010
0100
1001
,
0110
0001
1100
0010
,
0001
1000
0101
0010
,
1000
0110
2002
0000
,
3003
0110
0000
0000
,
2000
0000
0000
0000
,
3200
0000
0000
0000
,
0302
0000
0000
0000
,
0023
0000
0000
0030
,
1000
0101
0001
0001
,
1000
0101
0001
0001
,
0010
0010
0010
0010
,
2000
0000
0002
3003
,
0010
1001
0100
0100
,
1000
0100
0010
0001
,
0100
1001
0010
0010
,
0001
0010
0100
1000
,
0100
1001
0010
0010
,
1000
0001
0100
0010
,
1000
0110
0001
0001
,
0010
1000
0100
0001
,
1000
0101
1000
0101
,
1000
0100
0010
0001
,
0100
1001
0100
1001
,
0001
0010
0100
1000
,
0001
1010
0000
0100
,
0000
0001
0000
0010
,
1000
0101
0000
0010
,
1000
0100
0001
0100
,
1001
0000
0000
0000
;

//---------------dance-single - ----------------
#NOTES:
     dance-single:
     :
     Beginner:
     3:
     0.136188,0.168333,0.068707,0.077296,0.000000,111.000000,103.000000,8.000000,9.000000,0.000000,0.000000,0.136188,0.168333,0.068707,0.077296,0.000000,111.000000,103.000000,8.000000,9.000000,0.000000,0.000000:
// measure 0
0000
0000
0000
0000
,  // measure 1
0000
0000
0000
0000
,  // measure 2
0000
0000
0000
0000
,  // measure 3
0000
0000
0000
0000
,  // measure 4
0000
0000
0000
0000
,  // measure 5
0000
0010
0000
0001
,  // measure 6
0000
0100
0000
1000
,  // measure 7
0000
0010
0000
1000
,  // measure 8
0000
0100
0000
0001
,  // measure 9
0000
0001
0001
0001
,  // measure 10
0000
1000
1000
1000
,  // measure 11
0000
0001
0001
0001
,  // measure 12
0000
0100
0100
0100
,  // measure 13
0200
0300
0100
0000
,  // measure 14
0020
0030
0010
0000
,  // measure 15
2002
0000
0000
3003
,  // measure 16
0000
0000
0001
0000
,  // measure 17
0001
0000
1000
0000
,  // measure 18
1000
0000
0010
0000
,  // measure 19
0010
0000
0100
0000
,  // measure 20
1001
0000
0001
0000
,  // measure 21
0001
0000
1000
0000
,  // measure 22
1000
0000
0100
0000
,  // measure 23
0100
0200
0000
0300
,  // measure 24
0000
0000
1000
0000
,  // measure 25
1000
0000
0100
0000
,  // measure 26
1001
0000
0001
0000
,  // measure 27
0001
0000
0010
0000
,  // measure 28
1001
0000
0001
0000
,  // measure 29
0010
0000
0100
0000
,  // measure 30
1000
0000
2002
0000
,  // measure 31
3003
1001
0000
0000
,  // measure 32
1000
0000
0000
0000
,  // measure 33
0100
0000
0000
0000
,  // measure 34
0001
0000
0000
0000
,  // measure 35
0010
0000
0000
0000
,  // measure 36
0000
0001
0001
0001
,  // measure 37
0000
1000
1000
1000
,  // measure 38
2000
0000
3000
0000
,  // measure 39
0002
0000
0003
0000
,  // measure 40
0000
0100
0100
0100
,  // measure 41
0000
0100
0000
0100
,  // measure 42
0000
0010
0010
0010
,  // measure 43
0000
0010
0000
0010
,  // measure 44
0000
1000
1000
1000
,  // measure 45
0000
1000
0000
1000
,  // measure 46
0000
0001
0001
0001
,  // measure 47
0000
0001
0000
0001
,  // measure 48
0000
0100
0000
0100
,  // measure 49
0000
0001
0000
1001
,  // measure 50
0000
0100
0000
0100
,  // measure 51
0000
1000
0000
1001
,  // measure 52
0000
0010
0000
0100
,  // measure 53
0000
0001
0000
1000
,  // measure 54
0000
0100
0000
0010
,  // measure 55
0000
0001
0000
1000
,  // measure 56
1000
0000
0000
0000
;
