#TITLE:Starry Night;
#SUBTITLE:;
#ARTIST:Massive New Krew feat.松平なな;
#TITLETRANSLIT:;
#SUBTITLETRANSLIT:;
#ARTISTTRANSLIT:Massive New Krew feat.Nana Matsudaira;
#GENRE:;
#CREDIT:Toxsa Dalton;
#BANNER:Starry Night.png;
#BACKGROUND:Starry Night-bg.png;
#LYRICSPATH:;
#CDTITLE:;
#MUSIC:Starry Night.ogg;
#OFFSET:1.320000;
#SAMPLESTART:77.639771;
#SAMPLELENGTH:12.000000;
#LASTBEATHINT:0.826666;
#SELECTABLE:YES;
#BPMS:0.000000=155.000000
;
#STOPS:128.000000=1.548386
;
#BGCHANGES:;
#KEYSOUNDS:;
#ATTACKS:;

//---------------dance-single - ----------------
#NOTES:
     dance-single:
     :
     Hard:
     13:
     0.514767,0.622056,0.212409,0.303442,0.276891,475.000000,447.000000,28.000000,40.000000,0.000000,0.000000,0.514767,0.622056,0.212409,0.303442,0.276891,475.000000,447.000000,28.000000,40.000000,0.000000,0.000000:
0000
0000
0000
0000
,
0000
0000
0000
0000
,
0000
0000
0000
0000
,
0000
0000
0000
0000
,
0000
0000
0000
0000
,
0000
0000
0000
0000
,
0001
0000
0000
0001
0000
0000
1000
0000
1001
0000
0000
0000
1100
0000
0000
0000
,
0010
0000
0000
0010
0000
0000
1000
0000
1001
0000
0000
0000
1001
0000
0000
0000
,
0002
0000
0000
0100
0000
0000
2000
0000
0000
0000
0000
0000
3003
0000
0000
0000
,
2000
0000
0000
0010
0000
0000
0002
0000
0000
0000
0000
0000
3003
0000
0000
0000
,
0001
0000
1000
0001
0000
0000
1000
0000
0010
0000
0100
0010
0000
0000
0100
0000
,
0001
0000
0010
0001
0000
0000
1000
0000
0010
0000
1000
0010
0000
0000
1000
0000
,
0100
0010
0001
1000
0010
0100
0001
1000
,
0002
0000
0000
0103
,
0001
0010
1000
0010
0000
0010
0000
0010
,
0001
0010
1000
0010
0000
0001
1001
0000
,
0100
0010
1000
0001
1000
0010
1000
0010
,
0100
0010
1000
0001
1000
0100
0010
0001
,
1000
0010
1000
0001
1000
0100
1000
0100
,
0010
0100
0010
1000
0010
1000
1001
0000
,
0001
0100
0001
0100
0010
1000
0100
1000
,
0010
0100
0010
0100
0001
0010
0100
1000
,
0001
0010
0001
0010
0001
1000
0001
1000
,
0001
0010
0100
1000
0001
0001
1001
0000
,
0010
0000
1000
0010
1000
0000
0010
0000
1000
0000
0100
0000
0010
0000
0001
0000
,
1000
0000
0001
1000
0001
0000
1000
0000
0001
0000
0010
0000
0100
0000
1000
0000
,
0010
0000
0100
0010
0100
0000
0010
0000
1000
0000
0100
0000
0010
0000
0001
0000
,
1000
0001
0001
0001
1000
0010
1001
0000
,
0001
0000
0100
0000
0010
0000
1000
0010
1000
0000
0010
0000
0100
0000
0001
0000
,
1000
0000
0100
0000
0010
0000
0001
0010
0001
0000
0010
0000
0100
0000
1000
0000
,
0001
0001
0001
0100
1000
1000
1000
0100
,
0001
0000
1000
0001
1000
0001
1000
0000
0010
0000
0010
0000
0010
0000
0000
0000
,
1001
1000
0100
0010
,
0002
0000
0003
0001
0100
0000
0000
0000
,
2000
0000
3000
1000
0100
0000
0000
0000
,
0020
0000
0030
0010
0100
0000
0000
0000
,
1000
0100
0010
0001
,
2000
0000
3000
0010
,
0002
0000
0003
0010
,
1000
0100
0010
0001
,
0200
0010
0010
0310
,
2000
0000
0000
0001
3001
0000
0100
0000
,
0020
0000
0000
1000
1030
0000
0001
0000
,
2000
0000
0000
0010
3010
0000
0001
0000
,
0100
1000
0100
0001
,
2000
0001
3001
1001
,
0002
1000
1003
1001
,
2000
0000
0010
0000
0010
0000
3010
0100
,
0001
0000
0000
0000
0000
0000
0001
0000
1000
0000
0000
0010
0000
0000
1000
0000
,
2002
0000
3003
1001
,
0001
0000
0000
0001
0000
0000
1000
0000
0001
0000
0000
0000
1001
0000
0000
0000
,
1000
0000
0000
1000
0000
0000
0001
0000
1000
0000
0000
0000
1001
0000
0000
0000
,
0010
0000
0000
0010
0000
0000
0100
0000
0010
0000
0000
0000
0110
0000
0000
0000
,
0100
0000
0000
0100
0000
0000
0010
0000
0100
0000
0000
0000
0110
0000
0000
0000
,
1000
0000
0000
0001
0000
0000
1000
0000
1000
0000
0000
0000
1001
0000
0000
0000
,
0001
0000
0000
1000
0000
0000
0001
0000
0001
0000
0000
0000
1001
0000
0000
0000
,
0002
0000
0000
0100
0000
0000
2000
0000
0000
0000
0000
0000
3003
0000
0000
0000
,
0002
0000
0000
0010
0000
0000
2000
0000
0000
0000
0000
0000
3003
0000
0000
0000
,
0001
0000
0000
0001
0000
0000
1000
0000
0100
0000
0000
0010
0000
0000
0001
0000
,
1000
0000
0000
1000
0000
0000
0001
0000
0010
0000
0000
0100
0000
0000
1000
0000
,
0010
0000
0000
0010
0000
0000
1000
0000
0100
0000
0000
0100
0000
0000
1000
0000
,
0000
0001
1000
0200
0000
0310
0001
1000
,
1001
0000
0000
0001
0000
0000
1000
0000
0001
0000
1000
0001
0000
1000
0001
0000
,
1000
0000
0000
1000
0000
0000
0010
0000
0100
0000
0010
0100
0000
0010
0100
0000
,
0001
0000
0000
0001
0000
0000
1000
0000
0001
0000
1000
0010
0000
1000
0010
0000
,
1000
0000
0000
0100
0000
0000
0010
0000
0001
0000
0100
0000
0010
0000
1000
0000
,
0001
0000
0000
0001
0000
0000
0100
0000
0010
0100
0000
0010
0100
0000
0000
0000
,
0001
0000
0000
0001
0000
0000
1000
0000
0010
1000
0000
0010
1000
0000
0000
0000
,
0101
0000
0000
0101
0000
0000
0001
0000
1000
0001
0000
1000
0001
0000
0000
0000
,
1010
0000
0000
1010
0000
0000
1000
0000
0001
1000
0000
0001
1000
0000
0010
0000
,
1000
0000
0000
1000
0000
0000
0001
0000
0100
0000
0001
0100
0000
0001
0100
0000
,
0010
0000
0000
0010
0000
0000
1000
0000
0010
0000
1000
0001
0000
1000
0001
0000
,
0100
0000
0000
0100
0000
0000
0010
0000
1000
0000
0010
1000
0000
0010
1000
0000
,
0001
0000
0000
0001
0000
0000
1000
0000
0100
0000
0010
0000
0001
0000
1000
0000
,
0010
0000
0000
0010
0000
0000
0010
0000
1000
0010
0000
1000
0010
0000
0100
0000
,
0001
0000
0000
0001
0000
0000
0001
0000
0100
0001
0000
0100
0001
0000
1000
0000
,
0010
0000
0000
0010
0000
0000
0100
0000
0010
0100
0000
0010
0100
0000
0001
0000
,
1001
0000
0000
1001
0000
0000
1001
0000
0000
1001
0000
0000
1000
0000
0100
0000
,
0020
0032
0203
2300
,
3020
2030
3200
0302
,
2003
3200
0320
0032
,
0203
0320
2030
0002
,
3003
0000
0000
0000
;

//---------------dance-single - ----------------
#NOTES:
     dance-single:
     :
     Medium:
     9:
     0.374967,0.435439,0.182065,0.197237,0.170686,346.000000,322.000000,24.000000,26.000000,0.000000,0.000000,0.374967,0.435439,0.182065,0.197237,0.170686,346.000000,322.000000,24.000000,26.000000,0.000000,0.000000:
0000
0000
0000
0000
,
0000
0000
0000
0000
,
0000
0000
0000
0000
,
0000
0000
0000
0000
,
0000
0000
0000
0000
,
0000
0000
0000
0000
,
0010
0000
0000
0010
0000
0000
0000
0000
1001
0000
0000
0000
1100
0000
0000
0000
,
0010
0000
0000
0010
0000
0000
0000
0000
1001
0000
0000
0000
0101
0000
0000
0000
,
0001
0000
0000
0001
0000
0000
0001
0000
0000
0000
0000
0000
0000
0000
0000
0000
,
1000
0000
0000
1000
0000
0000
1000
0000
0000
0000
0000
0000
0000
0000
0000
0000
,
0010
0100
0001
1000
,
0001
0010
0100
1000
,
0001
1000
0001
1000
0001
1000
0001
1000
,
0020
0000
0000
0030
,
1000
0001
1000
0001
0000
0001
0000
1000
,
0001
1000
0001
1000
0000
0001
0001
0000
,
1000
0100
1000
0100
0000
0010
0000
0001
,
1000
0001
1000
0001
0000
0100
0000
0010
,
1000
0010
1000
0010
0000
1000
0000
0001
,
0000
1000
0001
1000
0001
0000
1001
0000
,
0010
0100
0010
0100
0000
0001
0000
0010
,
0001
0010
0001
0010
0000
0001
0000
1000
,
0100
1000
0100
1000
0000
0010
0000
0100
,
0000
0001
1000
0001
1000
0000
1001
0000
,
0010
1000
0010
0100
0000
0100
0000
0001
,
1000
0001
1000
0001
0000
1000
0000
1000
,
0010
0100
0010
1000
0000
1000
0000
0001
,
0000
0001
1000
0001
1000
0000
1001
0000
,
0010
0001
0010
0001
0000
1000
0000
1000
,
0010
1000
0010
1000
0000
0001
0000
0100
,
0010
0100
0010
0100
0000
0100
0000
0001
,
0000
1000
0000
0010
0200
0000
0300
0000
,
1001
0000
0000
0000
,
0002
0000
0103
0000
,
2000
0000
3100
0000
,
0020
0000
0031
0000
,
1000
0100
0010
0001
,
2000
0000
3001
0100
,
0002
0000
0103
0010
,
1000
0100
0010
0001
,
0200
0000
0310
0000
,
0002
0000
0013
0000
,
2000
0000
3010
0000
,
0002
0000
0103
0000
,
0001
0010
0100
1000
,
0020
0000
0130
0001
,
2000
0000
3010
0100
,
0002
0000
1003
0001
,
1000
0000
0000
0000
0000
0000
0000
0000
0001
0000
0000
0001
0000
0000
0001
0000
,
2000
0000
0000
3000
,
0010
0000
0000
0010
0000
0000
0000
0000
1001
0000
0000
0000
1001
0000
0000
0000
,
0100
0000
0000
0100
0000
0000
0000
0000
1001
0000
0000
0000
1001
0000
0000
0000
,
0010
0000
0000
0010
0000
0000
0000
0000
1100
0000
0000
0000
0101
0000
0000
0000
,
0010
0000
0000
0010
0000
0000
0000
0000
0101
0000
0000
0000
1100
0000
0000
0000
,
0001
0000
0000
0001
0000
0000
0000
0000
0110
0000
0000
0000
1100
0000
0000
0000
,
1000
0000
0000
1000
0000
0000
0000
0000
0110
0000
0000
0000
0011
0000
0000
0000
,
1000
0000
0000
1000
0000
0000
1000
0000
0000
0000
0000
0000
0000
0000
0000
0000
,
0001
0000
0000
0001
0000
0000
0001
0000
0000
0000
0000
0000
0000
0000
0000
0000
,
0010
0000
0000
0010
0000
0000
0010
0000
0100
0000
0000
0000
1001
0000
0000
0000
,
0100
0000
0000
0100
0000
0000
0100
0000
0010
0000
0000
0000
1001
0000
0000
0000
,
0010
0100
0010
0000
0100
0010
0100
0000
,
0000
0001
1000
0002
0000
0000
1003
0000
,
0010
0000
0000
0010
0000
0000
1000
0000
0100
0000
0000
0100
0000
0000
0010
0000
,
0001
0000
0000
0001
0000
0000
1000
0000
0100
0000
0000
0100
0000
0000
0010
0000
,
1000
0000
0000
1000
0000
0000
0001
0000
0100
0000
0000
0100
0000
0000
0010
0000
,
1000
0000
0000
1000
0000
0000
0001
0000
0100
0000
0000
0000
1001
0000
0000
0000
,
0010
0000
0000
0010
0000
0000
1000
0000
0000
0001
0000
0000
1000
0000
0000
0000
,
0100
0000
0000
0100
0000
0000
0001
0000
0000
1000
0000
0000
0001
0000
0000
0000
,
1000
0000
0000
1000
0000
0000
0001
0000
0000
0100
0000
0000
1000
0000
0000
0000
,
0001
0000
0000
0001
0000
0000
1000
0000
0000
0100
0000
0000
0001
0000
0000
0000
,
1000
0000
0000
1000
0000
0000
0000
0000
0001
0000
0000
0001
0000
0000
0000
0000
,
0100
0000
0000
0100
0000
0000
0000
0000
0010
0000
0000
0010
0000
0000
0000
0000
,
1000
0000
0000
1000
0000
0000
0001
0000
0100
0000
0000
0100
0000
0000
0001
0000
,
0010
0000
0000
0010
0000
0000
0001
0000
0100
0000
0000
0000
1001
0000
0000
0000
,
0010
0000
0000
0010
0000
0000
1000
0000
0000
0100
0000
0000
0010
0000
0000
0000
,
0100
0000
0000
0100
0000
0000
0001
0000
0000
0100
0000
0000
0010
0000
0000
0000
,
0001
0000
0000
0001
0000
0000
1000
0000
0000
0100
0000
0000
0001
0000
0000
0000
,
1000
0000
0000
1000
0000
0000
0001
0000
0000
0100
0000
0000
1000
0000
0000
0000
,
0002
0000
0203
0000
,
0320
0000
2030
0000
,
3200
0000
0320
0000
,
0032
2003
3002
2003
,
3000
0000
0000
0000
;

//---------------dance-single - ----------------
#NOTES:
     dance-single:
     :
     Easy:
     5:
     0.248172,0.373233,0.128963,0.227581,0.000000,229.000000,212.000000,17.000000,30.000000,0.000000,0.000000,0.248172,0.373233,0.128963,0.227581,0.000000,229.000000,212.000000,17.000000,30.000000,0.000000,0.000000:
0000
0000
0000
0000
,
0000
0000
0000
0000
,
0000
0000
0000
0000
,
0000
0000
0000
0000
,
0000
0000
0000
0000
,
0000
0000
0000
0000
,
0010
0010
0010
1001
,
0100
0100
0100
1001
,
0002
0000
0003
0000
,
2000
0000
3000
0000
,
0001
0001
1000
1000
,
0001
1000
0001
1000
,
0010
0100
0001
1000
,
2002
0000
0000
3003
,
0020
0030
0000
0010
,
0020
0030
0000
1001
,
0010
0010
1000
0100
,
0010
0010
0001
0100
,
0010
1000
0100
0010
,
0010
0001
0100
0010
,
1000
1000
0100
0010
,
0001
0001
0010
0100
,
1000
0100
0010
0001
,
0100
0100
0010
1001
,
0001
0001
0100
1000
,
0001
0001
0010
1000
,
0100
0100
0010
0001
,
0100
0100
0010
1001
,
1100
0100
0010
0001
,
0101
0100
0010
1000
,
0001
0100
0010
1000
,
2002
0000
0000
3003
,
0010
0000
0000
0000
,
0002
0000
0003
0000
,
2000
0000
3000
0000
,
0020
0000
0030
0000
,
0100
0000
0100
0000
,
0200
0000
0300
0000
,
0002
0000
0003
0000
,
0010
0000
0100
0000
,
0002
0000
0003
0000
,
1000
0000
1000
0000
,
0001
0000
0001
0000
,
0100
0000
0100
0000
,
0001
0010
0100
1000
,
0002
0000
0003
0000
,
2000
0000
3000
0000
,
0020
0000
0030
0000
,
0100
0000
0010
0000
,
2002
0000
3003
0000
,
0001
0100
1000
0000
,
1000
0100
0001
0000
,
0001
0010
1000
0000
,
1000
0010
0001
0000
,
1000
0100
0010
0001
,
1000
0100
0010
0001
,
2000
0000
3000
0000
,
0002
0000
0003
0000
,
0100
0100
0010
0000
,
0010
0010
0100
0000
,
0001
0010
0100
1000
,
0002
0000
0000
0003
,
1000
1000
0100
0010
,
0001
0001
0010
0100
,
1000
1000
0010
0001
,
1000
1000
0100
0001
,
0010
0001
0100
1000
,
0010
1000
0100
0001
,
1000
0100
0010
0001
,
0200
0000
0320
0030
,
1000
1000
0001
1001
,
0001
0001
1000
1001
,
0100
0100
0010
1001
,
0010
0010
0100
1001
,
0001
0100
1000
1001
,
1000
0100
0001
1001
,
0001
0010
0100
1001
,
0020
0000
0230
0300
,
0002
0000
0000
0000
,
2003
0000
0000
0000
,
3020
0000
0000
0000
,
0230
0000
0000
0000
,
0300
0000
0000
0000
;

//---------------dance-single - ----------------
#NOTES:
     dance-single:
     :
     Beginner:
     3:
     0.114874,0.155514,0.000000,0.053102,0.000000,106.000000,106.000000,0.000000,7.000000,0.000000,0.000000,0.114874,0.155514,0.000000,0.053102,0.000000,106.000000,106.000000,0.000000,7.000000,0.000000,0.000000:
// measure 0
0000
0000
0000
0000
,  // measure 1
0000
0000
0000
0000
,  // measure 2
0000
0000
0000
0000
,  // measure 3
0000
0000
0000
0000
,  // measure 4
0000
0000
0000
0000
,  // measure 5
0000
0000
0000
0000
,  // measure 6
0001
0000
0000
0000
,  // measure 7
1000
0000
0000
0000
,  // measure 8
0010
0000
0000
0000
,  // measure 9
0100
0000
0000
0000
,  // measure 10
0001
0000
1000
0000
,  // measure 11
0010
0000
0100
0000
,  // measure 12
0010
0000
1000
0000
,  // measure 13
0001
0000
0000
0000
,  // measure 14
0000
0000
0000
0000
,  // measure 15
0000
0000
0000
0000
,  // measure 16
1000
0000
1000
0000
,  // measure 17
0001
0000
0001
0000
,  // measure 18
1000
0000
0001
0000
,  // measure 19
1000
0000
0001
0000
,  // measure 20
0100
0000
0100
0000
,  // measure 21
0010
0000
0010
0000
,  // measure 22
0100
0000
0010
0000
,  // measure 23
0100
0000
0000
0000
,  // measure 24
0001
0000
0001
0000
,  // measure 25
1000
0000
1000
0000
,  // measure 26
0010
0000
0010
0000
,  // measure 27
0100
0000
0100
0000
,  // measure 28
0001
0000
1000
0000
,  // measure 29
0010
0000
0100
0000
,  // measure 30
0010
0000
1000
0000
,  // measure 31
0001
0000
0000
0000
,  // measure 32
0000
0000
0000
0000
,  // measure 33
0001
0000
0000
0000
,  // measure 34
1000
0000
0000
0000
,  // measure 35
0010
0000
0000
0000
,  // measure 36
0100
0000
0000
0000
,  // measure 37
0100
0000
0000
0000
,  // measure 38
0010
0000
0000
0000
,  // measure 39
1000
0000
0000
0000
,  // measure 40
0001
0000
0000
0000
,  // measure 41
1000
0000
0000
0000
,  // measure 42
0100
0000
0000
0000
,  // measure 43
0010
0000
0000
0000
,  // measure 44
0001
0000
0000
0000
,  // measure 45
0100
0000
0000
0000
,  // measure 46
0010
0000
0000
0000
,  // measure 47
0100
0000
0000
0000
,  // measure 48
0010
0000
0010
0000
,  // measure 49
0010
0000
0000
0000
,  // measure 50
1000
0000
0000
0000
,  // measure 51
0001
0000
0000
0000
,  // measure 52
0100
0000
0000
0000
,  // measure 53
0010
0000
0000
0000
,  // measure 54
1000
0000
0000
0000
,  // measure 55
0100
0000
0000
0000
,  // measure 56
0010
0000
0000
0000
,  // measure 57
0001
0000
0000
0000
,  // measure 58
2000
0000
3000
0000
,  // measure 59
0002
0000
0003
0000
,  // measure 60
2000
0000
3000
0000
,  // measure 61
0000
0000
0000
0000
,  // measure 62
0001
0000
0001
0000
,  // measure 63
1000
0000
1000
0000
,  // measure 64
0001
0000
0001
0000
,  // measure 65
1000
0000
1000
0000
,  // measure 66
0010
0000
0010
0000
,  // measure 67
0100
0000
0100
0000
,  // measure 68
0010
0000
0010
0000
,  // measure 69
0100
0000
0100
0000
,  // measure 70
0001
0000
1000
0000
,  // measure 71
0001
0000
1000
0000
,  // measure 72
0010
0000
0100
0000
,  // measure 73
0010
0000
0100
0000
,  // measure 74
1000
0000
0001
0000
,  // measure 75
1000
0000
0001
0000
,  // measure 76
0100
0000
0010
0000
,  // measure 77
0100
0000
0010
0000
,  // measure 78
2000
0000
3000
0000
,  // measure 79
0002
0000
0003
0000
,  // measure 80
0200
0000
0300
0000
,  // measure 81
0020
0000
0000
0000
,  // measure 82
0030
0000
0000
0000
;
