#TITLE:Saturn;
#SUBTITLE:("CHAOS" Special);
#ARTIST:Mr.Saturn;
#TITLETRANSLIT:;
#SUBTITLETRANSLIT:;
#ARTISTTRANSLIT:;
#GENRE:;
#CREDIT:;
#BANNER:Saturn (CHAOS Special).png;
#BACKGROUND:Saturn (CHAOS Special)-bg.png;
#LYRICSPATH:;
#CDTITLE:;
#MUSIC:Saturn (CHAOS Special).ogg;
#OFFSET:0.000000;
#SAMPLESTART:27.879999;
#SAMPLELENGTH:15.000000;
#SELECTABLE:YES;
#DISPLAYBPM:78.000000:155.000000;
#BPMS:0.000000=155.171997
,4.000000=154.990005
,136.000000=77.502998
,152.000000=155.016998
;
#STOPS:
;
#BGCHANGES:;
#KEYSOUNDS:;
#ATTACKS:;

//---------------dance-single - ----------------
#NOTES:
     dance-single:
     :
     Challenge:
     15:
     0.718101,0.815530,0.375257,0.043635,0.885782,576.000000,533.000000,43.000000,5.000000,0.000000,0.000000,0.718101,0.815530,0.375257,0.043635,0.885782,576.000000,533.000000,43.000000,5.000000,0.000000,0.000000:
0000
0000
0000
0000
,
0000
0000
0000
0000
,
0000
0000
0000
0000
,
0000
0000
0000
0000
,
0000
0000
0000
0000
,
0000
0000
0000
0000
,
1010
2010
0000
0000
0001
0000
0000
0000
,
0100
0000
3001
0000
,
0101
0102
0000
0000
1000
0000
0000
0013
,
0001
0000
0000
0001
0000
0000
0001
0000
1000
0010
0100
0010
1000
0000
0001
0000
,
1000
0000
0010
0100
0000
0000
0001
0100
0000
0000
0010
0100
0000
0000
0001
0100
,
0000
0000
0001
1000
0000
0000
0010
1000
0000
0000
0001
1000
0000
0000
0010
1000
,
0000
0000
0001
0100
0000
0000
0001
0010
0000
0000
0001
0100
0000
0000
0001
0010
,
0000
0000
1000
0100
0000
0000
1000
0010
0000
0000
1000
0001
0000
0000
1000
0100
,
1000
0000
0001
0100
0001
0000
1000
0000
0010
0000
0100
0001
0100
0000
0010
0000
,
1000
0000
0100
1000
0100
0000
1000
0000
0001
0000
0100
0010
0100
0000
0001
0000
,
1000
0000
0001
0100
0001
0000
1000
0000
0010
0000
0100
0010
0100
0000
0001
0000
,
1000
0000
0010
0100
0010
0000
1000
0000
0001
0010
0001
0010
0001
0000
1000
0000
,
0001
0000
1000
0001
1000
0000
0001
1000
0001
0000
1000
0001
1000
0000
0010
0000
,
0000
0000
0001
0100
0001
0000
0100
0001
0100
0000
0001
0100
0001
0000
0100
0000
,
0000
0000
1000
0100
1000
0000
0100
1000
0100
0000
1000
0100
1000
0000
0100
0000
,
0000
0000
0001
0010
0001
0000
0010
0001
0010
0000
0001
0010
0001
0000
0010
0000
,
0000
0000
0001
0100
0010
0000
0100
0001
1000
0000
0010
1000
0001
0000
0100
0000
,
0000
0000
1000
0001
0100
0000
1000
0010
0100
0000
1000
0001
0100
0000
0010
0000
,
0000
0000
0001
0100
0010
0000
0001
1000
0010
0000
1000
0001
0010
0000
0001
0000
,
0000
0000
1000
0100
0010
0000
0100
0010
0001
0000
1000
0100
0010
0000
0001
0000
,
0100
0000
0001
0100
0001
0000
1000
0000
0000
0000
0010
1000
0010
0000
0100
0000
,
0000
0000
0001
0010
0001
0000
1000
0000
0000
0000
0001
0100
0001
0000
1000
0000
,
0000
0000
0010
0100
0010
0000
1000
0000
0000
0000
0001
0010
0001
0000
0100
0000
,
0000
0000
0010
1000
0010
0000
0001
0000
0000
0000
1000
0010
1000
0000
0001
0000
,
0000
0000
0010
0100
0010
0000
1000
0000
0000
0000
0001
0100
0001
0000
1000
0000
,
0000
0000
0010
1000
0010
0000
1000
0000
0000
0000
0001
0010
0001
0000
0100
0000
,
0000
0000
0010
1000
0010
0000
0100
0000
0000
0000
0001
0010
0001
0000
0100
0000
,
0001
0010
0100
1000
0001
0100
0010
1000
,
0101
0000
0000
0001
0000
0000
0001
0000
1000
0000
0000
1000
0000
0000
1000
0000
0010
0000
0000
0010
0000
0000
0010
0000
0100
0000
0000
0100
0000
0000
0100
0000
,
0001
0000
0000
0001
0000
0000
0001
0000
1000
0000
0000
1000
0000
0000
1000
0000
0010
0000
0000
0010
0000
0000
0010
0000
0100
0000
0010
0000
0000
0010
0000
0000
,
0010
0000
0000
0000
0000
0000
0000
0000
0000
0000
0000
0000
0000
0000
0010
0001
0010
0000
0000
1000
0000
0000
0100
0000
0000
0000
0000
0000
0000
0100
0010
0000
,
0001
0000
0000
1000
0000
0010
0100
0000
0000
0000
0000
0000
0000
0000
0100
0001
0100
0001
0000
1000
0010
0000
1000
0000
0001
0100
0001
0000
1000
0100
1000
0000
,
0011
0000
0000
0001
0000
0000
0001
0000
1000
0000
0000
1000
0100
0010
0100
1000
,
0001
0000
0000
0001
0000
0000
0001
0000
1000
0000
0000
0010
0100
0001
0100
0010
,
1000
0000
0000
1000
0000
0000
0001
0000
0001
0000
0000
0100
0010
0100
0001
0100
,
0010
0000
0000
0010
0000
0000
1000
0000
1001
0000
0000
0001
0000
0000
0001
0000
,
0110
0000
0000
0100
0000
0000
0100
0000
0001
0000
0000
0001
1000
0010
1000
0001
,
0100
0000
0000
0100
0000
0000
0001
0010
0100
0000
0000
0100
0000
0000
1000
0010
,
0100
0000
0000
0100
0000
0000
0001
1000
0100
0000
0000
0100
0000
0000
1000
0000
,
1100
0000
1000
0000
1001
0000
0002
0000
0100
0000
0000
0103
0010
0100
0010
0100
,
0001
0000
0000
1001
0000
0000
1000
0000
0010
0000
0000
0100
0001
0100
0010
0100
,
0001
0000
0000
1001
0000
0000
1000
0000
0010
0000
0000
0100
0001
0100
0010
0100
,
0001
0000
0000
1001
0000
0000
1000
0000
0010
0000
0000
1000
0100
0010
0100
1000
,
0001
0000
0000
0001
0000
0000
1000
0001
1000
0000
0000
1000
0000
0000
0001
1000
,
0001
0000
0000
0100
0000
0000
0100
0000
0010
0000
0000
0010
1000
0100
1000
0010
,
1000
0000
0000
1000
0000
0000
1000
0000
1001
0000
0000
0001
0000
0000
0001
0100
,
0010
0000
0000
0010
0000
0000
1000
0000
0101
0000
0000
1000
0000
0000
1000
0000
,
0011
0000
0000
0100
0000
0000
0001
0010
0100
0000
0000
1001
0000
0000
1000
0000
,
1100
0000
0001
0100
0001
0000
1000
0010
1000
0000
0001
0010
0001
0000
1000
0100
,
1000
0000
0001
0100
0001
0000
1000
0010
1000
0000
0001
0010
0001
0000
1000
0010
,
1000
0000
0001
0100
0010
0000
0100
0001
1000
0000
0001
0100
0010
0000
1000
0010
,
0100
0000
0001
1000
0100
0000
1000
0010
0100
0000
0001
0100
0010
0000
1000
0000
,
0001
0010
0000
0011
0000
0101
0000
1000
1001
0000
1100
0000
1001
0000
0000
0000
,
1000
0010
0000
1010
0000
1001
0000
1000
1100
0000
1000
0000
1001
0000
0000
0000
,
0010
0001
0000
0101
0000
1001
0000
0100
0010
0000
1010
0000
1001
0000
0000
0000
,
0010
1000
0000
0101
0000
1001
0000
0010
0100
0000
0110
0000
1001
0000
0000
0000
,
0010
1000
0000
0101
0000
1001
0000
1000
0001
0000
0100
0000
1000
0000
0100
0000
,
0001
0100
0000
1001
0000
1010
0000
0100
0001
0000
1000
0000
0010
0000
1000
0000
,
0001
0010
0000
0011
0000
1001
0000
0100
0010
0000
1000
0000
0001
0000
0100
0000
,
0010
1000
0000
0101
0000
1001
0000
0010
0100
0000
0001
0000
2000
0000
0002
0000
,
0000
0000
0000
3003
;

//---------------dance-double - ----------------
#NOTES:
     dance-double:
     :
     Challenge:
     15:
     0.691920,0.841493,0.340350,0.078542,0.837784,555.000000,516.000000,39.000000,9.000000,0.000000,0.000000,0.691920,0.841493,0.340350,0.078542,0.837784,555.000000,516.000000,39.000000,9.000000,0.000000,0.000000:
// measure 0
00000000
00000000
00000000
00000000
,  // measure 1
00000000
00000000
00000000
00000000
,  // measure 2
00000000
00000000
00000000
00000000
,  // measure 3
00000000
00000000
00000000
00000000
,  // measure 4
00000000
00000000
00000000
00000000
,  // measure 5
00000000
00000000
00000000
00000000
,  // measure 6
00021000
00000000
00000000
00001000
00000000
00000000
00001000
00000000
00000010
00000000
00000000
00000010
00000000
00000000
00000010
00000000
,  // measure 7
00001000
00000000
00000000
00001000
00000000
00000000
00001000
00000000
00000100
00000000
00000000
00000100
00000000
00000000
00030100
00000000
,  // measure 8
00011000
00000000
00011000
00000000
00000000
00000000
00000000
00000000
00000000
00000000
00000000
00000000
00000000
00000000
10000000
00100000
,  // measure 9
00010000
00000000
00000000
01000000
00000000
00000000
10000000
00000000
00010000
00100000
01000000
10000000
00100000
00000000
01000000
00100000
,  // measure 10
00010000
00000000
01000000
00100000
00000000
00000000
00100000
00010000
00000000
00000000
00010000
01000000
00000000
00000000
01000000
00100000
,  // measure 11
00000000
00000000
00100000
10000000
00000000
00000000
10000000
00010000
00000000
00000000
00010000
00100000
00000000
00000000
00100000
00001000
,  // measure 12
00000000
00000000
00100000
00000010
00000000
00000000
00000010
00001000
00000000
00000000
00001000
00000001
00000000
00000000
00000001
00010000
,  // measure 13
00000000
00000000
00010000
00001000
00000000
00000000
00001000
01000000
00000000
00000000
01000000
00010000
00000000
00000000
00010000
10000000
,  // measure 14
01000000
00000000
10000000
00010000
01000000
00000000
00010000
00100000
00000000
00000000
01000000
00001000
00010000
00000000
00000100
00010000
,  // measure 15
00000000
00000000
00000010
00001000
00000100
00000000
00001000
00000001
00000000
00000000
00001000
00000100
00010000
00000000
00000100
00010000
,  // measure 16
00000000
00000000
00001000
00100000
00010000
00000000
00100000
00010000
00000000
00000000
01000000
00010000
10000000
00000000
00010000
10000000
,  // measure 17
00100000
00000000
00100000
00000000
00100000
00000000
00100000
00000000
10000000
01000000
00100000
00010000
10000000
01000000
00100000
00010000
,  // measure 18
10000000
00000000
00010000
01000000
00010000
00000000
10000000
00010000
10000000
00000000
00010000
01000000
00010000
00000000
00100000
00000000
,  // measure 19
00000000
00000000
00001000
00010000
00001000
00000000
00010000
00000010
00010000
00000000
00000010
00001000
00000010
00000000
00001000
00000000
,  // measure 20
00000000
00000000
00000001
00001000
00000001
00000000
00001000
00000100
00001000
00000000
00000001
00001000
00000001
00000000
00000100
00000000
,  // measure 21
00000000
00000000
00010000
00000100
00010000
00000000
00001000
00010000
00001000
00000000
00010000
00000010
00010000
00000000
00001000
00000000
,  // measure 22
00000000
00000000
01000000
00010000
01000000
00000000
00001000
01000000
00001000
00000000
01000000
00100000
01000000
00000000
00010000
00000000
,  // measure 23
00000000
00000000
10000000
00010000
10000000
00000000
10000000
01000000
10000000
00000000
00100000
01000000
00100000
00000000
10000000
00000000
,  // measure 24
00000000
00000000
00010000
01000000
00010000
00000000
00100000
00010000
00100000
00000000
00010000
10000000
01000000
00000000
10000000
00000000
,  // measure 25
00000000
00000000
00010000
00100000
01000000
00000000
10000000
01000000
00100000
00000000
00010000
00100000
01000000
00000000
10000000
00000000
,  // measure 26
00010000
00000000
00100000
00100000
00001000
00000000
00010000
00000000
00000000
00000000
00000010
00000010
00010000
00000000
00001000
00000000
,  // measure 27
00000000
00000000
01000000
01000000
00001000
00000000
00010000
00000000
00000000
00000000
00000100
00000100
00010000
00000000
00000010
00000000
,  // measure 28
00000000
00000000
00001000
00000001
00001000
00000000
00000100
00000000
00000000
00000000
00001000
00000010
00001000
00000000
00000100
00000000
,  // measure 29
00000000
00000000
00001000
00001000
00000001
00000000
00000100
00000000
00000000
00000000
00010000
00010000
00000100
00000000
00010000
00000000
,  // measure 30
00000000
00000000
00001000
00100000
00001000
00000000
01000000
00000000
00000000
00000000
00010000
10000000
00010000
00000000
01000000
00000000
,  // measure 31
00000000
00000000
00001000
00010000
00001000
00000000
01000000
00000000
00000000
00000000
00100000
10000000
01000000
00000000
00100000
00000000
,  // measure 32
00000000
00000000
10000000
01000000
00100000
00000000
00001000
00000000
00000000
00000000
00010000
00000100
00001000
00000000
00000001
00000000
,  // measure 33
00001000
00000000
00000100
00000000
00000010
00000000
00000001
00000000
00001000
00000100
00000010
00000100
00001000
00000000
00000001
00000000
,  // measure 34
00020000
00000000
00000000
00000000
00000000
00000000
00000000
00000000
00000100
00000000
00000000
00000000
00000000
00000000
00000000
00000000
00001000
00000000
00000000
00000000
00000000
00000000
00000000
00000000
00030100
00000000
00010100
00000000
00000000
00101000
00000000
00000000
,  // measure 35
00010200
00000000
00000000
00000000
00000000
00000000
00000000
00000000
00001000
00000000
00000000
00000000
00000000
00000000
00000000
00000000
00100000
00000000
00000000
00000000
00000000
00000000
00000000
00000000
00001300
00000000
00001100
00000000
00000000
00010100
00000000
00000000
,  // measure 36
00020000
00000000
00000000
00000010
00000000
00000000
00000010
00000000
00032000
00000000
00000000
00000010
00000000
00000000
00000010
00000000
00023000
00000000
00000000
00000010
00000000
00000000
00000010
00000000
00032000
00000000
00000100
00000000
00000000
00000100
00000000
00000000
,  // measure 37
00003100
00000000
00000000
00000000
00000000
00000000
00000000
00000000
00000000
00000000
00000000
00000000
00000000
00000000
00100000
00000000
00010000
00100000
00000000
01000000
10000000
00000000
00100000
00000000
10000000
00000000
01000000
00000000
00100000
00001000
00010000
00001000
,  // measure 38
00100000
00000000
00000000
00010000
00000000
00000000
00010000
00000000
01000000
00000000
00000000
00010000
00000000
00000000
00010000
00000000
,  // measure 39
00100000
00000000
00000000
00001000
00000000
00000000
00001000
00000000
00010000
00000000
00000000
00000010
00000000
00000000
00000010
00000000
,  // measure 40
00001000
00000000
00000000
00000001
00000000
00000000
00000001
00000000
00001000
00000000
00000000
00000100
00000000
00000000
00000100
00000000
,  // measure 41
00010000
00000100
00000000
00010000
00000100
00000000
00010000
00000000
00001000
00100000
00000000
00001000
00100000
00000000
00001000
00000000
,  // measure 42
00100000
00000000
00000000
00100000
00000000
00000000
00010000
00000000
01000000
00000000
00000000
01000000
00000000
00000000
00100000
00000000
,  // measure 43
10000000
00000000
00000000
10000000
00000000
00000000
00100000
00000000
01000000
00000000
00000000
01000000
00000000
00000000
00001000
00010000
,  // measure 44
00001000
00000000
00000000
00010000
00000000
00000000
00010000
00000000
00000100
00000000
00000000
00000100
00000000
00000000
00000100
00000000
,  // measure 45
00001000
00000000
00000100
00000000
00000010
00000000
00000001
00000000
00001000
00000010
00001000
00000010
00001000
00000010
00001000
00000010
,  // measure 46
00000100
00000000
00000000
00000010
00010000
00000000
00000100
00000000
00000100
00000000
00000000
00000000
00010000
00001000
01000000
00001000
,  // measure 47
00010000
00000000
00000000
00001000
01000000
00000000
00010000
00000000
00010000
00000000
00000000
00000000
10000000
01000000
00100000
00010000
,  // measure 48
10000000
00000000
00000000
00100000
01000000
00000000
00010000
00000000
00010000
00000000
00000000
00010000
10000000
01000000
00100000
00010000
,  // measure 49
10000000
00000000
00000000
00010000
00100000
00000000
00010000
01000000
00010000
00000000
00000000
00010000
00100000
00000000
00010000
00000000
,  // measure 50
10010000
00000000
00000000
10000000
00000000
00000000
01000000
00000000
10000000
00000000
00000000
00100000
00000000
00000000
10000000
00000000
,  // measure 51
00010000
00000000
00000000
00100000
00000000
00000000
00010000
00000000
00100000
00000000
00000000
00001000
00000000
00000000
00010000
00000000
,  // measure 52
00000010
00000000
00000000
00001000
00000000
00000000
00000100
00001000
00000001
00000000
00000000
00001000
00000000
00000000
00000010
00001000
,  // measure 53
00000100
00000000
00000000
00001000
00000000
00000000
00000100
00010000
00001000
00000000
00000000
01000000
00000000
00000000
00010000
00000000
,  // measure 54
10000000
00000000
00010000
01000000
00000000
00000000
01000000
10000000
00000000
00000000
10000000
01000000
00000000
00000000
01000000
00010000
,  // measure 55
00000000
00000000
00010000
00100000
00000000
00000000
00100000
00010000
00000000
00000000
00010000
00100000
00001000
00000000
00010000
00000000
,  // measure 56
00000010
00000000
00001000
00000010
00000000
00000000
00000010
00000100
00000000
00000000
00000100
00000001
00000000
00000000
00000001
00001000
,  // measure 57
00000000
00000000
00001000
00000100
00000000
00000000
00000100
00001000
00000000
00000000
00001000
00000010
00000100
00000000
00000010
00000000
,  // measure 58
00001000
00000100
00000000
00001100
00000000
00010100
00000000
00010000
00001000
00000000
01001000
00000000
00101000
00000000
00011000
00000000
,  // measure 59
00100000
00010000
00000000
01010000
00000000
10010000
00000000
00100000
01000000
00000000
01010000
00000000
01001000
00000000
01010000
00000000
,  // measure 60
10000000
00010000
00000000
00100000
00000000
00001000
00000000
00010000
00000100
00000000
00010100
00000000
00010010
00000000
00010100
00000000
,  // measure 61
00000100
00001000
00000000
00000010
00000000
00000100
00000000
00000001
00000010
00000000
00000011
00000000
00001010
00000000
00000011
00000000
,  // measure 62
00000100
00000010
00000000
00001010
00000000
00000101
00000000
00001000
00000100
00000000
00010000
00000000
00001000
00000000
01000000
00000000
,  // measure 63
00100000
10000000
00000000
01010000
00000000
10100000
00000000
00100000
01000000
00000000
00010000
00000000
00110000
00000000
00101000
00000000
,  // measure 64
00100000
00001000
00000000
00011000
00000000
00010010
00000000
00000010
00001000
00000000
00000101
00000000
00001010
00000000
00000101
00000000
,  // measure 65
00001000
00000100
00000000
00010000
00000000
00001000
00000000
01000000
00010000
00000000
10010000
00000000
01001000
00000000
20020000
00000000
,  // measure 66
00000000
00000000
30030000
00000000
;
