#TITLE:Sakura Luminance;
#SUBTITLE:;
#ARTIST:Ryu☆;
#TITLETRANSLIT:;
#SUBTITLETRANSLIT:;
#ARTISTTRANSLIT:;
#GENRE:;
#CREDIT:;
#MENUCOLOR:;
#METERTYPE:DDR;
#BANNER:Sakura Luminance.png;
#BACKGROUND:Sakura Luminance-bg.png;
#LYRICSPATH:;
#CDTITLE:;
#MUSIC:Sakura Luminance.ogg;
#OFFSET:-0.661;
#SAMPLESTART:96.666;
#SAMPLELENGTH:12.000;
#SELECTABLE:YES;
#LISTSORT:;
#BPMS:0.000=170.000;
#STOPS:;
#BGCHANGES:;
#ATTACKS:;

//---------------dance-single - ----------------
#NOTES:
     dance-single:
     :
     Hard:
     13:
     0.608,0.653,0.264,0.184,0.284:
0000
0000
0000
0000
,
0000
0000
0000
0000
,
0000
0000
0000
0000
,
0000
0000
0000
0000
,
0000
0000
0000
0000
,
1000
0000
0001
0000
1000
0001
0100
0000
,
0001
0000
1000
0000
0001
0100
0010
0000
,
1000
0000
0001
0000
0100
0010
1000
0000
,
0001
0100
0001
0100
0010
0000
0000
0000
,
2002
0000
0000
3003
,
0010
1000
0100
0000
1000
0001
1000
0100
,
0000
0001
0100
0010
1000
0010
0100
0000
,
0101
0000
1010
0000
0010
0100
0001
1000
,
0000
0010
1000
0010
1000
0000
1100
0000
,
0011
0000
0101
0000
0001
1000
0010
0100
,
0000
0001
1000
0001
0100
0001
0010
0100
,
1000
0000
1010
0000
0001
0100
0010
1000
,
0000
0001
0001
1000
1001
0000
0110
0000
,
1000
0000
0010
0000
0100
0000
0001
0000
1000
0001
1000
0000
0001
0000
0100
0000
,
0010
0000
1000
0000
0100
1000
0100
0000
1000
0000
0010
0000
0100
0000
0010
0000
,
1000
0000
0100
0000
0010
0000
0001
0000
0100
0001
0100
0000
0020
0000
0000
0000
,
0000
1030
0001
0100
0010
0000
1010
0000
,
0001
0000
0100
0000
0001
0000
1000
0000
0010
1000
0010
0000
0100
0000
0001
0000
,
1000
0000
0100
0000
0010
0001
0010
0000
0001
0000
0100
0000
1000
0000
0100
0000
,
0001
0000
0010
0000
0100
0001
0100
0000
0010
0000
1000
0000
0002
0000
0000
0000
,
0000
0103
0010
1000
1001
0000
1100
0000
,
0002
0000
0000
0000
0100
0000
0000
0000
0100
0000
0000
0000
0103
0000
0000
0100
,
0001
0000
0000
0001
1000
0000
0000
1000
0010
0000
0000
0010
0100
0000
0000
0100
,
0001
1000
0100
1000
0001
0010
0001
1000
,
0001
0000
0000
0001
0100
0000
0000
0100
0010
0000
0000
0010
1000
0000
0000
1000
,
0200
0000
0000
0000
1000
0000
0000
0000
1000
0000
0000
0000
1300
0000
0000
1000
,
0001
0000
0000
0001
0100
0000
0000
0100
0010
0000
0000
0010
1000
0000
0000
1000
,
0100
1000
0001
1000
0010
0100
0001
1000
,
0010
0000
0000
0010
1000
0000
0000
1000
0001
0000
0000
0001
0100
0000
0010
0000
,
2000
0000
0000
0000
0001
0000
0000
0000
0001
0000
0000
0000
3001
0000
0000
0001
,
0100
0000
0000
0100
0010
0000
0000
0010
0100
0000
0000
0100
0001
0000
0000
0001
,
1000
0010
0100
0001
0010
0100
0010
0001
,
1000
0000
0000
1000
0001
0000
0000
0001
0100
0000
0010
0000
1000
0100
1000
0000
,
0020
0100
0100
0130
,
0001
0100
0001
0100
0010
1000
0010
1000
,
0001
0100
1000
0100
0001
0010
0100
1000
,
0100
0001
0100
1000
0010
0100
0001
0000
,
2002
0000
0000
0000
,
0000
0000
0000
0000
,
0000
0000
0000
0000
,
0000
0000
3003
0000
,
0220
0000
0000
0000
,
0000
0000
0000
0000
,
0000
0000
0000
0000
,
0000
0000
0330
0000
,
0010
0000
0000
0000
1000
0000
0001
0000
0100
0000
0000
0001
0000
1000
0000
0001
,
0100
0000
0001
1000
0100
0000
1001
0000
,
0110
0000
0000
0000
1000
0000
0010
0000
0100
0000
0000
0001
0000
0100
0000
0010
,
0100
0000
0001
0100
0010
0000
1001
0000
,
1010
0000
0000
0000
0010
0000
0100
0000
0001
0000
0000
1000
0000
0001
0000
0100
,
0010
0100
0001
1000
0100
0000
1000
0010
,
0100
0000
0000
0000
0001
0000
0100
0000
0001
0000
0000
1000
0000
0010
0000
1000
,
0100
0010
0001
0100
0020
0000
1030
0000
,
0020
0000
0000
0000
1000
0000
0031
0000
0100
0000
0000
0010
0000
0100
0000
0010
,
1000
0010
0100
0001
1000
0000
0001
0100
,
0020
0000
0000
0000
0100
0000
0031
0000
1000
0000
0000
0001
0000
1000
0000
0001
,
0100
0010
1000
0001
1000
0000
0000
0000
,
0002
0000
0000
0000
0100
0000
0013
0000
1000
0000
0000
0010
0000
0100
0000
0001
,
1000
1000
0001
0100
0010
0100
0001
1000
,
0100
0000
0000
0000
1000
0000
0100
0000
0010
0000
0000
1000
0000
0010
0000
0100
,
0001
0100
0010
1000
2002
0000
3003
0000
,
0010
0010
0010
0000
0010
0000
0020
0000
,
0200
0000
0330
1001
,
0100
0000
0001
0000
1000
0000
0001
0000
0100
0000
0000
0010
0000
1000
0000
0100
,
1000
0010
0100
0001
1000
0000
0010
1000
,
0001
0000
1000
0000
0010
0000
0100
0000
0001
0000
0000
1000
0000
0010
0000
1000
,
0001
0100
0010
1000
0002
0100
0103
0000
,
0010
0000
1000
0000
0001
0000
1000
0000
0001
0000
0000
1000
0000
0100
0000
1000
,
0010
0100
0010
1000
0100
0000
1000
0001
,
0100
0000
0001
0000
1000
0000
0010
0000
0100
0000
0000
0001
0000
0100
0000
0010
,
1000
0001
1000
0100
1100
0000
0101
0000
,
0010
0100
0001
1000
1001
0000
0001
0010
,
0100
0000
1000
0000
1100
0000
0000
0000
0010
0001
0010
0000
1000
0100
1000
0000
,
0001
0100
0010
1000
0010
0100
0101
0000
,
0010
1000
0100
1000
1100
0000
0101
0000
,
0010
0001
0100
0010
0110
0000
1000
0010
,
0100
0000
0001
0000
0101
0000
0000
0000
0001
0010
0001
0000
1000
0100
1000
0000
,
0001
0100
0010
1000
0100
0010
0011
0000
,
0001
0100
0010
1000
1001
0000
0110
0000
,
2002
0000
0000
0000
,
0000
0000
0000
0000
,
3003
0000
0000
0000
;

//---------------dance-double - ----------------
#NOTES:
     dance-double:
     :
     Hard:
     13:
     0.565,0.618,0.200,0.168,0.192:
00000000
00000000
00000000
00000000
,
00000000
00000000
00000000
00000000
,
00000000
00000000
00000000
00000000
,
00000000
00000000
00000000
00000000
,
00000000
00000000
00000000
00000000
,
00010000
10000000
02000000
03000000
,
00001000
00010000
00000200
00000300
,
00001000
00000001
00000020
00000030
,
00001000
00000100
00001000
00000100
00002000
00000000
00003000
00000000
,
00000020
00000000
00000030
00000110
,
00000001
00000000
00001000
00000000
00000010
00001000
00000100
00010000
,
00000000
00001000
00100000
00010000
00100000
00010000
01000000
00100000
,
10000000
00000000
00010000
00000000
01000000
00001000
00010000
00001000
,
00000000
00010000
00000010
00000100
00001000
00000100
00000001
00000000
,
00001100
00000000
00000101
00000000
00000001
00001000
00000100
00001000
,
00000000
00000100
00010000
00001000
00010000
00000100
00010000
00001000
,
00100000
00000000
00010000
00000000
01000000
10000000
00100000
01000000
,
00000000
00010000
00100000
00001000
00010000
00000000
00010100
00000000
,
00001000
00000100
00000010
00000001
00001000
00000000
00000100
00010000
,
00001000
00010000
00000100
00000000
00011000
00000000
01010000
00000000
,
10000000
00100000
01000000
00010000
01000000
00100000
20000000
00000000
,
00000000
30010000
00100000
00001000
00010000
00000000
00011000
00000000
,
00001000
00010000
00000100
00001000
00000001
00000000
00001000
00000100
,
00010000
00001000
01000000
00000000
00010000
10000000
00100000
10000000
,
00010000
01000000
00001000
00010000
00000100
00001000
00000020
00000000
,
00000000
00000130
00000001
00001000
00000100
00000000
00001100
00000000
,
00000002
00000000
00000000
00000000
00001000
00000000
00000000
00000000
00001000
00000000
00000000
00000000
00001003
00000000
00000000
00001000
,
00000100
00000000
00000000
00000100
00010000
00000000
00000000
00010000
00001000
00000000
00000000
00001000
01000000
00000000
00000000
01000000
,
00100000
10000000
00100000
01000000
00100000
10000000
01000000
00100000
,
00010000
00000000
00000000
00010000
00100000
00000000
00000000
00100000
00001000
00000000
00000000
00001000
00010000
00000000
00000000
00010000
,
00000020
00000000
00000000
00000000
00001000
00000000
00000000
00000000
00001000
00000000
00000000
00000000
00001030
00000000
00000000
00001000
,
00000100
00000000
00000000
00000100
00010000
00000000
00000000
00010000
00001000
00000000
00000000
00001000
00100000
00000000
00000000
00100000
,
00010000
01000000
00100000
10000000
00100000
01000000
00001000
00010000
,
00000100
00000000
00000000
00000100
00001000
00000000
00000000
00001000
00100000
00000000
00000000
00100000
00010000
00000000
00000000
00010000
,
02000000
00000000
00000000
00000000
00010000
00000000
00000000
00000000
00100000
00000000
00000000
00000000
03010000
00000000
00000000
00010000
,
10000000
00000000
00000000
10000000
00100000
00000000
00000000
00100000
01000000
00000000
00000000
01000000
00001000
00000000
00000000
00001000
,
00010000
00000100
00001000
00000100
00001000
00000001
00001000
00000001
,
00001000
00000100
00000010
00000001
00001000
00000100
00010000
00001000
,
02000000
00010000
00010000
03010000
,
00100000
10000000
00100000
10000000
00010000
01000000
00010000
01000000
,
00100000
01000000
00100000
00000000
10000000
00010000
10000000
00000000
,
00010000
00100000
00001000
00000000
00010000
00000100
00001000
00000000
,
00022000
00000000
00000000
00000000
,
00000000
00000000
00000000
00000000
,
00000000
00000000
00000000
00000000
,
00000000
00000000
00033000
00000000
,
02200000
00000000
00000000
00000000
,
00000000
00000000
00000000
00000000
,
00000000
00000000
00000000
00000000
,
03300000
00000000
00000000
00000000
,
00100000
00000000
00000000
00000000
10000000
00000000
00010000
00000000
01000000
00000000
00000000
00010000
00000000
10000000
00000000
00010000
,
01000000
00000000
00001000
00010000
00001000
00000000
00010000
00000100
,
00001000
00000000
00000000
00000000
00000010
00000000
00000000
00000000
00001000
00000000
00000000
00000001
00000000
00001000
00000000
00000100
,
00001000
00000000
00000100
00010000
00001000
00000000
01000000
00000000
,
00010000
00000000
00000000
00000000
10000000
00000000
00010000
00000000
01000000
00000000
00000000
00010000
00000000
00100000
00000000
00010000
,
00100000
00000000
00001000
00010000
00000100
00000000
00001000
00000001
,
00000100
00000000
00000000
00000000
00000010
00000000
00000000
00000000
00001000
00000000
00000000
00000100
00000000
00010000
00000000
00000100
,
00010000
00000000
00001000
00100000
00010000
00000000
01010000
00000000
,
00100000
00000000
00000000
00000000
10000000
00000000
00100000
00000000
01000000
00000000
00000000
00010000
00000000
01000000
00000000
00010000
,
01000000
00000000
00100000
10000000
01000000
00000000
00100000
00001000
,
00010000
00000000
00000000
00000000
00001000
00000000
00000000
00000000
00010000
00000000
00000000
00000100
00000000
00001000
00000000
00000010
,
00001000
00000100
00000010
00000001
00001000
00000000
00001100
00000000
,
00000100
00000000
00000000
00000000
00010000
00000000
00001000
00000000
00100000
00000000
00000000
00010000
00000000
00100000
00000000
00010000
,
01000000
00100000
01000000
00100000
10000000
00010000
01000000
00010000
,
01000000
00000000
00000000
00000000
00001000
00000000
00010000
00000000
00001000
00000000
00000000
00010000
00000000
00000100
00000000
00000000
,
00001000
00000010
00000100
00000001
00001001
00000000
00001100
00000000
,
00000010
00000010
00000010
00000000
00000010
00000000
00000020
00000000
,
00000200
00000000
00000330
00001100
,
00000100
00010000
00001000
01000000
00010000
10000000
00100000
01000000
,
00010000
00100000
00001000
00010000
00000100
00001000
00000010
00000100
,
00000001
00001000
00000100
00010000
00001000
01000000
00010000
10000000
,
00100000
01000000
00001000
00010000
00000100
00000000
00001001
00000000
,
00000100
00001000
00000100
00010000
00001000
01000000
00010000
10000000
,
00010000
01000000
00001000
00010000
00000100
00001000
00000001
00001000
,
00000010
00000000
00000000
00000000
00010000
00000000
00000100
00000000
00010000
00001000
00000000
00001000
00000000
00000000
00000000
00000000
,
00010000
00001000
01000000
00100000
10010000
00000000
11000000
00000000
,
00100000
00001000
00010000
00000100
00001100
00000000
00000001
00001000
,
00000100
00001000
00001100
00000000
00000100
00010000
00001000
01000000
,
00100000
10000000
01000000
00100000
00010000
01000000
01100000
00000000
,
10000000
00010000
00100000
00001000
00010000
00000000
00011000
00000000
,
00010000
00000100
00001000
00000001
00001000
00000100
00010000
00001000
,
01000000
00010000
10000000
00010000
01000000
00100000
01000000
00001000
,
00010000
00000100
00001000
00000010
00000100
00000001
00001001
00000000
,
00001000
00000100
00010000
00001000
00022000
00000000
00033000
00000000
,
00022000
00000000
00000000
00000000
,
00000000
00000000
00000000
00000000
,
00033000
00000000
00000000
00000000
;

//---------------dance-double - ----------------
#NOTES:
     dance-double:
     :
     Medium:
     9:
     0.413,0.584,0.336,0.144,0.000:
00000000
00000000
00000000
00000000
,
00000000
00000000
00000000
00000000
,
00000000
00000000
00000000
00000000
,
00000000
00000000
00000000
00000000
,
00000000
00000000
00000000
00000000
,
00100000
10000000
01000000
00000000
,
00100000
00001000
00010000
00000000
,
00000100
00001000
00000001
00000000
,
00001000
00000100
00010000
00000000
,
00002000
00000000
00000000
00013000
,
00001000
00000000
00100000
00000000
00010000
01000000
00010000
01000000
,
00000000
00001000
00010000
00000010
,
00001000
00000000
00000001
00000000
00001000
00000100
00001000
00000100
,
00000000
00010000
00001000
01000000
,
00100000
00000000
10000000
00000000
00010000
10000000
00010000
10000000
,
00000000
00100000
01000000
00010000
,
00100000
00000000
00001000
00000000
00010000
00000010
00010000
00000010
,
00000000
00001000
00000010
00000100
00000010
00000000
00000000
00000000
,
00000001
00000100
00001000
00001100
,
00010000
00001000
00101000
00100000
,
01010000
00000000
10000000
00000000
00100000
01000000
00010000
00000000
,
00000000
00100000
00001000
00010000
00001000
00000000
00011000
00000000
,
00010100
00000100
00001000
00001010
,
00000100
00000001
00001001
00001000
,
00001100
00010000
00001000
02000000
,
00000000
03010000
01000000
00100000
01000000
00000000
00000000
00000000
,
20010000
00010000
00010000
00010000
,
00010000
00010000
00010000
30010000
,
10000000
00100000
01000000
00000000
01000000
00000000
00010000
00000000
,
00100000
00001000
00010000
00000000
00000100
00000000
00001100
00000000
,
00002000
00000010
00000010
00000010
,
00000010
00000010
00000010
00003010
,
00000001
00000100
00000010
00000000
00001000
00000000
00001100
00000000
,
00000100
00010000
00001000
00000000
00011000
00000000
00101000
00000000
,
00200000
00010000
00010000
00010000
,
01000000
01000000
00010000
00310000
,
00100000
00010000
01000000
00000000
00100000
00000000
10000000
00000000
,
00010000
01000000
00001000
00000000
00010000
00000000
00000100
00000000
,
00002000
00000001
00000001
00000001
,
00000100
00000100
00000001
00003001
,
00001000
00000100
00001000
00000000
00000001
00000010
00000001
00000000
,
00001000
00000100
00010000
00001000
,
00022000
00000000
00000000
00000000
,
00000000
00000000
00000000
00000000
,
00000000
00000000
00000000
00000000
,
00033000
00000000
00000000
00000000
,
20020000
00000000
00000000
00000000
,
00000000
00000000
00000000
00000000
,
00000000
00000000
00000000
00000000
,
30030000
00000000
00000000
00000000
,
00100000
01000000
00010000
00000000
,
00010000
00000010
00001000
00000000
,
00000001
00000100
00001000
00000000
,
00010000
01000000
10000000
00000000
,
00100000
10000000
01000000
00000000
,
00001000
00010000
00000010
00000000
,
00001000
00000100
00000001
00000000
,
00010000
00001000
01000000
00000000
,
10000000
00100000
00010000
00000000
,
00001000
00000010
00000001
00000000
,
00001000
00000100
00010000
00000000
,
01000000
00001000
00010000
00000000
,
00000100
00001000
00000010
00000001
,
00001000
00000100
00010000
00001000
,
01000000
00010000
00100000
10000000
,
01000000
00010000
01000000
00010000
10000000
00000000
00000000
00000000
,
00100000
01000000
00100000
00000000
01000000
00000000
02000000
00000000
,
00200000
00000000
03300000
10010000
,
10100000
00000000
01010000
00000000
01000000
00010000
00100000
00000000
,
00110000
00000000
00011000
00000000
00010000
00000100
00001000
00000000
,
00001010
00000000
00000101
00000000
00001000
00000100
00001000
00000000
,
00010100
00011000
01001000
01010000
,
10010000
00000000
01100000
00000000
10000000
00010000
01000000
00000000
,
00110000
00101000
00010100
00001001
,
00000110
00000000
00001010
00000000
00000010
00001000
00000100
00000000
,
00010000
00000100
00010000
00001000
00010000
00000000
00011000
00000000
,
00100000
00010000
01000000
00010000
01000000
00000000
00100000
10000000
,
01000000
10000000
01000000
00000000
01010000
00000000
00100000
00000000
,
00100000
00001000
00100000
00001000
00010000
00000000
00022000
00000000
,
00033000
00000000
00010000
00000100
00001000
00000000
00001010
00000000
,
00000100
00000001
00001000
00000001
00001000
00000000
00000100
00001000
,
00000100
00001000
00000100
00000000
00010100
00000000
00010000
00000000
,
00011000
00000000
00100000
00001000
00100000
00000000
00220000
00000000
,
00330000
10000000
01000000
00100000
00010000
00000000
00000000
00000000
,
20020000
00000000
00000000
00000000
,
00000000
00000000
00000000
00000000
,
30030000
00000000
00000000
00000000
;

//---------------dance-single - ----------------
#NOTES:
     dance-single:
     :
     Medium:
     9:
     0.422,0.584,0.360,0.192,0.000:
0000
0000
0000
0000
,
0000
0000
0000
0000
,
0000
0000
0000
0000
,
0000
0000
0000
0000
,
0000
0000
0000
0000
,
0010
1000
0100
0000
,
0010
0001
0100
0000
,
0001
0100
1000
0000
,
1000
0100
0001
0000
,
2000
0000
0000
3001
,
1000
0000
0010
0000
0001
0100
0001
0100
,
0000
1000
0100
0010
,
0001
0000
0100
0000
0010
0100
0010
0100
,
0000
0001
1000
0100
,
0010
0000
1000
0000
0001
1000
0001
1000
,
0000
0010
0100
1000
,
0001
0000
0100
0000
0001
0010
0001
0010
,
0000
1000
0100
1000
0100
0000
0000
0000
,
0001
0100
1000
1100
,
0001
1000
1010
0010
,
0101
0000
1000
0000
0010
0100
0001
0000
,
0000
0010
1000
0001
1000
0000
1001
0000
,
0101
0100
1000
1010
,
0100
0001
1001
1000
,
1100
0001
1000
0200
,
0000
0310
0100
0010
0100
0000
0000
0000
,
2001
0001
0001
0001
,
0001
0001
0001
3001
,
1000
0010
0100
0000
0100
0000
0001
0000
,
0010
1001
0100
1100
,
2000
0010
0010
0010
,
0010
0010
0010
3010
,
0001
0100
0010
0000
1000
0000
1100
0000
,
0100
1001
0010
0011
,
0020
0001
0001
0001
,
0100
0100
0001
0031
,
0010
0001
0100
0000
0010
0000
1000
0000
,
0001
0100
0010
0000
1000
0000
0001
0000
,
2000
0001
0001
0001
,
0100
0100
0001
3001
,
1000
0100
1000
0000
0001
0010
0001
0000
,
1000
0100
0001
1000
,
2002
0000
0000
0000
,
0000
0000
0000
0000
,
0000
0000
0000
0000
,
3003
0000
0000
0000
,
0220
0000
0000
0000
,
0000
0000
0000
0000
,
0000
0000
0000
0000
,
0330
0000
0000
0000
,
0010
0100
0002
0003
,
1000
0010
0002
0003
,
0001
0100
1000
0000
,
1000
0010
2000
3000
,
0010
1000
0100
0000
,
0001
0010
0200
0300
,
1000
0100
0002
0003
,
0010
1000
0200
0300
,
1000
0010
0001
0100
,
1000
0010
0001
0010
,
1000
0100
0001
0100
,
1000
0010
0001
0000
,
0100
1000
0010
0001
,
0010
1000
0100
0001
,
0100
0001
0010
1000
,
0001
0100
1000
0000
,
0010
0100
0010
0000
0100
0000
0200
0000
,
0020
0000
0330
1001
,
1010
0000
0101
0000
0100
0001
0010
0000
,
0011
0000
1001
0000
0001
0100
1000
0000
,
1010
0000
0101
0000
1000
0100
1000
0000
,
0101
1001
1100
0101
,
1001
0000
0110
0000
1000
0001
0100
0000
,
0011
1010
0101
1001
,
0110
0000
1010
0000
0010
1000
0100
0000
,
0001
0100
0001
1000
0001
0000
1001
0000
,
0010
0001
0100
0001
0100
0000
0010
1000
,
0100
1000
0100
0000
1100
0000
1010
0000
,
0010
1000
0010
1000
0001
0000
2002
0000
,
3003
0000
0001
1000
0001
0000
1010
0000
,
0100
0001
1000
0001
1000
0000
0100
0010
,
0100
0010
0100
0000
0101
0000
1001
0000
,
1001
0000
0010
1000
0010
0000
0220
0000
,
0330
1000
0100
0010
0001
0000
0000
0000
,
2002
0000
0000
0000
,
0000
0000
0000
0000
,
3003
0000
0000
0000
;

//---------------dance-single - ----------------
#NOTES:
     dance-single:
     :
     Easy:
     6:
     0.293,0.447,0.184,0.208,0.000:
0000
0000
0000
0000
,
0000
0000
0000
0000
,
0000
0000
0000
0000
,
0000
0000
0000
0000
,
0000
0000
0000
0000
,
0010
0000
0100
0000
,
0010
0000
0100
0000
,
0001
0000
1000
0000
,
1000
0000
0001
0000
,
2002
0000
0000
3003
,
1000
0010
0100
0001
,
0100
1000
0100
0001
,
0100
0100
0010
0020
,
0030
1001
1001
0000
,
0010
1000
0001
0001
,
1000
0010
0100
1000
,
0001
0001
1000
2000
,
3000
0110
0110
0000
,
0001
0100
1000
0100
,
0001
1000
0010
0010
,
1000
0100
0010
0002
,
0003
1001
1001
0000
,
1000
0010
0001
0010
,
1000
0010
0001
1000
,
0001
1000
0100
0020
,
0030
0110
0110
0000
,
2002
0000
0000
0000
,
0000
0000
3003
0000
,
1000
0010
0100
0000
,
0001
0100
0010
0000
,
2002
0000
0000
0000
,
0000
0000
3003
0000
,
0001
0010
1000
0000
,
1000
0100
0001
0000
,
0220
0000
0000
0330
,
0100
0010
0100
0010
,
1000
0100
0010
0001
,
0010
0100
1000
0001
,
2002
0000
0000
0000
,
3003
0010
0000
0010
,
0000
0100
0000
0100
,
0000
0100
0001
1000
,
2002
0000
0000
0000
,
0000
0000
0000
0000
,
0000
0000
0000
0000
,
3003
0000
0000
0000
,
0220
0000
0000
0000
,
0000
0000
0000
0000
,
0000
0000
0000
0000
,
0330
0000
0000
0000
,
0010
0000
0100
0000
,
0010
0000
0100
0000
,
0001
0000
1000
0000
,
1000
0000
0001
0000
,
0100
0000
0010
0000
,
0100
0000
0010
0000
,
0001
0000
1000
0000
,
0001
0000
1000
0000
,
0001
0010
0100
0000
,
1000
0010
0001
0000
,
1000
0100
0010
0000
,
1000
0100
0001
0000
,
0100
0100
0010
0000
,
0010
1000
0100
0000
,
0010
0010
0100
0000
,
0001
0100
0010
0000
,
0010
0010
0100
0200
,
0020
0000
0330
1001
,
0010
0001
0100
0001
,
0010
0010
0010
1001
,
0010
1000
0100
1000
,
0010
0010
0010
1001
,
0001
0010
1000
0010
,
0001
0001
1000
1000
,
0001
0010
1000
0010
,
0001
0001
1000
0000
,
0001
0100
1000
0100
,
0001
0100
0010
0010
,
1000
0010
0001
2002
,
3003
0010
0100
0000
,
0100
0001
0100
1000
,
0010
1000
0001
0100
,
0001
0010
0100
2002
,
3003
0110
1001
0000
,
2002
0000
0000
0000
,
0000
0000
0000
0000
,
3003
0000
0000
0000
;

//---------------dance-double - ----------------
#NOTES:
     dance-double:
     :
     Easy:
     5:
     0.280,0.378,0.152,0.232,0.000:
00000000
00000000
00000000
00000000
,
00000000
00000000
00000000
00000000
,
00000000
00000000
00000000
00000000
,
00000000
00000000
00000000
00000000
,
00000000
00000000
00000000
00000000
,
00100000
00000000
01000000
00000000
,
00001000
00000000
00010000
00000000
,
00000010
00000000
00000100
00000000
,
00010000
00000000
00001000
00000000
,
00022000
00000000
00000000
00033000
,
00001000
00100000
00010000
01000000
,
00100000
10000000
00010000
01000000
,
00001000
00010000
00000100
00002000
,
00003000
00001001
00001001
00000000
,
00000010
00001000
00000100
00000100
,
00010000
00001000
01000000
00010000
,
00100000
00010000
10000000
20000000
,
30000000
10010000
10010000
00000000
,
10000000
01000000
00000000
00010000
,
00001000
00000000
00001000
00000100
,
00000001
00000100
00001000
00000020
,
00000030
00001001
00001001
00000000
,
00000100
00001000
00000000
00010000
,
00100000
00000000
00010000
00010000
,
10000000
10000000
00100000
02000000
,
00000000
03100000
01100000
00000000
,
20020000
00000000
00000000
00000000
,
00000000
00000000
00000000
30030000
,
00000000
00100000
00000000
00010000
,
00000000
00001000
00000000
00000100
,
00002002
00000000
00000000
00000000
,
00000000
00000000
00000000
00003003
,
00000000
00000010
00000000
00000100
,
00000000
00010000
00000000
00001000
,
00022000
00000000
00000000
00033000
,
00001000
00001000
00100000
00100000
,
00010000
00100000
01000000
10000000
,
00010000
00010000
10000000
10000000
,
20020000
00000000
00000000
30030000
,
01000000
01000000
00001000
00001000
,
00010000
00001000
00000010
00000001
,
00001000
00000100
00010000
00001000
,
00022000
00000000
00000000
00000000
,
00000000
00000000
00000000
00000000
,
00000000
00000000
00000000
00000000
,
00033000
00000000
00000000
00000000
,
00022000
00000000
00000000
00000000
,
00000000
00000000
00000000
00000000
,
00000000
00000000
00000000
00000000
,
00033000
00000000
00000000
00000000
,
00100000
00000000
00000000
00000000
,
00001000
00000000
00000000
00000000
,
00000001
00000000
00000000
00000000
,
00010000
00000000
00000000
00000000
,
10000000
00000000
00000000
00000000
,
00001000
00000000
00000000
00000000
,
00000001
00000000
00000100
00000000
,
00010000
00000000
01000000
00000000
,
10000000
01000000
00100000
00000000
,
00001000
00000100
00000010
00000000
,
00000001
00000010
00000100
00000000
,
00010000
00100000
01000000
00000000
,
01000000
10000000
00100000
00000000
,
00100000
00010000
00001000
00000000
,
00001000
00010000
00000100
00000000
,
00000100
00001000
00010000
00000000
,
00001000
00001000
00010000
00020000
,
00002000
00000000
00033000
00011000
,
00100000
00010000
01000000
00010000
,
10000000
01000000
00010000
00001000
,
00010000
00000010
00001000
00000100
,
00000001
00000010
00002002
00003003
,
00000100
00010000
00001000
00010000
,
01000000
00001000
00010000
00000010
,
00001000
00001000
00001000
00000100
,
00010000
00000100
00002200
00003300
,
00001000
00010000
00000100
00010000
,
00001000
01000000
00020000
00030000
,
00100000
00001000
00010000
00002000
,
00003000
00010000
00000100
00000000
,
00000100
00000001
00000010
00001000
,
00000100
00010000
00001000
01000000
,
00010000
00100000
10000000
02000000
,
03000000
00001000
00011000
00000000
,
00022000
00000000
00000000
00000000
,
00000000
00000000
00000000
00000000
,
00033000
00000000
00000000
00000000
;

//---------------dance-single - Copied from ----------------
#NOTES:
     dance-single:
     Copied from:
     Beginner:
     4:
     0.170,0.241,0.096,0.120,0.000: // measure 1
0000
0000
0000
0000
,  // measure 2
0000
0000
0000
0000
,  // measure 3
0000
0000
0000
0000
,  // measure 4
0000
0000
0000
0000
,  // measure 5
0000
0000
0000
0000
,  // measure 6
0010
0000
0100
0000
,  // measure 7
0010
0000
0100
0000
,  // measure 8
0001
0000
1000
0000
,  // measure 9
1000
0000
0001
0000
,  // measure 10
2002
0000
3003
0000
,  // measure 11
1000
0000
0100
0000
,  // measure 12
0001
0000
0100
0000
,  // measure 13
1000
0000
0100
0000
,  // measure 14
0001
0000
1001
0000
,  // measure 15
0001
0000
0100
0000
,  // measure 16
1000
0000
0100
0000
,  // measure 17
0001
0000
0100
0000
,  // measure 18
1000
0000
1001
0000
,  // measure 19
0010
0000
0000
0100
,  // measure 20
0000
0000
0010
0000
,  // measure 21
1000
0000
0000
0001
,  // measure 22
0000
1000
1000
0000
,  // measure 23
0010
0000
0000
0100
,  // measure 24
0000
0000
0010
0000
,  // measure 25
0001
0000
0000
0100
,  // measure 26
0000
0010
0010
0000
,  // measure 27
2002
0000
0000
0000
,  // measure 28
0000
0000
3003
0000
,  // measure 29
0000
0010
0000
0100
,  // measure 30
0000
0010
0000
1000
,  // measure 31
0002
0000
0000
0000
,  // measure 32
0000
0000
0003
0000
,  // measure 33
0000
0001
0000
1000
,  // measure 34
0000
0001
0000
1000
,  // measure 35
0020
0000
0000
0000
,  // measure 36
0000
0000
0000
0030
,  // measure 37
0000
1000
0000
0100
,  // measure 38
0000
0010
0000
0001
,  // measure 39
2000
0000
0000
0000
,  // measure 40
0000
0000
0000
3000
,  // measure 41
0000
0010
0000
0010
,  // measure 42
0000
0100
0000
2000
,  // measure 43
0002
0000
0000
0000
,  // measure 44
0000
0000
0000
0000
,  // measure 45
0000
0000
0000
0000
,  // measure 46
3003
0000
0000
0000
,  // measure 47
0220
0000
0000
0000
,  // measure 48
0000
0000
0000
0000
,  // measure 49
0000
0000
0000
0000
,  // measure 50
0330
0000
0000
0000
,  // measure 51
0010
0000
0000
0000
,  // measure 52
0010
0000
0000
0000
,  // measure 53
0001
0000
0000
0000
,  // measure 54
1000
0000
0000
0000
,  // measure 55
0100
0000
0000
0000
,  // measure 56
0100
0000
0000
0000
,  // measure 57
0001
0000
0000
0000
,  // measure 58
1000
0000
0000
0000
,  // measure 59
0001
0000
0100
0000
,  // measure 60
1000
0000
0100
0000
,  // measure 61
0001
0000
0010
0000
,  // measure 62
1000
0000
0010
0000
,  // measure 63
0010
0000
0100
0000
,  // measure 64
0010
0000
0100
0000
,  // measure 65
0001
0000
1000
0000
,  // measure 66
0001
0000
0001
0000
,  // measure 67
0020
0000
0000
0030
,  // measure 68
0020
0000
0030
0000
,  // measure 69
0010
0000
0001
0000
,  // measure 70
0100
0100
0100
0000
,  // measure 71
0010
0000
1000
0000
,  // measure 72
0100
0100
0100
0000
,  // measure 73
0010
0000
0001
0000
,  // measure 74
0100
0100
0100
0000
,  // measure 75
0010
0000
1000
0000
,  // measure 76
0100
0100
0100
0000
,  // measure 77
1001
0000
0000
0110
,  // measure 78
0000
0000
0010
0000
,  // measure 79
0010
0000
0000
1001
,  // measure 80
0000
0010
0010
0000
,  // measure 81
0110
0000
0000
1001
,  // measure 82
0000
0000
0100
0000
,  // measure 83
0001
0000
0000
1001
,  // measure 84
0000
0010
0010
0000
,  // measure 85
2002
0000
0000
0000
,  // measure 86
0000
0000
0000
0000
,  // measure 87
3003
0000
0000
0000
;
