#TITLE:SURVIVOR;
#SUBTITLE:;
#ARTIST:SOUND HOLIC Vs. ZYTOKINE feat. Nana Takahashi;
#TITLETRANSLIT:;
#SUBTITLETRANSLIT:;
#ARTISTTRANSLIT:;
#GENRE:;
#CREDIT:;
#BANNER:SURVIVOR.png;
#BACKGROUND:SURVIVOR-bg.png;
#LYRICSPATH:;
#CDTITLE:;
#MUSIC:SURVIVOR.ogg;
#OFFSET:0.020000;
#SAMPLESTART:54.580006;
#SAMPLELENGTH:12.799999;
#SELECTABLE:YES;
#BPMS:0.000000=150.000000
;
#STOPS:
;
#BGCHANGES:0.000=SURVIVOR.avi=1.000=0=0=0=StretchNoLoop====,
99999=-nosongbg-=1.000=0=0=0 // don't automatically add -songbackground-
;
#KEYSOUNDS:;
#ATTACKS:;

//---------------dance-double - ----------------
#NOTES:
     dance-double:
     :
     Hard:
     12:
     0.513091,0.610579,0.175591,0.223480,0.211508,450.000000,428.000000,22.000000,28.000000,0.000000,0.000000,0.513091,0.610579,0.175591,0.223480,0.211508,450.000000,428.000000,22.000000,28.000000,0.000000,0.000000:
00000000
00000000
00000000
00000000
,
00000000
00000000
00000000
00000000
,
00000000
00000000
00000000
00000000
,
00000000
00000000
00000000
00000000
,
00000000
00000000
00000000
00000000
,
02000000
03020000
00230000
00300000
,
00002000
00000000
00000000
00020000
00000000
00000000
00033000
00000000
,
00020000
00030200
00002300
00003000
,
00000010
00000000
00000000
00000000
00000000
00000000
00000000
00000000
00000000
00000100
00000000
00000000
00000000
00000000
00000000
00000000
00000000
00000000
00000010
00000000
00000000
00000000
00000000
00000000
00000000
00000000
00000000
00000100
00000000
00000000
00000000
00000000
00000000
00000000
00000000
00000000
00001000
00000000
00000000
00000000
00000001
00000000
00000000
00000000
00001000
00000000
00000000
00000000
,
00000001
00001000
00000010
00000000
00001000
00000001
00000100
00000000
,
00000020
00002030
00003200
00010300
,
00001000
00100000
00010000
00000000
00010000
01000000
00100000
00000000
,
10000000
01000000
00100000
00010000
00000000
00100000
00001000
00000000
,
00010000
00000000
00000100
00000000
00001000
00000000
00000100
00000000
00001000
00000000
00000000
00001000
00000000
00000000
00000001
00000000
,
00000100
00000010
00001000
00000001
00001000
00000100
00000010
00000000
,
00000001
00000100
00000010
00000000
00001000
00000100
00010000
00000000
,
00001000
00100000
00010000
00100000
00010000
01000000
00100000
00000000
,
10000000
00000000
01000000
00000000
00100000
00000000
00010000
00000000
01000000
00000000
00000000
01000000
00000000
00000000
01000000
00000000
,
00100000
00000000
10000000
00010000
00100000
00000000
00001000
00000000
,
00011000
00000000
00000000
00010000
00000100
00000000
00001000
00000010
,
00000000
00000100
00000001
00001000
00000200
00000000
00010300
00001000
,
00100000
00000000
00010000
01000000
00100000
00000000
10000000
00020000
,
00000000
00130000
00010000
01000000
00100000
00000000
10010000
00000000
,
10000000
00000000
00100000
01000000
00010000
00000000
00100000
00001000
,
00010000
00000000
00010000
00000010
00001000
00000001
00000100
00000010
,
00001000
00000000
00000000
00000000
00000100
00000000
00010000
00000000
00001000
00000000
00000000
00001000
00010000
00000000
00002000
00000000
,
00000000
00103000
00010000
01000000
00100000
10000000
01000000
00100000
,
00010000
00000000
00000000
00010000
00000000
00000000
01000000
00000000
00010000
00000000
00000000
00000000
00100000
00000000
00000000
00000000
,
00001000
00000000
00000000
00001000
00000000
00000000
00010000
00000000
00001000
00000000
00000000
00000000
00010000
00000000
00000000
00000000
,
00000100
00000000
00000000
00000100
00000000
00000000
00000100
00000000
00001000
00000000
00000000
00000000
00000010
00000000
00000000
00000000
,
00000100
00000000
00000000
00000100
00000000
00000000
00000100
00000000
00000000
00000000
00000001
00000000
00000000
00000000
00001000
00000000
,
00000100
00010000
00001000
00000000
00010000
00001000
01000000
00000000
,
00010000
01000000
00100000
10000000
01000000
00100000
00010000
00000000
,
00100000
00001000
00010000
00000000
00010000
00000010
00001000
00000000
,
00000002
00000000
00001003
00000100
00002000
00000000
00003002
00000000
,
00002003
00000000
00003100
00010000
00000000
00010000
00000000
00010000
,
00001000
00100000
00010000
01010000
00000000
01010000
00000000
00000000
,
10000000
00000000
00100000
00000000
10000000
00000000
00100000
10000000
00100000
00000000
01000000
00000000
00000000
00000000
00100000
00000000
,
00000000
01000000
00010000
00100000
00000000
00001000
00010000
00000100
,
00001000
00000000
00000000
00000000
00001001
00000000
00000000
00000000
00000001
00000000
00000000
00000001
00000000
00000000
00000100
00000000
,
00000000
00000010
00001000
00000100
00010000
00001000
01000000
00010000
,
00000000
00000000
00010000
00000000
10000000
00000000
00100000
00000000
01000000
00000000
00000000
01000000
00000000
00000000
00100000
00000000
,
10000000
00000000
01000000
00000000
00100000
00000000
00010000
00000000
01000000
00000000
00000000
00100000
00000000
00100000
01000000
00000000
,
00010000
00000000
00100000
00001000
00000000
00011000
00000000
00010000
,
00000100
00001000
00000001
00000100
00000000
00000101
00000000
00000001
,
00001000
00000000
00000100
00000000
00001000
00000000
00000010
00001000
00000010
00000000
00001000
00000000
00000100
00000000
00010000
00000000
,
00000000
00001000
00100000
00010000
01000000
00000000
00100000
10000000
,
00020000
00000000
00130000
00000000
00002000
00000000
00000000
00023000
,
00000000
00000000
00030100
00001000
00000001
00001000
00000100
00000010
,
00000000
00000000
00000001
00000000
00001000
00000000
00000100
00000000
00010000
00000000
00000000
00001000
00000000
00000000
00020000
00000000
,
00000000
00001000
00032000
00000000
01003000
00000000
01010000
00000000
,
00100000
00000000
10000000
00000000
00010000
00000000
00000000
10000000
00000000
01000000
00000000
00100000
00000000
00000000
00010000
00000000
,
00100000
00000000
00001000
00000000
00010000
00000000
00000000
00000100
00000000
00001000
00000000
00000001
00000000
00000000
00000100
00000000
,
00000010
00000000
00001000
00000000
00000100
00000000
00000000
00010000
00000000
00001000
00000000
01000000
00000000
00000000
00100000
00000000
,
10000000
00000000
00000000
10100000
00000000
00000000
10100000
00000000
00000000
10010000
00000000
00000000
10010000
00000000
00000000
00000000
,
10000000
00000000
00100000
00000000
01000000
00100000
00000000
01000000
00000000
00010000
00000000
00100000
00000000
00000000
00001000
00000000
,
00010000
00000000
00000100
00000000
00001000
00000100
00000000
00001000
00000000
00000010
00000000
00000100
00000000
00000000
00000001
00000000
,
00001000
00000000
00000100
00000000
00010000
00000100
00000000
00010000
00000000
00001000
00000000
00100000
00000000
00000000
00010000
00000000
,
01000000
00000000
00000000
00000000
00000000
00000000
00000000
00000000
00000000
01000000
00000000
00000000
00000000
00000000
00000000
00000000
00000000
00000000
10000000
00000000
00000000
00000000
00000000
00000000
00000000
00000000
00000000
00100000
00000000
00000000
00000000
00000000
00000000
00000000
00000000
00000000
10000000
00000000
00000000
00000000
01000000
00000000
00000000
00000000
00100000
00000000
00000000
00000000
,
00010000
00000000
00000000
10010000
00000000
01100000
00000000
00000000
,
10000000
01000000
00100000
00010000
00000000
10010000
00000000
00000000
,
00010000
00100000
00001000
00000000
00020000
00000000
00000000
00030100
,
00000000
00001000
00000000
00000010
00000000
00000001
00000100
00000010
,
00001000
00000010
00000000
00000010
00001000
00000000
00000000
00000000
00000100
00000000
00000000
00000000
00010000
00000000
00002000
00000000
,
00000000
00000000
00100000
00000000
00013000
00000000
00010000
00001000
,
01000000
00000000
00100000
10000000
01000000
00100000
00010000
01000000
,
00100000
00000000
00000000
10100000
00000000
00000000
00100000
00000000
01000000
00000000
00010000
00000000
00100000
00000000
00001000
00000000
,
00020000
00000000
00030100
00001000
00000002
00000000
00001003
00000100
,
00010000
00001000
01000000
00010000
20000000
00000000
30100000
01000000
,
00010000
00000000
00000000
00000000
00100000
00000000
00001000
00000000
00010000
00000000
00000000
00010000
00000000
00000000
00010000
00000000
,
00000100
00001000
00000010
00000100
00000001
00000000
00001001
00000000
,
00000010
00001000
00000100
00000000
00000100
00010000
00001000
00000000
,
00010000
00001000
00100000
00010000
01000000
00100000
10000000
00000000
,
00010000
00000000
00100000
00000000
00001000
00000000
00000000
00000000
00010000
00000000
00000000
00010000
00000000
00000000
00000100
00000000
,
00001000
00000100
00000010
00000001
00001000
00000100
00010000
00001000
,
00100000
00000000
00000000
00110000
00000000
00000000
01010000
00000000
00000000
10010000
00000000
00000000
00100000
00000000
00001000
00000000
,
00010000
00000000
00000000
00001000
00001000
00000000
00011000
00000000
00011000
00000000
00000000
00000000
00000000
00000000
00000000
00000000
;

//---------------dance-single - ----------------
#NOTES:
     dance-single:
     :
     Hard:
     12:
     0.503970,0.549521,0.327238,0.231461,0.235452,442.000000,401.000000,41.000000,29.000000,0.000000,0.000000,0.503970,0.549521,0.327238,0.231461,0.235452,442.000000,401.000000,41.000000,29.000000,0.000000,0.000000:
0000
0000
0000
0000
,
0000
0000
0000
0000
,
0000
0000
0000
0000
,
0000
0000
0000
0000
,
0000
0000
0000
0000
,
2000
3020
0230
0300
,
0002
0000
0000
0200
0000
0000
0303
0000
,
0020
2030
3002
0003
,
1000
0000
0000
0000
0000
0000
0000
0000
0000
0010
0000
0000
0000
0000
0000
0000
0000
0000
0001
0000
0000
0000
0000
0000
0000
0000
0000
0100
0000
0000
0000
0000
0000
0000
0000
0000
1000
0000
0000
0000
0010
0000
0000
0000
0100
0000
0000
0000
,
0001
1000
0001
0000
1000
0100
0010
0000
,
0020
0032
0203
0320
,
1030
0000
0000
0000
1001
0000
0000
0000
0110
0000
0000
0010
0000
0000
0010
0000
,
1000
0000
0100
0000
0000
0000
0010
0000
0001
0000
0000
0001
0000
0000
0001
0000
,
0100
0000
0000
0000
1001
0000
0000
0000
0010
0000
0000
0010
0000
0000
0010
0000
,
1000
0000
0001
0000
0100
0000
0010
0000
1000
0000
0000
1000
0000
0000
0001
0000
,
0100
0000
0000
0000
1001
0000
0000
0000
0010
0000
0000
0010
0000
0000
0010
0000
,
1000
0000
0100
0000
0010
0000
0001
0000
1000
0000
0000
1000
0000
0000
1000
0000
,
0010
0000
0000
0000
0101
0000
0000
0000
0010
0000
0000
0010
0000
0000
1000
0000
,
0001
0000
0000
0001
0000
0000
0100
0000
0010
0000
0000
0000
0110
0000
0000
0000
,
1000
0000
0000
0100
0010
0000
0010
0001
,
0000
0001
0100
0000
0010
1000
0001
1000
,
0100
0000
1000
0010
0100
0000
0001
2000
,
0000
0000
3010
0000
0100
0001
1000
0010
,
1000
0000
0001
1000
0010
0000
1000
0001
,
0100
0000
0010
1000
0100
0010
0001
0100
,
0010
0000
0000
0000
1000
0000
0001
0000
0100
0000
0000
0010
0100
0000
0002
0000
,
0000
0000
1003
0000
0000
0000
0100
1000
0100
0000
0000
0100
0000
0000
1000
0000
,
0001
0000
0000
0001
0000
0000
0200
0000
0020
0000
0000
0000
0330
0000
0000
0000
,
1000
0000
0000
1000
0000
0000
0020
0000
0200
0000
0000
0000
0330
0000
0000
0000
,
0001
0000
0000
1000
0000
0000
2002
0000
0000
0000
0000
0000
3003
0000
0000
0000
,
0100
0000
0000
0100
0000
0000
0001
0000
0000
0000
1001
0000
0000
0000
0200
0000
,
0010
0000
0010
0000
0310
1000
0100
0010
,
0002
0000
1000
0000
1003
0010
0100
0001
,
1000
0001
1000
0001
0100
0010
0100
0010
,
0000
1000
0100
0010
0001
0000
1001
0000
,
0002
0000
0103
0101
0000
1100
0000
0010
,
1000
0100
0010
0001
0000
1001
0000
0010
,
1000
0000
0001
0000
1000
0000
0001
1000
0000
0000
0010
0000
1000
0000
0100
0000
,
0000
0010
0001
0100
0000
1000
0001
0100
,
0010
0000
0000
0000
1010
0000
0000
0000
0001
0000
0000
0001
0000
0000
0001
0000
,
0000
1000
0100
0010
0001
0010
0100
1000
,
0000
0000
0001
0000
0100
0000
0010
0000
1000
0000
0000
1000
0000
0000
1000
0000
,
0000
0001
0100
0010
0100
0000
1001
0000
,
0020
0000
1030
1010
0000
0101
0000
1000
,
0010
0100
0001
1000
0000
1001
0000
0010
,
0001
0000
0100
0000
0010
0000
1000
0010
1000
0000
0010
0000
0100
0000
0001
0000
,
0000
1000
0100
0010
0000
0010
0001
0100
,
0010
0000
0000
0000
1001
0000
0000
0000
1000
0000
0000
1000
0000
0000
1000
0000
,
0000
0001
0100
0010
1000
0100
0010
0001
,
0000
0000
1000
0000
0001
0000
0100
0000
0010
0000
0000
0010
0000
0000
1001
0000
,
0000
0001
0100
0010
1000
0000
1001
0000
,
0110
0000
0000
0000
0010
1000
0000
0010
0000
1000
0000
0010
0000
0000
0100
0000
,
0001
0000
0000
0000
1000
0010
0000
1000
0000
0100
0000
0010
0000
0000
0001
0000
,
0100
0000
0000
0000
0001
0100
0000
0001
0000
0100
0000
0010
0000
0000
1000
0000
,
0001
0000
0000
1001
0000
0000
1010
0000
0000
1001
0000
0000
0100
0000
0001
0000
,
1000
0000
0000
0000
0010
1000
0000
0100
0000
0010
0000
0001
0000
0000
0100
0000
,
0001
0000
0000
0000
0100
0001
0000
1000
0000
0010
0000
0100
0000
0000
0001
0000
,
1000
0000
0000
0000
0001
0010
0000
0100
0000
1000
0000
0010
0000
0000
1000
0000
,
0001
0000
1000
0001
0000
1000
0001
0000
1000
0000
0000
0000
1001
0000
0000
0000
,
0200
0000
0300
0110
0000
0110
0000
0000
,
0001
0100
0010
1000
0000
1001
0000
0000
,
0100
0010
1000
0001
0100
0000
0000
0010
,
0000
1000
0100
0010
0000
0001
0100
0000
,
1001
0000
0000
0000
0000
0000
0000
0000
0010
0000
0000
0010
0000
0000
0010
0000
,
0000
0000
1000
0000
0001
0000
1000
0100
,
0000
0000
0010
0000
0001
0000
0100
0000
0010
0000
0000
0010
0000
0000
0010
0000
,
0000
1000
0001
0100
0010
0000
1001
0000
,
0002
0023
0230
1300
,
1000
0100
0010
0001
1000
0010
0100
0000
,
0001
0000
0100
0000
0001
0100
1000
0100
,
0001
1001
0110
1001
,
1000
0000
0011
0000
1100
0000
0001
0010
,
0100
1000
0000
1001
0000
1000
0010
0100
,
0001
0000
0000
0000
1010
0000
0000
0000
0001
0000
0000
0100
0000
0000
1000
0000
,
0020
0000
0000
0000
0000
1030
0001
0100
,
0001
0000
0000
0101
0000
0000
1001
0000
0000
0101
0000
0000
1000
0000
0001
0000
,
0100
0000
0000
0010
0010
0000
0100
0000
1001
0000
0000
0000
0000
0000
0000
0000
;

//---------------dance-double - ----------------
#NOTES:
     dance-double:
     :
     Medium:
     8:
     0.337500,0.427405,0.231461,0.207517,0.023944,296.000000,267.000000,29.000000,26.000000,0.000000,0.000000,0.337500,0.427405,0.231461,0.207517,0.023944,296.000000,267.000000,29.000000,26.000000,0.000000,0.000000:
00000000
00000000
00000000
00000000
,
00000000
00000000
00000000
00000000
,
00000000
00000000
00000000
00000000
,
00000000
00000000
00000000
00000000
,
00000000
00000000
00000000
00000000
,
00100000
00100000
00200000
00300000
,
00001000
00000000
00000000
00010000
00000000
00000000
00000000
00000000
,
00000100
00000100
00000100
00000000
,
00002000
00000000
00000002
00003003
,
00000010
00001000
00000100
00010000
,
00002000
00000000
00020000
00033000
,
00001000
00001000
00001000
00100000
,
00000000
00010000
00000000
01000000
00000000
00000000
10010000
00000000
,
00100000
00100000
00001000
00010000
,
00000010
00000000
00001000
00000000
00000001
00000100
00000001
00000000
,
00001000
00000010
00000100
00010000
,
00000000
00001000
00000000
00010000
00000000
00000000
00001000
00000000
,
00100000
00000000
00010000
00000000
01000000
00100000
01000000
00000000
,
00020000
00030000
00200000
00300000
,
00001000
00000000
00000000
00000000
00011000
00000000
00000000
00010100
,
00000000
00000100
00001000
00000010
,
00000100
00000000
00000000
00000000
00001001
00000000
00000000
00000110
,
00000000
00000010
00001000
00000100
,
00010000
00000000
00001000
00000000
00010000
00000000
00001000
00100000
,
00001000
00100000
00010000
01000000
,
00100000
00000000
10000000
00000000
00010000
00000000
00100000
00010000
,
00100000
00001000
00022000
00033000
,
00010000
00000100
00002000
00003000
,
00000001
00000100
00000020
00000030
,
00001000
00000100
00020000
00030000
,
00001000
00100000
00020000
00030000
,
10000000
00100000
01000000
00001000
,
00010000
00000010
00001000
00000001
,
00000200
00000010
00000010
00000310
,
00000000
00000000
00000001
00001000
00000100
00000000
00001001
00000000
,
00000010
00000000
00000000
00001010
00000000
00001010
00000000
00000000
,
00000001
00000100
00000001
00000100
00000000
00001001
00000000
00000000
,
00001000
00000100
00020000
00030000
,
00001000
00100000
00020000
00030000
,
10000000
00000000
00010000
00000000
10000000
00000000
00100000
01000000
,
00000000
00010000
00100000
00001000
,
00010000
00000000
00000010
00000000
00001000
00000000
00000001
00000100
,
00000000
00000010
00001010
00000101
,
00001001
00000000
00000000
00001100
00000000
00001100
00000000
00000000
,
00000100
00010000
00000100
00010000
00000000
00010100
00000000
00000000
,
00001000
00100000
00020000
00030000
,
00010000
01000000
00200000
00300000
,
10000000
00000000
00010000
00000000
00100000
00000000
00001000
00010000
,
00000000
00010000
00000010
00000100
,
00000001
00000000
00001000
00000000
00000100
00000000
00010000
00001000
,
00000000
00000000
00100000
00010000
01000000
00000000
00000000
00000000
,
00010000
00000000
00000000
00000000
00100000
00000000
00000000
00000000
00001000
00000000
00000000
00001000
00000000
00000000
00001000
00000000
,
00010000
00000000
00000000
00000000
00000010
00000000
00000000
00000000
00001000
00000000
00000000
00001000
00000000
00000000
00001000
00000000
,
00000001
00000000
00000000
00000000
00000100
00000000
00000000
00000000
00000010
00000000
00000000
00000010
00000000
00000000
00000010
00000000
,
00001000
00000000
00000000
00001000
00000000
00000000
00000100
00000000
00000000
00000100
00000000
00000000
00010000
00000000
00000000
00000000
,
00001000
00000000
00001000
00000000
00100000
00010000
01000000
00000000
,
00100000
00000000
10000000
00000000
00100000
10000000
01000000
00000000
,
00100000
00000000
00001000
00000000
00010000
00001000
00010000
00000000
,
00022000
00000000
00000000
00033000
,
00010000
00000000
00000000
00000100
00000000
00000100
00000000
00000000
,
00001000
00000000
00000000
00000001
00000000
00000001
00000000
00000000
,
00001000
00000100
00020000
00030000
,
00001000
00100000
00020000
00030000
,
10000000
00000000
01000000
00000000
00100000
00000000
00010000
01000000
,
00000000
00010000
00100000
00001000
,
00010000
00000000
00000010
00000000
00001000
00000000
00000001
00001000
,
00000000
00000110
00002002
00003003
,
00000010
00001010
00000101
00000000
,
00001000
00000100
00000000
00000100
00000000
00001000
00000100
00000000
,
00010000
00001000
00101000
00100000
,
00010000
01000000
01100000
10010000
,
00100000
10010000
10010000
00000000
,
00100000
00001000
00000000
00001000
00000000
00001000
00010000
00000000
,
00000100
00000000
00001000
00000000
00000010
00001000
00000001
00000000
,
00001000
00000000
00000100
00000000
00010000
00001000
00010000
00000000
,
00001000
00000000
00000000
00001000
00000000
00000000
00001000
00000000
00010000
00000000
00000000
00000000
00011000
00000000
00000000
00000000
,
00022000
00033000
00011000
00000000
;

//---------------dance-single - ----------------
#NOTES:
     dance-single:
     :
     Medium:
     8:
     0.354603,0.457934,0.303294,0.223480,0.027935,311.000000,273.000000,38.000000,28.000000,0.000000,0.000000,0.354603,0.457934,0.303294,0.223480,0.027935,311.000000,273.000000,38.000000,28.000000,0.000000,0.000000:
// measure 0
0000
0000
0000
0000
,  // measure 1
0000
0000
0000
0000
,  // measure 2
0000
0000
0000
0000
,  // measure 3
0000
0000
0000
0000
,  // measure 4
0000
0000
0000
0000
,  // measure 5
0010
0010
0020
0030
,  // measure 6
1000
0000
0000
0001
0000
0000
0000
0000
,  // measure 7
0100
0100
0100
0000
,  // measure 8
2000
0000
0002
3003
,  // measure 9
0010
1000
0100
0010
,  // measure 10
0002
0000
2000
3003
,  // measure 11
0010
0010
0010
0010
,  // measure 12
0000
0001
0000
0100
0000
0000
1001
0000
,  // measure 13
0010
0010
0010
0010
,  // measure 14
1000
0100
0010
0001
,  // measure 15
0100
0100
0100
0100
,  // measure 16
0000
0001
0000
1000
0000
0000
1000
0000
,  // measure 17
0100
0000
0010
0000
0001
1000
0001
0000
,  // measure 18
2000
3000
2002
3003
,  // measure 19
0010
0000
0000
0000
0110
0000
0000
1001
,  // measure 20
0000
0100
0010
1000
,  // measure 21
0001
0000
0000
0000
1001
0000
0000
0110
,  // measure 22
0000
0010
1000
0001
,  // measure 23
0100
0000
0100
0000
0010
0000
1000
0001
,  // measure 24
1000
0010
0100
0001
,  // measure 25
1000
0000
0010
0000
0100
0000
0001
1000
,  // measure 26
0001
0000
0100
1001
,  // measure 27
1000
1000
2000
3000
,  // measure 28
0001
0001
0002
0003
,  // measure 29
0100
0010
2002
3003
,  // measure 30
0010
0100
2002
3003
,  // measure 31
1000
0010
0100
0001
,  // measure 32
1000
0100
0010
0001
,  // measure 33
0200
0010
0010
0310
,  // measure 34
0000
0000
0001
1000
0001
0000
1001
0000
,  // measure 35
0010
0000
0000
0110
0000
0110
0000
0000
,  // measure 36
1000
0001
1000
0001
0000
1001
0000
0000
,  // measure 37
0010
1000
0002
0003
,  // measure 38
0010
0000
0002
0003
2000
0000
3000
0000
,  // measure 39
0001
0000
1000
0000
0010
0000
0010
0100
,  // measure 40
0010
0000
0100
0000
0001
0000
1000
0001
,  // measure 41
1000
0000
0010
0000
0100
0000
0010
0100
,  // measure 42
0010
1000
1001
0110
,  // measure 43
1001
0000
0000
0101
0000
0101
0000
0000
,  // measure 44
1000
0001
1000
0001
0000
1001
0000
0000
,  // measure 45
0001
0010
0001
0000
2000
0000
3000
0000
,  // measure 46
1000
0010
1000
0000
0002
0000
0003
0000
,  // measure 47
1000
0000
0001
0000
0100
0000
0000
0010
,  // measure 48
0000
0000
1000
0000
0001
0000
1000
0010
,  // measure 49
0000
0000
0100
0000
0001
0000
1000
0001
,  // measure 50
0000
0000
0010
0100
0010
0000
0000
0000
,  // measure 51
1000
0000
0000
0000
0010
0000
0000
0000
0100
0000
0000
0100
0000
0000
0100
0000
,  // measure 52
0000
0000
0000
0000
0010
0000
0000
0000
1000
0000
0000
1000
0000
0000
1000
0000
,  // measure 53
0001
0000
0000
0000
0100
0000
0000
0000
0010
0000
0000
0010
0000
0000
0010
0000
,  // measure 54
1000
0000
0000
1000
0000
0000
0001
0000
0000
0001
0000
0000
0100
0000
0000
0000
,  // measure 55
0010
0000
1001
0000
0010
0001
0100
0000
,  // measure 56
0010
1000
0010
0000
0010
1000
0100
0000
,  // measure 57
0010
0000
0001
0000
1000
0001
1000
0000
,  // measure 58
2002
0000
0000
3003
,  // measure 59
0100
0000
0000
0110
0000
0110
0000
0000
,  // measure 60
0001
0000
0000
1001
0000
1001
0000
0000
,  // measure 61
1000
0100
0002
0003
,  // measure 62
1000
0010
0002
0003
,  // measure 63
1000
0000
0100
0000
0010
0000
0001
0100
,  // measure 64
0001
1000
0010
0100
,  // measure 65
0001
0000
0100
0000
0010
0000
1000
0001
,  // measure 66
0000
0110
2002
3003
,  // measure 67
0010
0110
1001
0000
,  // measure 68
1000
0001
0000
0001
1000
0000
0010
0000
,  // measure 69
0100
0001
1001
1001
,  // measure 70
0010
0100
0110
1001
,  // measure 71
0010
1001
1001
1000
,  // measure 72
0010
0100
0000
0100
0001
0000
1001
0000
,  // measure 73
0010
0000
1000
0000
0010
1000
0001
0000
,  // measure 74
0100
0000
0010
0000
1000
0001
1000
0001
,  // measure 75
0100
0000
0000
0100
0000
0000
0100
0000
0000
0001
0000
0000
1000
0000
0000
0000
,  // measure 76
2002
3003
1001
0000
;

//---------------dance-single - ----------------
#NOTES:
     dance-single:
     :
     Beginner:
     2:
     0.117441,0.183174,0.055870,0.000000,0.000000,103.000000,96.000000,7.000000,0.000000,0.000000,0.000000,0.117441,0.183174,0.055870,0.000000,0.000000,103.000000,96.000000,7.000000,0.000000,0.000000,0.000000:
0000
0000
0000
0000
,
0000
0000
0000
0000
,
0000
0000
0000
0000
,
0000
0000
0000
0000
,
0000
0000
0000
0000
,
0001
0000
0000
0000
,
1000
0000
0000
0000
,
0010
0000
0000
0000
,
0100
0000
0000
0000
,
0001
0000
0000
0000
,
1000
0000
0000
0000
,
0001
0000
0001
0000
,
0001
0000
0000
0000
,
0010
0000
0010
0000
,
0010
0000
0000
0000
,
0100
0000
0100
0000
,
0100
0000
0000
0000
,
1000
0000
1000
0000
,
1000
0000
0000
0000
,
0010
0000
0000
0000
,
0100
0000
0000
0000
,
1000
0000
0000
0000
,
0001
0000
0000
0000
,
0001
0000
0000
0000
,
0100
0000
0000
0000
,
0010
0000
0010
0000
,
0010
0000
0000
0000
,
1000
0000
0000
0000
,
0001
0000
0000
0000
,
0100
0000
0000
0000
,
0010
0000
0000
0000
,
1000
0000
1000
0000
,
0001
0000
0001
0000
,
0100
0000
0100
0000
,
0010
0000
0000
0000
,
1000
0000
1000
0000
,
1000
0000
0000
0000
,
0001
0000
0001
0000
,
0001
0000
0000
0000
,
0100
0000
0100
0000
,
0100
0000
0000
0000
,
0010
0000
0010
0000
,
0010
0000
0000
0000
,
1000
0000
0001
0000
,
1000
0000
0000
0000
,
0001
0000
1000
0000
,
0001
0000
0000
0000
,
0100
0000
0010
0000
,
0100
0000
0000
0000
,
0010
0000
0100
0000
,
0010
0000
0000
0000
,
1001
0000
0000
0000
,
0110
0000
0000
0000
,
1001
0000
0000
0000
,
0010
0000
0010
0000
,
1001
0000
0000
0000
,
0110
0000
0000
0000
,
1001
0000
0000
0000
,
0100
0000
0000
0000
,
0010
0000
0000
0000
,
1000
0000
0000
0000
,
0100
0000
0100
0000
,
0100
0000
0000
0000
,
0010
0000
0100
0000
,
0010
0000
0000
0000
,
0100
0000
0010
0000
,
0100
0000
0000
0000
,
0001
0000
0000
0000
,
0001
0000
0000
0000
,
0001
0000
1000
0000
,
0001
0000
0000
0000
,
1000
0000
0000
0000
,
1000
0000
0000
0000
,
1000
0000
0001
0000
,
1000
0000
0000
0000
,
0001
0000
1000
0000
,
0001
0000
1001
0000
;

//---------------dance-double - ----------------
#NOTES:
     dance-double:
     :
     Easy:
     5:
     0.232601,0.274760,0.135684,0.159628,0.000000,204.000000,187.000000,17.000000,20.000000,0.000000,0.000000,0.232601,0.274760,0.135684,0.159628,0.000000,204.000000,187.000000,17.000000,20.000000,0.000000,0.000000:
00000000
00000000
00000000
00000000
,
00000000
00000000
00000000
00000000
,
00000000
00000000
00000000
00000000
,
00000000
00000000
00000000
00000000
,
00000000
00000000
00000000
00000000
,
00100000
00100000
00200000
00300000
,
00001000
00000000
00010000
00000000
,
00000100
00000100
00000100
00000000
,
00002002
00000000
00003003
00000000
,
00000010
00000000
00010000
00000000
,
00002000
00000000
00020000
00033000
,
00001000
00010000
00001000
00000000
,
00100000
00010000
01000000
00000000
,
00100000
10000000
00010000
00000000
,
00010000
00000000
00000100
00000000
,
00001000
00000010
00000100
00000000
,
00000001
00001000
00000100
00000000
,
00010000
00000000
00001000
00000000
,
02000000
03000000
10010000
00000000
,
00100000
00000000
10000000
00000000
,
20020000
00000000
30030000
00000000
,
00100000
00000000
00001000
00000000
,
00022000
00000000
00033000
00000000
,
00010000
00000000
00000010
00000000
,
00000200
00000010
00000310
00000000
,
00000001
00000010
00000100
00001000
,
00002002
00000000
00003003
00000000
,
00000010
00000000
00001000
00000000
,
00000100
00000000
00010000
00000000
,
00001000
00000000
01000000
00000000
,
00010000
10000000
00010000
00000000
,
10000000
00100000
01000000
00100000
,
10000000
01000000
00100000
00010000
,
00100000
00001000
00010000
00000100
,
00001000
00000010
00000010
00000010
,
00000010
00000000
00001001
00000000
,
00000001
00000001
00001001
00000000
,
00001000
00000100
00020000
00030000
,
00001000
00100000
00020000
00030000
,
01000000
01000000
01000000
00000000
,
10000000
10000000
10010000
00000000
,
00100000
00000000
00001000
00000000
,
00010000
00000000
00000010
00000000
,
00000100
00000100
00000100
00000000
,
00001000
00000100
00001001
00000000
,
00001000
00000010
00001000
00000000
,
00000100
00010000
00002000
00003000
,
00100000
00100000
00100000
00000000
,
00010000
01000000
10010000
00000000
,
10000000
01000000
00100000
00010000
,
01000000
00100000
01000000
00000000
,
00010000
00100000
00001000
00000000
,
00010000
00000010
00001000
00000000
,
00000001
00000100
00000010
00000000
,
00001000
00000000
00000100
00000000
,
00010000
00001000
00100000
00000000
,
10000000
00100000
01000000
00000000
,
00001000
00000000
00010000
00000000
,
00022000
00000000
00000000
00033000
,
00010000
00000000
00000000
00000000
,
00001000
00000000
00000000
00000000
,
00000100
00000000
00000010
00000000
,
00000001
00000100
00001000
00000000
,
00010000
00010000
00010000
00000000
,
00001000
00010000
00011000
00000000
,
00010000
00000000
00000010
00000000
,
00000100
00000000
00001001
00000000
,
00000010
00000010
00000010
00000000
,
00001000
00000100
00010000
00000000
,
01000000
01000000
01000000
00000000
,
10000000
01000000
00100000
00010000
,
10000000
10000000
10000000
00000000
,
00100000
00001000
00010000
00000000
,
00000010
00000010
00000010
00000000
,
00001000
00000001
00000100
00000000
,
00001001
00000000
00011000
00000000
,
00022000
00033000
00011000
00000000
;

//---------------dance-single - ----------------
#NOTES:
     dance-single:
     :
     Easy:
     5:
     0.241723,0.305289,0.199535,0.263387,0.000000,212.000000,187.000000,25.000000,33.000000,0.000000,0.000000,0.241723,0.305289,0.199535,0.263387,0.000000,212.000000,187.000000,25.000000,33.000000,0.000000,0.000000:
// measure 0
0000
0000
0000
0000
,  // measure 1
0000
0000
0000
0000
,  // measure 2
0000
0000
0000
0000
,  // measure 3
0000
0000
0000
0000
,  // measure 4
0000
0000
0000
0000
,  // measure 5
0010
0010
0010
0000
,  // measure 6
1000
0001
1000
0000
,  // measure 7
0100
0100
0100
0000
,  // measure 8
2002
0000
0000
0000
,  // measure 9
3003
0000
0000
0000
,  // measure 10
0020
0000
0200
0330
,  // measure 11
0001
0100
1000
0000
,  // measure 12
1000
0010
0001
0000
,  // measure 13
1000
0100
0010
0001
,  // measure 14
2000
3000
0002
0003
,  // measure 15
0100
0010
1000
0000
,  // measure 16
0010
0100
0001
0000
,  // measure 17
0001
0010
0100
1000
,  // measure 18
2002
0000
3003
0000
,  // measure 19
0010
0000
0100
0000
,  // measure 20
2002
0000
3003
0000
,  // measure 21
0100
0000
0010
0000
,  // measure 22
2002
0000
3003
0000
,  // measure 23
0001
0000
1000
0000
,  // measure 24
0001
1000
0100
0000
,  // measure 25
1000
0001
0100
0000
,  // measure 26
2002
0000
3003
0000
,  // measure 27
0020
0030
0100
0000
,  // measure 28
0200
0300
0010
0000
,  // measure 29
2000
3000
0001
0000
,  // measure 30
0002
0003
1000
0000
,  // measure 31
0001
0010
0001
0010
,  // measure 32
1000
0100
1000
0100
,  // measure 33
0010
0001
0010
0001
,  // measure 34
0000
0100
0100
0100
,  // measure 35
1001
0000
0110
0000
,  // measure 36
0001
0010
0100
1000
,  // measure 37
0010
0010
0100
0100
,  // measure 38
1000
0100
0010
0001
,  // measure 39
1001
0000
0110
0000
,  // measure 40
0001
1000
0100
0010
,  // measure 41
0001
0001
1000
1000
,  // measure 42
0020
0030
0200
0300
,  // measure 43
0001
1000
0100
0000
,  // measure 44
1000
0001
0100
0000
,  // measure 45
0010
0100
1001
0000
,  // measure 46
0100
0010
1001
0000
,  // measure 47
0001
0100
1000
0000
,  // measure 48
1000
0010
0001
0000
,  // measure 49
0001
0100
1000
0100
,  // measure 50
0002
0000
1003
0000
,  // measure 51
0010
0100
0010
0000
,  // measure 52
1000
0100
0001
0000
,  // measure 53
0001
0010
1000
0000
,  // measure 54
0110
0000
1001
0000
,  // measure 55
0001
0100
1000
0000
,  // measure 56
1000
0100
0010
0000
,  // measure 57
0010
0001
0100
0000
,  // measure 58
2002
0000
3003
0000
,  // measure 59
0010
0000
0000
0000
,  // measure 60
0001
0000
0000
0000
,  // measure 61
0100
0010
0100
0000
,  // measure 62
0010
0100
0010
0000
,  // measure 63
2000
3000
0002
0003
,  // measure 64
0200
0300
0020
0030
,  // measure 65
1000
0100
0010
0001
,  // measure 66
2002
0000
3003
0000
,  // measure 67
0010
0010
1001
0000
,  // measure 68
0100
0100
1001
0000
,  // measure 69
0001
1000
0001
1000
,  // measure 70
0220
0000
0330
0000
,  // measure 71
1000
0100
1001
0000
,  // measure 72
0001
0010
1001
0000
,  // measure 73
0010
0001
0100
1000
,  // measure 74
2002
0000
3003
0000
,  // measure 75
1100
0000
0011
0000
,  // measure 76
0110
0000
1001
0000
;
