#VERSION:0.83;
#TITLE:STARLIGHT JUNCTION;
#SUBTITLE:;
#ARTIST:SOUND HOLIC feat. Nana Takahashi;
#TITLETRANSLIT:;
#SUBTITLETRANSLIT:;
#ARTISTTRANSLIT:;
#GENRE:;
#ORIGIN:;
#CREDIT:TOXTURT_step_DANNY;
#BANNER:STARLIGHT JUNCTION.png;
#BACKGROUND:STARLIGHT JUNCTION-bg.png;
#PREVIEWVID:;
#JACKET:STARLIGHT JUNCTION-jacket.png;
#CDIMAGE:;
#DISCIMAGE:;
#LYRICSPATH:;
#CDTITLE:;
#MUSIC:STARLIGHT JUNCTION.ogg;
#OFFSET:0.118000;
#SAMPLESTART:100.404999;
#SAMPLELENGTH:12.000000;
#SELECTABLE:YES;
#BPMS:0.000=160.000;
#STOPS:;
#DELAYS:;
#WARPS:;
#TIMESIGNATURES:0.000=4=4;
#TICKCOUNTS:0.000=4;
#COMBOS:0.000=1;
#SPEEDS:0.000=1.000=0.000=0;
#SCROLLS:0.000=1.000;
#FAKES:;
#LABELS:0.000=Song Start;
#BGCHANGES:0.000=STARLIGHT JUNCTION.avi=1.000=0=0=0=StretchNoLoop====,
99999=-nosongbg-=1.000=0=0=0 // don't automatically add -songbackground-
;
#KEYSOUNDS:;
#ATTACKS:
;

//---------------dance-double - ----------------
#NOTEDATA:;
#CHARTNAME:;
#STEPSTYPE:dance-double;
#DESCRIPTION:;
#CHARTSTYLE:;
#DIFFICULTY:Hard;
#METER:12;
#RADARVALUES:0.549536,0.647961,0.385496,0.475718,0.192748,469.000000,422.000000,47.000000,58.000000,0.000000,0.000000,0.000000,0.000000,0.000000,0.549536,0.647961,0.385496,0.475718,0.192748,469.000000,422.000000,47.000000,58.000000,0.000000,0.000000,0.000000,0.000000,0.000000;
#CREDIT:TOXIC TURTLE Step Team ''CHIIIRO!'';
#NOTES:
00000000
00000000
00000000
00000000
,
00000000
00000000
00000000
00000000
,
00000000
00000000
00000000
00000000
,
10000000
00000000
00000000
00000000
00001000
00000000
00000000
00000000
00100000
00000000
00000000
00100000
00000000
00000000
00020000
00000000
,
00000000
01000000
01030000
00000000
01000000
00010000
01000000
00100000
,
20000000
00000000
00000000
00000000
30010000
00000000
02000000
00000000
00000000
00000000
03010000
00000000
00100000
00000000
00001000
00100000
,
00000000
00010000
10000000
01000000
10000000
00000000
00001000
00000000
,
00010000
00000000
00000000
00000000
00000001
00000000
00000000
00000000
00010000
00000000
00000000
00000100
00000000
00000000
00000100
00000000
,
00000000
00001000
00000000
00001000
00000100
00000010
00001000
00000001
,
00001001
00000000
00001100
00000000
00000101
00000000
00001000
00000100
,
00000000
00010000
00010000
00010000
00002000
00000000
02003000
00000000
,
03100000
00000000
00000000
10000000
10000000
00010000
01000000
00100000
,
01000000
00000000
00000000
00001000
00001000
00010000
00000100
00010000
,
00000010
00000000
00000000
00001000
00001000
00000001
00001000
00000100
,
00002000
02003000
03020000
20030000
,
30100000
00000000
10000000
00010000
01000000
00010000
10000000
00010000
,
00100000
00000000
00100000
00001000
00010000
00001000
00100000
00001000
,
00010000
00000000
00010000
00000100
00001000
00000000
00000010
00001000
,
00000200
00000000
00000000
00002000
00000000
00003300
00000001
00000000
,
00001100
00000000
00000101
00000000
00001000
00000010
00010000
00000010
,
00020000
00000000
00000000
00031000
00000000
01000000
00010000
10000000
,
00020000
00000000
00000000
02030000
00000000
00000000
03000000
00010000
,
10000000
00000000
00000000
10010000
00000000
00000000
10000000
00000000
00010000
00000000
00000000
01010000
00000000
00000000
01000000
00000000
,
00020000
00000000
01030000
00002000
00000000
00013000
00000100
00001000
,
00000001
00000000
00001000
00000100
00000000
00001000
00000100
00010000
,
00000000
00001000
01000000
00010000
00000000
00010000
10000000
00200000
,
00000000
10000000
00010000
01300000
,
10010000
01010000
11000000
01010000
,
10000000
00100000
00010000
00100000
02000000
00000000
03002000
00000000
,
00023000
00000010
00030100
00001001
,
00000010
00001000
00000100
00001000
00000010
00000000
00001001
00000000
,
00000020
00002030
00023000
00032000
,
01003000
00010000
01000000
10000000
01000000
00000000
10010000
00000000
,
01100000
00000000
00000000
00100000
00000000
00000000
10000000
00000000
10010000
00000000
00000000
10000000
00000000
00000000
00010000
00000000
,
02020000
00000000
03030000
20200000
00000000
30300000
00000000
00000000
,
10000000
00000000
00000000
00010000
10000000
00000000
00100000
00000000
01000000
00000000
00100000
00000000
01000000
00000000
00000000
00000000
,
00001000
00000000
00000000
00100000
00001000
00000000
00100000
00000000
00001000
00000000
00010000
00000000
00001000
00000000
00000000
00000000
,
00010000
00000000
00000000
00000010
00001000
00000000
00000010
00000000
00000100
00000000
00000010
00000000
00001000
00000000
00000001
00000000
,
00001000
00000000
00000000
00000100
00000000
00000000
00010000
00000000
00002000
00000000
00000000
00000000
02003000
00000000
00000000
00000000
,
03100000
00000000
00000000
10000000
00100000
00000000
01000000
00000000
00010000
10000000
00000000
10000000
00010000
00000000
00000000
00000000
,
01000000
00000000
00000000
00010000
00100000
00000000
00010000
00000000
01000000
00000000
00000000
00000000
00001000
00000000
00000000
00000000
,
00010000
00000000
00000000
00010000
00000000
00000000
00000010
00000000
00001000
00000000
00000000
00001000
00000000
00000000
00000001
00000000
,
00000200
00000010
00000301
00001100
,
00001010
00000000
00000000
00000010
00000000
00000000
00020000
00000000
00002000
00000000
00000000
00000000
00033000
00000000
00001000
00000000
,
01000000
00000000
00000000
00010000
00000000
00000000
20000000
00000000
00020000
00000000
30030000
00000000
10010000
00000000
00000000
00000000
,
10100000
00000000
00000000
00010000
00000000
00000000
10000000
00000000
00001000
00000000
00000000
00000000
00010000
00000000
00000000
00000000
,
00000020
00001000
00000100
00001030
,
00000101
00000000
00000000
00001000
00000000
00000000
00000100
00000000
00010000
00000000
00000000
00000000
00001000
00000000
00000000
00000000
,
00100000
00000000
00000000
00010000
00000000
00000000
10000000
00000000
00010000
00000000
00000000
00000000
00100000
00000000
00000000
00000000
,
00110000
00000000
00000000
00110000
00000000
00000000
10000000
00000000
10010000
00000000
00000000
10010000
00000000
00000000
01000000
00000000
,
01100000
00000000
00000000
01100000
00000000
00000000
00010000
00000000
10000000
00000000
01000000
00000000
00100000
00000000
00010000
00000000
,
10000000
00100000
10000000
00100000
01000000
00010000
01000000
00010000
,
00100000
00001000
00010000
00001000
00100000
00001000
01000000
00001000
,
00010000
00000100
00010000
00000100
00001000
00000001
00001000
00000001
,
00002000
00000000
00003020
00000000
00000130
00000010
00001000
00000001
,
00001000
00000010
00001000
00000010
00010000
00000010
00010000
00000010
,
00010000
00001000
00010000
00001000
01000000
00001000
01000000
00001000
,
01000000
00000000
00000000
10010000
00000000
00000000
10000000
00000000
00010000
00000000
00000000
01100000
00000000
00000000
00010000
00000000
,
00100000
00000000
00000000
10010000
00000000
00000000
01000000
00000000
00001000
00000000
00000000
00000000
00011000
00000000
00000000
00000000
,
00010200
00000000
00002300
00003002
,
00002003
00000000
00000000
00000100
00003100
00000000
00010000
00000000
,
00001000
00000000
00000000
00001000
00000000
00000000
00001000
00000000
01000000
00000000
00000000
01000000
00000000
00000000
01000000
00000000
,
10000000
00000000
00000000
10000000
00000000
00000000
01000000
00000000
00010000
00000000
00000000
00010000
00000000
00000000
00010000
10000000
,
01000000
00000000
00000000
01000000
00000000
00000000
10000000
00000000
00010000
00000000
00000000
00010000
00000000
00000000
10000000
00010000
,
10000000
00000000
00000000
10000000
00000000
00000000
00010000
00000000
00100000
00000000
00000000
00000000
00001000
00000000
00000000
00000000
,
00010100
00000000
00000000
00010100
00000000
00000000
00001000
00000000
00000010
00000000
00000000
00001010
00000000
00000000
00001000
00000000
,
00000001
00000010
00000100
00001000
00000010
00000000
00001001
00000000
,
00010100
00000000
00000000
00010000
00000000
00000000
00001000
00000000
02000000
00000000
00000000
00000000
03100000
00000000
00000000
00000000
,
10010000
00000000
00000000
01000000
00000000
00000000
00001000
00000000
00020000
00000000
00000000
00000000
00030100
00000000
00000000
00000000
,
00001100
00000000
00000000
00001000
00000000
00000000
00000010
00000000
00020000
00000000
00000000
00000000
00031000
00000000
00010000
00000000
,
00002000
00010000
01000000
00103000
,
00110000
00000000
00000000
00010000
00000000
00000000
10000000
00000000
02000000
00000000
00000000
00000000
03000000
00000000
10000000
00000000
,
00010000
00000000
00000000
00100000
00000000
00000000
00010000
00000000
02000000
00000000
00000000
00000000
03001000
00000000
00000000
00000000
,
00011000
00000000
00000000
00011000
00000000
00000000
00010000
00000000
00000010
00000000
00000000
00001010
00000000
00000000
00001000
00000000
,
00000001
00000000
00000000
00000101
00000000
00000000
00000100
00000000
00000010
00000000
00001000
00000000
00000100
00000000
00000010
00000000
,
00000002
00000203
00002300
00023000
,
02030000
23000000
30200000
00302000
,
00013000
00000100
00001000
00000001
00001000
00000100
00010000
00001000
,
00022000
00000000
00000000
00000000
,
00033000
00000000
00000000
00000000
;

//---------------dance-single - ----------------
#NOTEDATA:;
#CHARTNAME:;
#STEPSTYPE:dance-single;
#DESCRIPTION:;
#CHARTSTYLE:;
#DIFFICULTY:Hard;
#METER:12;
#RADARVALUES:0.584688,0.647961,0.500324,0.328081,0.237859,499.000000,438.000000,61.000000,40.000000,0.000000,0.000000,0.000000,0.000000,0.000000,0.584688,0.647961,0.500324,0.328081,0.237859,499.000000,438.000000,61.000000,40.000000,0.000000,0.000000,0.000000,0.000000,0.000000;
#CREDIT:TOXIC TURTLE Step Team ''Toxsa Dalton'';
#NOTES:
0000
0000
0000
0000
,
0000
0000
0000
0000
,
0000
0000
0000
0000
,
1010
0000
0000
0000
0101
0000
0000
0000
0010
0000
0000
0010
0000
0000
1001
0000
,
0000
0100
0010
0000
0100
0001
0100
0010
,
2000
0000
0000
0000
3001
0000
0200
0000
0000
0000
0301
0000
1000
0000
0001
0100
,
0000
0001
1000
0100
2000
0000
3002
0000
,
0013
0000
0000
0000
1001
0000
0000
0000
0100
0000
0000
0100
0000
0000
0200
0000
,
0000
0302
0000
1003
0010
0100
0001
1000
,
0001
0000
0101
0000
1100
0000
0001
0100
,
0000
0001
0001
0001
0000
1000
0100
0010
,
0002
0000
0000
1003
1000
0001
0100
0010
,
0100
0000
0000
0010
0010
1000
0001
0100
,
0001
0000
0000
0001
0001
1000
0010
0100
,
0002
0203
0302
2003
,
3010
0000
0000
0001
0100
0001
1000
0001
,
0010
0000
0000
1000
0001
1000
0010
1000
,
0001
0000
0000
1000
0010
0100
0010
1000
,
0002
0000
0000
2000
0000
3003
1001
0000
,
0101
0000
1100
0000
0010
1000
0001
1000
,
0002
0000
0000
1003
0000
0010
1000
0001
,
0200
0000
0001
0002
0000
0303
0100
0001
,
1000
0000
0000
1001
0000
0000
1000
0000
0001
0000
0000
1001
0000
0000
0001
0000
,
0200
0000
0301
0010
0001
1000
0010
1000
,
0001
0000
1000
0100
1000
0001
0100
0001
,
0000
1000
0000
0001
1000
0001
1000
0020
,
0000
1000
0100
1030
,
0011
0000
0000
0001
0100
0000
0000
0100
0010
0000
0000
0010
1000
0000
0000
0000
,
0001
1000
0010
1000
0002
0000
0203
0000
,
0310
0000
0000
0010
1000
0000
0000
1000
0001
0000
0000
0001
0100
0000
0000
0000
,
0010
1000
0001
1000
0100
0000
1001
0000
,
0020
0230
0302
2003
,
3010
0100
0001
0100
0010
0000
1001
0000
,
0110
0000
0000
0010
0000
0000
1000
0000
1001
0000
0000
1000
0000
0000
0001
0000
,
0202
0000
0303
2020
0000
3030
0000
0000
,
1000
0000
0000
0001
1000
0000
0010
0000
0100
0000
0010
0000
1000
0000
0001
0000
,
0100
0000
0000
0010
0100
0000
0001
0000
1000
0000
0100
0000
1000
0000
0001
0000
,
0100
0000
0000
0010
0000
0000
1000
0000
0010
0000
0000
0100
0000
0000
0001
0000
,
1000
0000
0000
0100
0000
0000
1000
0000
0010
0000
0100
0000
0001
0000
1000
0000
,
0010
0000
0000
0010
0000
0000
1000
0000
0001
1000
0000
1000
0010
0000
0100
0000
,
0010
0000
0000
1000
0000
0000
0001
0000
1000
0000
0000
0010
0000
0000
1000
0000
,
0001
0000
0000
0101
0000
0000
1000
0000
0001
0000
0000
1001
0000
0000
1000
0000
,
0010
1000
0100
0010
0001
0000
1001
0000
,
1010
0000
0000
0001
0000
0000
0100
0000
0010
0000
0000
0000
1001
0000
0000
0000
,
0101
0000
0000
0010
0000
0000
1000
0000
0100
0000
0000
0000
1001
0000
0000
0000
,
0101
0000
0000
0010
0000
0000
1000
0000
0100
0000
0000
0000
1100
0000
0000
0000
,
0002
0100
1000
0013
,
1001
0000
0000
0010
0000
0000
0100
0000
1001
0000
0000
0000
0000
0000
1000
0000
,
0010
0000
0000
0100
0000
0000
0001
0000
1100
0000
0000
0000
0011
0000
0000
0000
,
0011
0000
0000
0011
0000
0000
1000
0000
1001
0000
0000
1001
0000
0000
0100
0000
,
0110
0000
0000
0110
0000
0000
0001
0000
1000
0000
0100
0000
0010
0000
0001
0000
,
1000
0010
1000
0010
0100
0001
0100
0001
,
1000
0010
0100
0010
1000
0001
1000
0001
,
0100
0010
0100
0010
1000
0100
0010
0001
,
2000
0000
3002
0000
0103
0010
1000
0001
,
1000
0100
1000
0100
0010
0001
0010
0001
,
1000
0010
1000
0010
0100
0001
1000
0001
,
0100
0000
0000
0100
0000
0000
0001
0000
1000
0000
0000
1000
0000
0000
0001
0000
,
0010
0000
0000
1001
0000
0000
0100
0000
0010
0000
0000
0000
1001
0000
0000
0000
,
2002
0000
3003
0100
0002
0000
2003
0000
,
3010
0000
0000
0010
0000
0000
1000
0000
0001
0000
0000
0001
0000
0000
1000
0000
,
0001
0000
0000
1000
0000
0000
1000
0000
0010
0000
0000
0010
0000
0000
0010
0000
,
0100
0000
0000
0010
0000
0000
0100
0000
0001
0000
0000
0001
0000
0000
0001
1000
,
0001
0000
0000
0100
0000
0000
0100
0000
0100
0000
0000
0001
0000
0000
1000
0001
,
1000
0000
0000
0010
0000
0000
0010
0000
0010
0000
0000
0000
1001
0000
0000
0000
,
0101
0000
0000
0101
0000
0000
1000
0000
1010
0000
0000
1010
0000
0000
0100
0000
,
0101
0000
0000
0101
0000
0000
1000
0000
0001
0000
0000
0000
0101
0000
0000
0000
,
1010
0000
0000
0001
0000
0000
0100
0000
0010
0000
0000
0000
1001
0000
0000
0000
,
0101
0000
0000
1000
0000
0000
0010
0000
0100
0000
0000
0000
1001
0000
0000
0000
,
0101
0000
0000
0010
0000
0000
1000
0000
0001
0000
0000
0000
1001
0000
0000
0000
,
0102
1000
0010
1003
,
0101
0000
0000
0010
0000
0000
1000
0000
0001
0000
0000
0000
0000
0000
1000
0000
,
0001
0000
0000
0100
0000
0000
0010
0000
0010
0000
0000
0000
1010
0000
0000
0000
,
0101
0000
0000
0101
0000
0000
1000
0000
0001
0000
0000
0001
0000
0000
1000
0000
,
0010
0000
0000
0010
0000
0000
1000
0000
0100
0000
0010
0000
0001
0000
0000
0000
,
2002
0000
3003
0001
0100
0010
0100
0001
,
1000
0000
1000
0001
0100
0001
0010
0001
,
1000
0000
1000
0001
0100
0010
0100
0000
,
2002
0000
0000
0000
,
3003
0000
0000
0000
;

//---------------dance-double - ----------------
#NOTEDATA:;
#CHARTNAME:;
#STEPSTYPE:dance-double;
#DESCRIPTION:;
#CHARTSTYLE:;
#DIFFICULTY:Medium;
#METER:8;
#RADARVALUES:0.390182,0.518368,0.360889,0.524930,0.045111,333.000000,289.000000,44.000000,64.000000,0.000000,0.000000,0.000000,0.000000,0.000000,0.390182,0.518368,0.360889,0.524930,0.045111,333.000000,289.000000,44.000000,64.000000,0.000000,0.000000,0.000000,0.000000,0.000000;
#CREDIT:TOXIC TURTLE Step Team ''CHIIIRO!'';
#NOTES:
00000000
00000000
00000000
00000000
,
00000000
00000000
00000000
00000000
,
00000000
00000000
00000000
00000000
,
10010000
10010000
00200000
00301000
,
00010000
00000000
00000100
00000000
00001000
00000001
00001000
00000000
,
00001001
00001001
00002000
00003100
,
00020000
00031000
00200000
00300000
,
10010000
00000000
11000000
00000000
00100000
00010000
01000000
00000000
,
10000000
10010000
00100000
00001000
,
00020000
00030000
00000200
00000300
,
00001000
00000000
00000001
00001000
00000000
00000000
00001001
00000000
,
00000002
00000003
00001000
00000100
,
00020000
00030000
00001000
01000000
,
00200000
00300000
01000000
00001000
,
00020000
00000000
00000000
00000000
00030020
00000000
00000000
00000030
,
00001000
00000000
00000001
00001000
,
00000200
00000300
00010000
00001000
,
02000000
03000000
00100000
10000000
,
10010000
00000000
00000000
02200000
00000000
00000000
03300000
00000000
,
10000000
00000000
00010000
00000000
00100000
00010000
00100000
00000000
,
00001000
00010000
00000010
00001000
,
00000002
00001003
00000100
00010000
,
00002000
00000000
00103000
00000000
00010000
01000000
00010000
00000000
,
20000000
31000000
00200000
00301000
,
00020000
00030010
00000200
00000301
,
00002000
00000000
00003100
00000000
00001000
00000010
00001000
00000000
,
00000200
00000000
00010300
00000000
00001000
00010000
00001000
00000000
,
00101000
00011000
00101000
00011000
,
00100000
00010000
01000000
00010000
00100000
00000000
00000000
00000000
,
10010000
11000000
10010000
11000000
,
00100000
01000000
00010000
01000000
00100000
00000000
00000000
00000000
,
00002000
00103000
00020000
00130000
,
00002000
00023000
00032000
00023000
,
00030010
00000000
00000000
00001010
00000000
00000000
00000000
00000000
00000001
00000000
00000000
00000101
00000000
00000000
00000000
00000000
,
00002200
00000000
00003300
00000022
00000000
00000033
00000000
00000000
,
00000010
00000000
00000000
00000010
00000000
00000000
00001000
00000000
00000001
00000000
00000000
00000000
00001000
00000000
00000000
00000000
,
00000100
00000000
00000000
00000100
00000000
00000000
00001000
00000000
00000001
00000000
00000000
00000000
00001000
00000000
00000000
00000000
,
00000200
00010300
00002000
01003000
,
00100000
10000000
01000000
00000000
10010000
00000000
01100000
00000000
,
01000000
00000000
00000000
01000000
00000000
00000000
00010000
00000000
10000000
00000000
00000000
00000000
00000000
00000000
00000000
00000000
,
00100000
00000000
00000000
00100000
00000000
00000000
10000000
00000000
00010000
00000000
00000000
00000000
10000000
00000000
00000000
00000000
,
00020000
00130000
00002000
00103000
,
00001000
00010000
00001000
00010000
00001000
00000000
00000000
00000000
,
00010000
00000000
00000100
00001000
00000100
00000000
00000000
00000000
,
00001000
00000000
00100000
00010000
00100000
00000000
00000000
00000000
,
00001000
00010000
00000010
00001000
,
00000002
00000100
00000010
00001003
,
00002200
00003000
00020000
00000300
,
00002000
00030000
01003000
01010000
,
10010000
00000000
01100000
00000000
,
00100000
00000000
00000000
00100000
00000000
00000000
10000000
00000000
00010000
00000000
10000000
00000000
00100000
00000000
10000000
00000000
,
01000000
10100000
01000000
00110000
,
02000000
03002000
00013000
00000001
,
00001000
00001001
00000001
00001001
,
00000200
00020300
00031000
10000000
,
00100000
10100000
01000000
01010000
,
10000000
00010000
00100000
00000010
,
00001000
00000001
00001000
00000000
00000001
00001000
00000001
00000000
,
00002000
00003200
00020000
00030300
,
00022000
00030000
02000000
03000000
,
00200000
00003000
00020000
00030000
,
00002000
00300000
00023000
00000000
,
00000100
00000010
00000200
00030300
,
00001000
00000000
00000000
00001000
00000000
00000000
00000000
00000000
00000001
00000000
00000000
00000001
00000000
00000000
00000000
00000000
,
00001000
00000000
00000000
00001000
00000000
00000000
00000000
00000000
00000001
00000000
00000000
00000001
00000000
00000000
00000000
00000000
,
00001001
00000000
00000000
00010000
00001000
00000000
00000000
10000000
,
00010000
10010000
00110000
10010000
,
10000000
01000000
00110000
00000000
,
00001000
00000100
00000011
00000000
,
00000001
00000100
00001000
00010000
,
00100000
00000000
10000000
00000000
00010000
01000000
00010000
00000000
,
20010000
00100000
00020000
30000000
,
01000000
00100000
10030000
00001000
,
00011000
00010000
00000001
00001000
,
00001002
00000100
00000010
00001003
,
00000020
00001000
00000100
00001000
,
00020030
00001000
00000100
00001000
,
00032000
01000000
00100000
01000000
,
00020000
00000000
00000000
00000000
,
00033000
00000000
00000000
00000000
;

//---------------dance-double - ----------------
#NOTEDATA:;
#CHARTNAME:;
#STEPSTYPE:dance-double;
#DESCRIPTION:;
#CHARTSTYLE:;
#DIFFICULTY:Easy;
#METER:6;
#RADARVALUES:0.274182,0.356378,0.196849,0.196849,0.000000,234.000000,210.000000,24.000000,24.000000,0.000000,0.000000,0.000000,0.000000,0.000000,0.274182,0.356378,0.196849,0.196849,0.000000,234.000000,210.000000,24.000000,24.000000,0.000000,0.000000,0.000000,0.000000,0.000000;
#CREDIT:TOXIC TURTLE Step Team ''Toxsa Dalton'';
#NOTES:
00000000
00000000
00000000
00000000
,
00000000
00000000
00000000
00000000
,
00000000
00000000
00000000
00000000
,
00100000
10000000
00100000
10000000
,
00100000
00000000
01000000
00000000
,
00001000
00010000
00001000
00010000
,
00000100
00000000
00001000
00000000
,
00000001
00000010
00000001
00000010
,
00000001
00000000
00001000
00000000
,
00000100
00010000
00000100
00010000
,
00000100
00000000
00010000
00000000
,
00001000
00000000
01000000
01000000
,
01000000
00000000
00010000
00010000
,
00010000
00000000
00100000
00100000
,
00100000
00000000
10000000
00000000
,
01000000
00000000
10000000
00100000
,
00010000
00000000
10000000
01000000
,
00010000
00000000
00001000
00000100
,
00000010
00000000
00000000
00001001
00000000
00000000
00000000
00000000
,
00001001
00000000
00000010
00000100
,
00000001
00000000
00000100
00000010
,
00010000
00000000
00001000
00000000
,
01000000
00010000
00100000
10000000
,
01000000
00000000
00010000
00100000
,
00001000
00000000
00010000
00000010
,
00002000
00000000
00003000
00000001
,
00002002
00000000
00000000
00003003
,
00000010
00000001
00000100
00001000
,
00000010
00000000
00010000
00000000
,
00001000
00100000
00010000
01000000
,
00100000
00000000
10010000
00000000
,
10000000
00100000
00010000
01000000
,
00100000
00000000
10010000
00000000
,
01000000
00000000
00001000
00000000
,
00010100
00000000
00001001
00000000
,
00000010
00001000
00002002
00003003
,
00000010
00010000
00022000
00033000
,
00100000
00010000
01000000
10000000
,
00100000
00010000
20020000
30030000
,
01000000
00001000
00022000
00033000
,
00000100
00010000
00022000
00033000
,
00000010
00000000
00001000
00000000
,
00000200
00000010
00000310
00000000
,
00000001
00000100
00001000
00000000
,
00010000
01000000
10000000
00000000
,
00010000
00100000
01000000
10000000
,
00200000
00300000
02000000
03000000
,
10000000
01000000
00010000
00000000
,
00001000
00000100
00000001
00000000
,
00001001
00000000
00000110
00000000
,
00001001
00000000
00000110
00000000
,
00000001
00000001
00000100
00000100
,
00000001
00000100
00000001
00000100
,
00001000
00001000
00000100
00000100
,
00002000
00003000
00020000
00030000
,
00100000
00100000
00010000
00010000
,
00100000
00010000
00100000
00010000
,
00100000
00100000
10000000
10000000
,
00100000
10000000
00200000
00300000
,
10000000
00000000
00100000
00000000
,
00010000
00000000
00000100
00000000
,
00001000
00000000
01000000
00000000
,
00010000
00000000
00000010
00000000
,
00000001
00000100
00001000
00000000
,
00010000
00100000
10000000
00000000
,
10000000
01000000
00010000
00000000
,
00022000
00000000
00033000
00000000
,
00000100
00001000
00000001
00000000
,
00000100
00000001
00001000
00000000
,
00000100
00010000
00011000
00000000
,
00011000
00001000
01000000
00000000
,
00100000
10010000
10010000
00000000
,
00100000
10010000
10010000
00000000
,
00100000
00000000
00001000
00000000
,
00000020
00000000
00000030
00000000
,
00000001
00000000
00001000
00000000
,
00010000
00000000
10000000
00000000
,
00010000
00000000
00001000
00000000
,
00022000
00000000
00000000
00000000
,
00033000
00000000
00000000
00000000
;

//---------------dance-single - ----------------
#NOTEDATA:;
#CHARTNAME:;
#STEPSTYPE:dance-single;
#DESCRIPTION:;
#CHARTSTYLE:;
#DIFFICULTY:Beginner;
#METER:3;
#RADARVALUES:0.158182,0.226786,0.082020,0.114828,0.000000,135.000000,125.000000,10.000000,14.000000,0.000000,0.000000,0.000000,0.000000,0.000000,0.158182,0.226786,0.082020,0.114828,0.000000,135.000000,125.000000,10.000000,14.000000,0.000000,0.000000,0.000000,0.000000,0.000000;
#CREDIT:TOXIC TURTLE Step Team ''M_A_X'';
#NOTES:
0000
0000
0000
0000
,
0000
0000
0000
0000
,
0000
0000
0000
0000
,
0010
0000
0001
0000
,
0100
0000
0000
0000
,
0010
0000
1000
0000
,
0100
0000
0000
0000
,
0100
0000
0001
0000
,
1000
0000
0000
0000
,
0100
0000
1000
0000
,
0001
0000
0000
0000
,
0010
0000
0000
0000
,
0100
0000
0000
0000
,
1000
0000
0000
0000
,
0001
0000
0000
0000
,
0010
0000
0000
0000
,
1000
0000
0000
0000
,
0100
0000
0000
0000
,
0001
0000
0001
0000
,
1000
0000
0100
0000
,
0100
0000
0000
0000
,
0001
0000
0001
0000
,
0001
0000
0000
0000
,
1000
0000
0001
0000
,
1000
0000
0001
0000
,
0100
0000
0000
0000
,
1001
0000
0000
0000
,
0010
0000
0001
0000
,
0200
0000
0300
0000
,
0010
0000
1000
0000
,
0200
0000
0300
0000
,
0001
0000
1000
0000
,
0020
0000
0030
0000
,
1000
0000
0001
0000
,
0020
0000
0030
0000
,
0001
0000
1001
0000
,
1000
0000
1001
0000
,
0100
0000
0100
0000
,
0010
0000
0010
0000
,
0001
0000
1001
0000
,
1000
0000
0001
0000
,
0100
0000
0010
0000
,
2002
0000
3003
0000
,
0001
0000
0100
0000
,
1000
0000
0100
0000
,
0010
0000
0010
0000
,
0200
0000
0300
0000
,
0001
0000
0100
0000
,
1000
0000
0100
0000
,
0002
0003
0001
0000
,
2000
3000
1000
0000
,
0010
0000
0001
0000
,
0100
0000
1000
0000
,
0100
0000
0001
0000
,
0010
0000
1001
0000
,
1000
0000
1000
0000
,
0001
0000
0001
0000
,
0100
0000
0100
0000
,
0020
0000
0030
0000
,
1001
0000
0000
0000
,
0010
0000
0000
0000
,
1000
0000
0100
0000
,
0001
0000
0100
0000
,
1000
0000
1000
0000
,
0001
0000
0001
0000
,
1000
0000
0001
0000
,
1001
0000
0000
0000
,
0100
0000
0010
0000
,
0100
0000
0010
0000
,
1000
0000
0010
0000
,
0001
0000
0010
0000
,
0100
0000
0010
0000
,
0100
0000
0010
0000
,
0001
0000
0100
0000
,
2002
0000
3003
0000
,
0001
0000
0001
0000
,
1000
0000
1000
0000
,
0001
0000
0001
0000
,
2002
0000
0000
0000
,
3003
0000
0000
0000
;

//---------------dance-single - ----------------
#NOTEDATA:;
#CHARTNAME:;
#STEPSTYPE:dance-single;
#DESCRIPTION:;
#CHARTSTYLE:;
#DIFFICULTY:Easy;
#METER:5;
#RADARVALUES:0.289415,0.388776,0.221455,0.155839,0.000000,247.000000,220.000000,27.000000,19.000000,0.000000,0.000000,0.000000,0.000000,0.000000,0.289415,0.388776,0.221455,0.155839,0.000000,247.000000,220.000000,27.000000,19.000000,0.000000,0.000000,0.000000,0.000000,0.000000;
#CREDIT:TOXIC TURTLE Step Team ''Anthony The Kid'';
#NOTES:
0000
0000
0000
0000
,
0000
0000
0000
0000
,
0000
0000
0000
0000
,
0010
1000
0010
1000
,
0010
0000
0100
0000
,
1000
0001
1000
0001
,
0100
0000
1000
0000
,
0001
0010
0001
0010
,
0001
0000
1000
0000
,
0100
0001
0100
0001
,
0100
0000
0001
0000
,
1000
0000
0100
0100
,
0100
0000
0001
0001
,
0001
0000
0010
0010
,
0010
0000
1000
0000
,
0100
0000
1000
0010
,
0001
0000
1000
0100
,
0001
0000
1000
0100
,
0001
0000
0000
1001
0000
0000
0000
0000
,
1001
0000
0010
0100
,
0001
0000
0100
0010
,
1000
0000
0010
0000
,
0100
0001
0010
1000
,
0100
0000
0001
0010
,
1000
0000
0001
0100
,
1000
0000
0001
1000
,
2002
0000
0000
3003
,
0010
1000
0100
0001
,
0010
0000
1001
0000
,
0010
0001
0100
1000
,
0010
0000
1001
0000
,
1000
0100
0010
0001
,
1000
0000
1001
0000
,
0001
0010
0100
1000
,
0010
0000
1001
0000
,
0010
0001
2002
3003
,
0010
1000
2002
3003
,
0010
0001
0100
1000
,
0010
0000
2002
3003
,
0100
1000
2002
3003
,
0100
0001
2002
3003
,
0110
0000
1001
0000
,
0020
0100
0130
0000
,
0001
0010
0001
0010
,
1000
0010
1000
0010
,
0001
0010
1000
0010
,
0002
0003
2000
3000
,
0001
0100
0001
0000
,
1000
0100
1000
0000
,
1001
0000
0110
0000
,
0001
0001
1001
0000
,
0010
1000
0010
1000
,
0010
0001
0010
0001
,
0010
1000
0010
0001
,
1000
0001
1001
0000
,
0001
0100
0001
0100
,
1000
0100
1000
0100
,
0001
0100
1000
0100
,
0001
0010
1000
0000
,
1000
0000
0001
0000
,
1000
0000
0001
0000
,
0010
0000
1000
0000
,
0100
0000
0001
0000
,
0001
1000
1001
0000
,
1000
0001
1001
0000
,
1000
0000
0001
0000
,
2002
0000
3003
0000
,
0010
1000
0001
0000
,
0100
0001
1000
0000
,
0010
0001
0100
0000
,
1001
0000
0110
0000
,
0010
1001
1001
0000
,
0010
1001
1001
0000
,
0010
0000
1000
0000
,
0200
0000
0300
0000
,
0001
1000
0001
1000
,
0001
0100
1000
0100
,
0001
0010
1000
0010
,
0002
0000
0000
0000
,
0003
0000
0000
0000
;

//---------------dance-single - ----------------
#NOTEDATA:;
#CHARTNAME:;
#STEPSTYPE:dance-single;
#DESCRIPTION:;
#CHARTSTYLE:;
#DIFFICULTY:Medium;
#METER:8;
#RADARVALUES:0.376122,0.453572,0.278869,0.319879,0.049212,321.000000,287.000000,34.000000,39.000000,0.000000,0.000000,0.000000,0.000000,0.000000,0.376122,0.453572,0.278869,0.319879,0.049212,321.000000,287.000000,34.000000,39.000000,0.000000,0.000000,0.000000,0.000000,0.000000;
#CREDIT:TOXIC TURTLE Step Team ''Danny Vasquez'';
#NOTES:
// measure 0
0000
0000
0000
0000
,  // measure 1
0000
0000
0000
0000
,  // measure 2
0000
0000
0000
0000
,  // measure 3
0010
1000
0010
0001
,  // measure 4
0010
1000
0100
0001
,  // measure 5
1000
0001
1000
0001
,  // measure 6
0100
0010
2002
3003
,  // measure 7
0001
0010
1000
0010
,  // measure 8
0001
0100
1000
0100
,  // measure 9
0001
0010
0100
1000
,  // measure 10
0000
0001
1000
0001
0000
1001
0000
0000
,  // measure 11
1000
0001
0100
0100
,  // measure 12
1001
0000
0010
0010
,  // measure 13
1001
0000
0010
0010
,  // measure 14
0002
0100
0100
0100
,  // measure 15
0103
0000
1000
0010
,  // measure 16
1001
0000
1000
0100
,  // measure 17
1001
0000
0000
0000
1000
0001
1000
0000
,  // measure 18
0001
0000
0000
1001
0000
0000
0000
0000
,  // measure 19
1001
0000
1000
0000
0001
0100
0001
0000
,  // measure 20
1000
0000
0010
0000
0100
0010
0100
0000
,  // measure 21
0001
0000
1000
0000
0001
0000
0100
0010
,  // measure 22
0100
0001
0010
0001
,  // measure 23
0100
0000
0000
0000
0001
1000
0010
0000
,  // measure 24
1000
0000
0000
0000
0001
1000
0100
0000
,  // measure 25
1000
0000
0001
1000
,  // measure 26
2002
0000
0000
3003
,  // measure 27
0010
1000
0100
0001
,  // measure 28
0010
0110
1001
0000
,  // measure 29
0010
0001
0100
1000
,  // measure 30
0010
0110
1001
0000
,  // measure 31
1001
0100
0010
0001
,  // measure 32
2000
3002
0103
0100
,  // measure 33
0001
0000
0000
0001
0000
0000
0000
0000
1000
0000
0000
1000
0000
0000
0000
0000
,  // measure 34
0010
0000
0000
2002
0000
0000
3003
0000
,  // measure 35
0010
0000
0000
0010
0000
0000
2000
0000
0002
0000
0000
0000
3003
0000
0000
0000
,  // measure 36
0010
0000
0000
0010
0000
0000
0002
0000
2000
0000
0000
0000
3003
0000
0000
0000
,  // measure 37
0010
0001
0100
1000
,  // measure 38
0010
0000
0000
0010
0000
0000
1000
0000
0001
0000
0000
0000
1001
0000
0000
0000
,  // measure 39
0100
0000
0000
0100
0000
0000
2000
0000
0002
0000
0000
0000
3003
0000
0000
0000
,  // measure 40
0100
0000
0000
0100
0000
0000
0002
0000
2000
0000
0000
0000
3003
0000
0000
0000
,  // measure 41
0110
0000
1001
0000
,  // measure 42
0020
0100
0130
0000
,  // measure 43
1001
0000
1000
0001
1000
0000
0000
0000
,  // measure 44
1001
0000
0001
1000
0001
0000
0000
0000
,  // measure 45
0100
0000
1000
0001
1000
0000
0010
0000
,  // measure 46
2000
0100
0010
3001
,  // measure 47
0002
0003
1000
0000
,  // measure 48
2000
3000
0001
0100
,  // measure 49
1001
0000
0110
0000
,  // measure 50
0001
1000
0001
1000
0001
0000
1001
0000
,  // measure 51
0010
0000
1000
0000
0001
1000
0001
0000
,  // measure 52
0100
0000
0001
0000
1000
0001
1000
0000
,  // measure 53
0010
0010
1001
0001
,  // measure 54
0001
0100
0001
0000
1100
0000
0001
0000
,  // measure 55
1000
0000
1000
0000
0001
0100
0001
0000
,  // measure 56
1000
0000
1000
0000
0010
0100
0010
0000
,  // measure 57
2000
0100
0010
3001
,  // measure 58
0002
0100
0010
0003
,  // measure 59
2000
3000
0002
0003
,  // measure 60
0200
0300
0020
0030
,  // measure 61
1000
0100
0010
0001
,  // measure 62
0100
0010
1001
0000
,  // measure 63
0001
0000
1000
0100
2000
0000
3000
0000
,  // measure 64
0001
0000
0100
0001
0200
0000
0300
0000
,  // measure 65
0020
0030
2002
3003
,  // measure 66
0220
0000
0330
0000
,  // measure 67
0010
0000
0000
0010
0000
0000
0100
0000
0001
0000
0000
0000
1000
0000
0000
0000
,  // measure 68
0010
0000
0000
0010
0000
0000
0100
0000
0001
0000
0000
0000
1000
0000
0000
0000
,  // measure 69
0010
0000
0000
0010
0000
0000
0001
0000
1000
0000
0000
0000
0110
0000
0000
0000
,  // measure 70
1000
0001
1001
1001
,  // measure 71
0010
0000
0000
0001
0000
0000
1000
0000
1000
0000
0000
0000
1001
0000
0000
0000
,  // measure 72
0010
0000
0000
1000
0000
0000
0001
0000
0001
0000
0000
0000
1001
0000
0000
0000
,  // measure 73
0020
0000
0030
0000
1000
0100
0010
0001
,  // measure 74
0200
0000
0020
0330
,  // measure 75
0001
0100
1000
0100
,  // measure 76
0001
1000
0001
0000
1000
0001
1000
0000
,  // measure 77
0010
0100
0010
0000
0100
0010
0100
0000
,  // measure 78
2002
0000
0000
0000
,  // measure 79
3003
0000
0000
0000
;
