#TITLE:SAtAN;
#SUBTITLE:;
#ARTIST:P*Light;
#TITLETRANSLIT:;
#SUBTITLETRANSLIT:;
#ARTISTTRANSLIT:;
#GENRE:;
#CREDIT:;
#BANNER:SAtAN.png;
#BACKGROUND:SAtAN-bg.png;
#LYRICSPATH:;
#CDTITLE:;
#MUSIC:SAtAN.ogg;
#OFFSET:0.229000;
#SAMPLESTART:13.370999;
#SAMPLELENGTH:12.633332;
#SELECTABLE:YES;
#DISPLAYBPM:75.000000:300.000000;
#BPMS:0.000000=300.000000
,232.000000=37.500000
,232.500000=75.000000
,248.000000=150.000000
,277.000000=50.000000
,278.000000=300.000000
,390.000000=37.500000
,390.500000=150.000000
;
#STOPS:60.000000=1.400000,
91.000000=0.200000,
109.500000=0.400000,
111.500000=0.400000,
118.000000=0.200000,
148.500000=0.400000,
176.500000=0.800000,
207.000000=0.200000,
225.500000=0.400000,
227.500000=0.400000,
304.500000=0.100000,
305.500000=0.110000,
306.500000=0.100000,
307.500000=0.100000,
327.500000=0.400000,
329.500000=0.400000,
330.500000=0.100000,
331.500000=0.100000,
332.500000=0.100000,
333.500000=0.100000,
360.500000=0.100000,
361.500000=0.100000,
362.500000=0.100000,
363.500000=0.100000,
364.000000=0.200000,
371.000000=0.200000,
376.500000=0.200000,
377.500000=0.200000
;
#BGCHANGES:;
#KEYSOUNDS:;
#ATTACKS:;

//---------------dance-single - ----------------
#NOTES:
     dance-single:
     :
     Hard:
     17:
     0.861168,1.330943,0.117052,0.192300,0.188119,721.000000,707.000000,14.000000,23.000000,0.000000,0.000000,0.861168,1.330943,0.117052,0.192300,0.188119,721.000000,707.000000,14.000000,23.000000,0.000000,0.000000:
0000
0000
0000
0000
,
0000
0000
0000
0000
,
0000
0000
0000
0000
,
0000
0000
0000
0000
,
0000
0000
0000
0000
,
0000
0000
0000
0000
,
0000
0000
0000
0000
,
0000
0000
0000
0000
,
0000
0000
0000
0000
,
1000
0000
0010
0000
0100
0000
0001
0100
,
0001
0000
1000
0000
0010
0000
1000
0100
,
1000
0000
0001
0000
0100
0000
0010
1000
,
0100
1000
0010
1000
0100
0000
1000
0000
,
1000
0100
1000
0100
0010
0001
0010
0001
,
1000
0100
0010
0001
0010
0100
0010
0001
,
1000
0001
1000
0001
,
1000
0010
1000
0000
0001
0000
1000
0000
,
0001
0010
0001
0000
1000
0100
1000
0000
,
0001
0100
0010
0100
0001
0100
0010
0000
,
1000
0100
0010
0000
1000
0000
0001
0000
,
0100
0010
1000
0000
0001
0000
0100
0000
,
0010
1000
0001
0001
0000
1000
1000
0000
,
0010
0010
0000
0100
0100
0000
1001
0000
,
0010
1000
0010
0000
0100
0000
0001
0100
,
0010
0100
0001
0000
1000
0000
0001
0010
,
1000
0010
0001
0000
1000
0000
0001
0010
,
0100
1000
0100
0010
0001
0000
1000
0000
,
0001
0100
0001
2000
3010
0100
0001
2000
,
3010
0010
0000
1000
1000
0000
0001
0001
,
0000
0100
0100
0000
1001
0000
0010
0001
,
0010
0001
1000
0100
0010
0001
1000
0100
,
1000
0100
1000
0010
0100
0001
0100
0010
,
0100
0010
1000
0100
0010
0001
1000
0010
,
1000
0001
1000
0100
1000
0001
1000
0100
,
0010
0100
1000
0100
0001
0100
1000
0100
,
0010
0100
1000
0010
0100
0001
1000
0010
,
0000
0100
0001
0000
1000
0010
0100
0001
,
0100
0010
0100
0001
1000
0010
0100
0001
,
0100
0001
1000
0100
0010
0001
1000
0100
,
0010
0001
0100
0010
0100
0010
1000
0001
,
0100
0010
1000
0100
1000
0100
0010
0001
,
0010
0100
1000
0100
1000
0100
0010
0001
,
0010
0001
1000
0010
0100
0001
1000
0010
,
0100
0010
1000
0010
0001
0010
1000
0001
,
0100
0010
1000
0100
1000
0000
0001
0000
,
1000
0010
0100
0010
1000
0000
0001
0000
,
1000
0100
0001
0100
1000
0000
0010
0000
,
1000
0010
0010
1000
0001
1000
0100
0000
,
1000
0000
0001
0100
0001
1000
0001
0010
,
0001
1000
0001
0100
0010
1000
0100
0010
,
0001
1000
0001
0001
0000
1000
1000
0000
,
0010
0010
0000
0100
0100
0000
1001
0000
,
0010
1000
0001
1000
0100
1000
0010
0100
,
0001
0010
0001
1000
0001
0010
0001
1000
,
0100
0010
0001
0010
0100
1000
0001
0100
,
0100
0001
0001
1000
0010
0100
0001
1000
,
0010
1000
0001
0200
0310
1000
0001
2000
,
3010
0100
0001
1000
0010
0100
0001
1000
,
0002
0000
1003
0000
0000
0010
1000
0100
0010
0001
1000
0000
0000
0010
1000
0001
,
1000
0100
1000
0000
0000
1000
0001
0100
0010
0100
0001
0001
0002
0000
1003
0010
,
2000
0000
0000
0000
3010
0000
0000
0000
0000
0000
0010
0000
1000
0000
1000
0000
0001
0000
0100
0010
0100
0000
0000
0000
0000
0000
0001
0000
1000
0000
0100
0000
,
0010
0000
0001
0000
1000
0000
0000
0000
0000
0000
0001
0000
1000
0000
0010
0000
1000
0000
0100
1000
0100
0000
1000
0000
0002
0000
0000
0000
0103
0000
0010
0000
,
0200
0000
0310
1000
0010
1000
0001
0100
,
0001
0000
0100
0000
0010
0000
1000
0000
0010
0000
1000
0001
0000
0001
1000
0000
,
0010
0100
0001
0010
0100
1000
0001
0010
,
0100
0000
1000
0001
1000
0000
0010
0000
1000
0000
0100
1000
0000
1000
0010
0000
,
0100
0000
0001
0000
1000
0000
1001
0000
1001
0000
1000
0010
0100
0010
1000
0000
,
0101
0000
1000
0010
0100
0000
0100
0000
0101
0000
1000
0001
0100
0001
0010
0001
,
1000
0000
1001
0000
0001
0100
0010
0100
0001
1000
0010
1000
0100
1000
0010
0100
,
0001
0100
0010
1000
0002
0000
0000
0000
0003
0000
0000
0000
0000
0000
0000
0000
,
1000
0001
1000
0010
1000
0100
1000
0010
,
0100
0001
0010
0001
0100
0001
0010
0001
,
1000
0100
0010
0001
1000
0010
0100
0002
,
0000
1003
0010
1000
0001
0000
1001
0000
,
0001
0100
0010
0100
0001
1000
0100
0010
,
0001
1000
0100
1000
0010
0100
0001
0010
,
0001
0001
1000
1000
0010
0010
0100
0100
,
2002
0000
3003
0000
0010
1000
0010
1000
,
0001
0100
0001
0100
0010
1000
0100
0010
,
0001
0010
0100
1000
0010
0100
0010
1000
,
0001
0100
0010
2000
0000
3001
0010
0001
,
1000
0100
2000
0000
3001
0010
0100
1000
,
1000
0100
0010
0001
1000
1000
0001
0001
,
1000
0100
0010
0001
2002
0000
0000
3003
,
0010
1000
0010
0100
0001
0100
0010
1000
,
0010
0100
0001
0100
0010
0100
0001
0100
,
0010
1000
0001
0100
0010
1000
0010
0100
,
0001
1000
0100
0010
0001
0000
1001
0000
,
0010
1000
0100
1000
0010
0001
0010
1000
,
0100
0010
0001
0010
0100
1000
0001
1000
,
0010
0010
1000
1000
0001
0001
1000
1000
,
1001
0000
0001
0010
0100
1000
0100
0010
,
0001
0010
0100
1000
0100
0010
0001
0000
,
0001
0010
1000
0010
0001
0100
1000
0100
,
0001
0010
0100
1000
0001
0100
0001
0100
,
0010
1000
0010
1000
0001
0010
0100
1000
,
0001
0010
0100
1000
0010
1000
0010
0100
,
0001
0100
0010
1000
0002
1003
0000
0000
,
1000
0000
0010
0000
0100
0000
0001
0000
1000
0001
1000
0000
0000
0000
0000
0000
,
1000
0010
0100
0002
0000
1003
0000
0000
,
1000
0000
0001
0000
0010
0000
0100
0000
0010
0001
0010
0000
0001
0000
0200
0000
,
0000
0310
1000
0020
0000
0130
0000
0000
,
0100
0001
0000
1000
0000
0001
0000
0000
,
0001
1000
0010
0100
0000
0001
0000
0000
,
0001
1000
0000
0010
0000
1000
0100
0010
,
0000
0100
0010
2002
0000
0000
0000
0000
,
0000
3003
0000
0000
0000
0000
0000
0000
;

//---------------dance-double - ----------------
#NOTES:
     dance-double:
     :
     Hard:
     17:
     0.827725,1.286579,0.150495,0.117052,0.142135,693.000000,675.000000,18.000000,14.000000,0.000000,0.000000,0.827725,1.286579,0.150495,0.117052,0.142135,693.000000,675.000000,18.000000,14.000000,0.000000,0.000000:
00000000
00000000
00000000
00000000
,
00000000
00000000
00000000
00000000
,
00000000
00000000
00000000
00000000
,
00000000
00000000
00000000
00000000
,
00000000
00000000
00000000
00000000
,
00000000
00000000
00000000
00000000
,
00000000
00000000
00000000
00000000
,
00000000
00000000
00000000
00000000
,
00000000
00000000
00000000
00000000
,
10000000
00010000
00100000
00001000
,
00010000
00000100
00001000
00000001
,
00001000
00000100
00010000
00001000
,
01000000
00100000
10000000
00010000
,
00100000
00010000
00100000
00010000
00100000
00010000
00100000
00010000
,
10000000
01000000
10000000
01000000
10000000
01000000
10000000
01000000
,
10000000
00000000
00001000
00100000
00001000
00010000
00001000
00010000
,
00000100
00001000
00000000
00000001
00000100
00000010
00001000
00000010
,
00000100
00000000
00000010
00001000
00000100
00001000
00000010
00001000
,
00000100
00010000
00000000
00010000
00001000
00100000
00001000
00000000
,
00100000
00000000
00010000
10000000
00100000
10000000
01000000
10000000
,
00100000
01000000
00010000
00100000
00010000
10000000
00010000
00100000
,
00010000
01000000
00010000
00010000
00000000
00100000
00100000
00000000
,
00001000
00001000
00000000
00010000
00010000
00000000
00011000
00000000
,
00010000
00000010
00010000
00000100
00010000
00001000
00010000
00000100
,
00000000
00010000
00000100
00010000
00001000
00000000
00010000
00000000
,
00000100
00001000
00000010
00001000
00000001
00001000
00000100
00001000
,
00000000
00000100
00010000
00000100
00010000
00000000
00001000
00000000
,
00100000
00010000
01000000
00020000
10030000
00100000
01000000
00200000
,
10300000
10000000
00000000
00010000
00010000
00000000
00100000
00100000
,
00000000
00001000
00001000
00000000
00011000
00000000
00010000
00000000
,
00000100
00000000
00000010
00000000
00000001
00000010
00001000
00000000
,
00000100
00000000
00010000
00000000
00001000
00100000
00010000
00000000
,
01000000
00000000
00100000
00000000
10000000
01000000
00010000
00000000
,
00100000
00001000
00010000
00000010
,
00001000
00000000
00000001
00000000
00001000
00000100
00000001
00000000
,
00001000
00000000
00000100
00000000
00010000
00000000
00001000
00010000
,
00000000
00001000
00100000
00000000
00010000
01000000
00000000
00100000
,
10000000
00000000
01010000
00000000
10100000
00000000
00010000
00100000
,
01000000
10000000
00100000
00000000
10000000
00000000
00100000
00001000
,
00010000
00001000
00100000
00000000
00001000
00000000
00010000
00000100
,
00001000
00000100
00001000
00000100
00000010
00000001
00001000
00000100
,
00000010
00000100
00001000
00000000
00000100
00000000
00010000
00001000
,
00010000
00001000
00100000
00000000
00010000
00000000
01000000
00100000
,
10000000
00010000
10000000
01000000
00100000
00010000
10000000
00100000
,
01000000
00010000
00001000
00010000
00000100
00010000
00001000
00010000
,
00000100
00010000
00001000
00100000
00001000
00010000
00001000
00100000
,
00001000
00010000
00001000
00100000
00010000
01000000
00100000
10000000
,
00010000
00100000
00000000
00100000
00010000
01000000
00100000
00000000
,
10010000
00000000
10000000
00100000
01000000
00010000
01000000
00100000
,
10000000
00100000
01000000
00010000
01000000
00001000
01000000
00001000
,
00010000
00001000
00010000
00000100
00000000
00000100
00001000
00000000
,
00001000
00000010
00000000
00000010
00000100
00000000
00001001
00000000
,
00000001
00000010
00000001
00000100
00000001
00001000
00000010
00001000
,
00000100
00010000
00000100
00001000
00000100
00010000
00001000
00100000
,
00010000
01000000
10000000
01000000
00010000
00100000
00001000
00010000
,
00000000
00010000
00001000
00010000
00000100
00000000
00001100
00000000
,
00000001
00000010
00000100
00001000
00010000
00100000
01000000
10000000
,
10000000
01000000
00100000
00010000
10000000
01000000
00100000
00010000
,
20000000
00000000
30010000
00000000
00000000
00010000
00100000
00001000
00010000
00000100
00001000
00000000
00000000
00000001
00001000
00000100
,
00010000
00001000
01000000
00000000
00000000
00010000
10000000
01000000
10000000
00100000
01000000
00001000
00020000
00000000
00030100
00001000
,
00000020
00000000
00000130
00000000
00000000
00000001
00001000
00000100
00010000
00001000
01000000
00000000
00000000
00010000
10000000
00100000
,
01000000
00010000
00100000
00000000
00000000
00100000
00001000
00010000
00000010
00001000
00000100
00000010
00000001
00000000
00001000
00000000
,
00000200
00000000
00010300
00001000
00010000
00001000
00010000
00001000
,
00010000
00000000
00001000
00100000
00010000
00100000
00001000
00100000
,
00010000
00000000
00010000
01000000
10000000
01000000
00010000
01000000
,
10000000
00000000
00100000
10000000
01000000
00100000
00010000
01000000
,
00100000
00000000
00000000
00000000
10000000
00000000
10010000
00000000
10010000
00000000
00100000
00010000
01000000
00010000
00100000
00000000
,
00010000
00000000
00100000
00001000
00010000
00000000
00001000
00000000
00011000
00000000
00010000
00000100
00001000
00000010
00000100
00000000
,
00001001
00000000
00000010
00000000
00001000
00000100
00000010
00000001
00001000
00000100
00001000
00000100
00010000
00001000
00010000
00001000
,
00100000
00010000
01000000
00100000
10000000
00000000
00000000
00000000
10010000
00000000
00000000
00000000
00000000
00000000
00000000
00000000
,
10000000
00100000
10000000
00100000
01000000
00010000
01000000
00010000
,
10000000
01000000
00100000
00010000
01000000
00010000
01000000
00010000
,
01000000
00001000
01000000
00001000
00010000
00001000
00010000
00000200
,
00000000
00001300
00000100
00000010
00000001
00000000
00001001
00000000
,
00000001
00000010
00000001
00000010
00000100
00001000
00000100
00001000
,
00000010
00001000
00000100
00001000
00000100
00010000
00000100
00010000
,
00001000
00001000
00100000
00100000
00010000
00010000
01000000
01000000
,
10010000
00000000
00000000
00000000
00100000
10000000
01000000
10000000
,
00100000
10000000
01000000
10000000
00100000
01000000
00010000
00100000
,
00010000
01000000
00010000
00100000
00001000
00010000
00001000
00100000
,
00001000
00010000
00000100
00001000
00000000
00000001
00001000
00000010
,
00000100
00000000
00001001
00000000
00000001
00000010
00000100
00001000
,
00010000
00100000
01000000
10000000
00010000
00100000
00001000
00010000
,
00000100
00001000
00000010
00000100
00002002
00000000
00003003
00000000
,
00000001
00000100
00000001
00000010
00000001
00000100
00001000
00000100
,
00000001
00000010
00000001
00000100
00000001
00000010
00000100
00001000
,
00000010
00001000
00000100
00001000
00000010
00001000
00000100
00010000
,
00000100
00010000
00001000
00010000
00001000
00100000
00010000
01000000
,
00100000
10000000
00100000
01000000
00100000
10000000
00100000
00010000
,
00100000
10000000
00100000
01000000
00010000
01000000
00100000
10000000
,
00010000
00100000
00001000
00010000
00000010
00000100
00000001
00001000
,
00001100
00000000
00000100
00010000
00001000
00100000
00010000
00100000
,
00001000
00010000
00001000
00100000
00010000
01000000
00100000
00000000
,
10000000
00100000
01000000
00010000
00100000
00001000
00010000
00000100
,
00001000
00000001
00010000
00001000
10000000
01000000
00100000
00010000
,
00001000
00000100
00000010
00000001
00000100
00000010
00001000
00000100
,
00010000
00001000
01000000
00100000
10000000
00100000
01000000
00010000
,
00100000
00001000
00010000
00000100
00002000
00003010
00000000
00000000
,
00000100
00000001
00001000
00000100
00010000
00001000
00000000
00000000
,
00001000
00100000
00010000
01000000
00000000
00100000
00000000
00000000
,
00100000
10000000
00100000
01000000
00001000
01000000
00010000
00200000
,
00000000
00301000
00010000
00000200
00000000
00001300
00000000
00000000
,
00001000
00000001
00000100
00000010
00001000
00000100
00000000
00000000
,
00000100
00010000
00001000
01000000
00000000
00010000
00000000
00000000
,
00010000
10000000
00100000
01000000
00010000
00100000
00000000
00001000
,
00000000
00010000
00000000
00022000
00000000
00000000
00000000
00000000
,
00000000
00033000
00000000
00000000
00000000
00000000
00000000
00000000
;

//---------------dance-single - ----------------
#NOTES:
     dance-single:
     :
     Beginner:
     8:
     0.304574,0.488013,0.016722,0.033443,0.000000,255.000000,253.000000,2.000000,4.000000,0.000000,0.000000,0.304574,0.488013,0.016722,0.033443,0.000000,255.000000,253.000000,2.000000,4.000000,0.000000,0.000000:
0000
0000
0000
0000
,
0000
0000
0000
0000
,
0000
0000
0000
0000
,
0000
0000
0000
0000
,
0000
0000
0000
0000
,
0000
0000
0000
0000
,
0000
0000
0000
0000
,
0000
0000
0000
0000
,
0000
0000
0000
0000
,
0001
0000
0001
0000
,
1000
0000
1000
0000
,
0010
0000
0010
0000
,
0100
0000
0100
0000
,
0001
1000
0001
1000
,
0001
1000
0001
1000
,
0000
0010
0000
1000
,
0010
1000
0000
0001
,
0100
0001
0000
1000
,
0000
0001
0100
0001
,
0000
1000
0000
0010
,
0100
0010
0000
1000
,
0000
0000
0001
0000
0000
0001
0000
0000
,
0001
0000
0000
0001
0000
0000
0000
0000
,
0000
0000
1000
0010
,
1000
0000
0100
0000
,
1000
0000
0001
0100
,
0001
0000
1000
0010
,
1000
0000
0001
0000
,
1000
0000
0000
0010
0000
0000
0100
0000
,
0000
0001
0000
0000
1001
0000
0000
0000
,
0000
0010
0000
1000
,
0100
1000
0000
0001
,
0100
0001
0000
1000
,
0001
1000
0000
0010
,
0000
0100
0000
0001
,
0100
0001
0000
1000
,
0100
1000
0000
0010
,
0000
0001
0000
1000
,
0000
0001
0100
0001
,
0000
1000
0000
0010
,
0000
1000
0100
1000
,
0000
0001
0100
0001
,
0000
1000
0001
1000
,
0000
0010
0100
0001
,
1000
0010
0000
0010
,
0000
1000
0000
1000
,
0000
0100
0000
0100
,
0000
0001
0100
1000
,
0000
0010
0000
0010
,
0000
0001
0000
0001
,
0000
0000
1000
0000
0000
1000
0000
0000
,
1000
0000
0000
1000
0000
0000
0000
0000
,
0010
0000
0010
0000
,
0100
0001
1000
0000
,
0010
0000
0010
0000
,
0100
1000
0001
0000
,
0100
0100
0010
0010
,
1000
0000
0100
0000
,
0000
0001
0000
0000
0000
1000
0000
0000
,
0000
0001
0000
0000
0000
1000
0000
1000
,
0000
1000
0000
0000
0000
0001
0000
0000
,
0000
1000
0000
0000
0000
0001
0000
1000
,
0000
0010
0000
0000
,
0000
0000
0000
0000
,
0000
1001
0000
0000
,
0000
0100
0000
0100
,
0000
0000
0001
0000
0001
0000
0000
1000
,
0001
0000
1000
0000
1000
0000
0000
0001
,
1000
0000
0010
0100
0010
0000
0100
0010
,
0100
0000
0000
0000
,
0001
0000
1000
0000
,
0001
0000
1000
0000
,
0001
1000
0001
1000
,
0001
0000
1000
0000
,
0010
0000
0100
0000
,
0010
0000
0100
0000
,
0010
0010
0010
0010
,
0000
0000
0001
0000
,
1000
0000
0001
0000
,
1000
0000
0001
0000
,
1000
0000
0010
0100
,
0010
0000
0000
0000
2000
0000
0000
3000
,
0002
0000
0000
0003
0100
0000
0100
0000
,
0100
0100
0000
0000
,
0001
1000
0001
1000
,
0010
0100
0010
0000
,
1000
0001
1000
0001
,
0100
0010
0100
0000
,
0001
0001
1000
0000
,
1000
1000
0001
0000
,
0010
0010
0010
0010
,
0000
0001
1000
0001
,
1000
0001
1000
0000
,
1000
0001
1000
0000
,
0100
0100
0001
1000
,
0010
0000
1000
0001
,
0010
0000
0001
1000
,
0001
0000
1000
0000
0000
0010
0000
0000
,
0000
1000
0000
0100
0000
0010
0000
0000
,
0000
0001
0000
0100
0000
0010
0000
0000
,
0000
1000
0000
0000
0000
0001
0000
0000
,
0000
1000
0000
0000
0000
0010
0000
0000
,
0000
1000
0000
1000
0000
1000
0000
0000
,
0000
0001
0000
0001
0000
0001
0000
0000
,
0000
0100
0000
0000
0000
0010
0000
1000
,
0000
0002
0000
2000
0000
0000
0000
0000
,
0000
3003
0000
0000
0000
0000
0000
0000
;

//---------------dance-single - ----------------
#NOTES:
     dance-single:
     :
     Easy:
     10:
     0.433570,0.709837,0.058526,0.058526,0.000000,363.000000,356.000000,7.000000,7.000000,0.000000,0.000000,0.433570,0.709837,0.058526,0.058526,0.000000,363.000000,356.000000,7.000000,7.000000,0.000000,0.000000:
0000
0000
0000
0000
,
0000
0000
0000
0000
,
0000
0000
0000
0000
,
0000
0000
0000
0000
,
0000
0000
0000
0000
,
0000
0000
0000
0000
,
0000
0000
0000
0000
,
0000
0000
0000
0000
,
0000
0000
0000
0000
,
0001
0100
0001
0000
,
1000
0100
1000
0000
,
0010
0100
0010
0100
,
0010
0100
0010
0000
,
1000
0100
0010
0001
,
1000
0100
0010
0001
,
0000
0010
1000
0010
,
0000
0001
0100
0001
,
0000
1000
0100
0010
,
0001
0100
0010
0100
,
0000
0001
0100
0001
,
0000
1000
0100
1000
,
0000
0000
0001
0000
0000
1000
0000
0000
,
0010
0000
0000
0100
0000
0000
1001
0000
,
0000
0000
0010
0000
,
1000
0001
1000
0000
,
0001
0100
0010
1000
,
0010
0010
0010
0000
,
1000
0000
0001
0000
,
1000
0000
0000
0001
0000
0000
0100
0000
,
0000
0010
0000
0000
1001
0000
0001
0000
,
0100
0001
1000
0100
,
1000
0001
0100
0001
,
0010
0100
1000
0001
,
0010
0100
1000
0010
,
0100
0010
1000
0001
,
1000
0010
0100
0001
,
1000
0100
0010
0001
,
1000
0001
0100
0001
,
0100
0010
1000
0010
,
1000
0001
0100
0010
,
1000
0001
0100
0010
,
1000
0001
0100
0001
,
0100
0001
1000
0010
,
1000
0000
0001
1000
0001
1000
0001
1000
,
0001
1000
0010
0000
0100
0000
0010
0000
,
1000
0010
0100
0010
,
1000
0001
0100
0001
,
0010
0001
0100
0001
,
0010
0001
1000
0100
,
0010
0001
0010
0100
,
1000
0000
0001
0000
0000
1000
0000
0000
,
0010
0000
0000
0100
0000
0000
1001
0000
,
0010
1000
0001
1000
,
0010
1000
0100
0010
,
0001
1000
0100
1000
,
0010
0100
0001
0000
,
1000
0000
0001
0000
,
1000
0001
1000
0001
1000
0001
1000
0001
,
0000
0100
0000
0010
1000
0001
0000
0100
,
0001
1000
0000
0001
0010
0100
1000
0100
,
0010
0001
0000
1000
0101
1000
0000
0001
,
1010
0001
0000
0100
0010
2000
0000
3002
,
0000
0103
0000
0000
,
0000
0010
0000
1000
,
0000
0001
0000
1000
,
0000
0010
0000
0100
,
0000
0000
0001
0100
0001
0000
1000
0100
,
1000
0000
0001
0010
0001
0000
1000
0010
,
1000
0000
0001
0010
0100
1000
0001
0100
,
0010
1000
0000
0000
0000
0000
0000
0000
,
0001
1000
0001
1000
,
0010
0100
0010
0100
,
0001
0000
1000
0000
0001
0000
1000
0001
,
0000
1000
0100
0000
,
0001
0010
0001
1000
,
0001
1000
0001
0000
,
0010
0010
0010
0010
,
0000
0000
0100
1000
,
0001
1000
0100
1000
,
0010
1000
0100
0010
,
0001
0010
0100
0010
,
1000
0001
1000
0010
,
0100
0001
0010
0010
,
0010
0010
0000
0000
,
0001
0010
0100
1000
,
0002
0003
1000
0100
,
0010
0001
0010
0100
,
2000
3000
0010
0100
,
0001
1000
0010
0100
,
0001
1000
0100
0010
,
0001
0001
0001
0001
,
1001
0010
1000
0100
,
1000
0010
0100
0001
,
0010
1000
0010
0001
,
0100
0010
0100
0001
,
1000
0001
0100
0010
,
1000
0001
1000
0100
,
0010
0000
0001
0000
2000
3001
0000
0000
,
0001
0000
0000
0000
0000
1000
0000
0000
,
1000
0000
0000
0000
0000
0001
0000
0000
,
0001
0000
0000
0000
0000
1000
0000
0010
,
0000
0100
0000
0001
0000
1000
0000
0000
,
1000
0000
0000
0100
0000
0001
0000
0000
,
0001
0000
0000
0100
0000
1000
0000
0000
,
1000
0000
0000
0010
0000
0001
0000
0100
,
0000
0010
0000
2002
0000
0000
0000
0000
,
0000
3003
0000
0000
0000
0000
0000
0000
;

//---------------dance-double - ----------------
#NOTES:
     dance-double:
     :
     Easy:
     10:
     0.424015,0.665472,0.041804,0.016722,0.000000,355.000000,350.000000,5.000000,2.000000,0.000000,0.000000,0.424015,0.665472,0.041804,0.016722,0.000000,355.000000,350.000000,5.000000,2.000000,0.000000,0.000000:
00000000
00000000
00000000
00000000
,
00000000
00000000
00000000
00000000
,
00000000
00000000
00000000
00000000
,
00000000
00000000
00000000
00000000
,
00000000
00000000
00000000
00000000
,
00000000
00000000
00000000
00000000
,
00000000
00000000
00000000
00000000
,
00000000
00000000
00000000
00000000
,
00000000
00000000
00000000
00000000
,
00100000
00000000
00010000
00000000
,
00001000
00000000
00000100
00000000
,
00000001
00001000
00000001
00001000
,
00000001
00001000
00000001
00000000
,
00001000
00000000
00010000
00000000
,
00100000
00000000
01000000
00000000
,
00000000
00010000
10000000
00010000
,
00000000
00100000
00010000
00100000
,
00000000
00001000
00010000
00000100
,
00010000
00001000
00010000
00001000
,
00000000
00010000
00000010
00001000
,
00000000
00000001
00001000
00000100
,
00000000
00000000
00010000
00000000
00000000
00010000
00000000
00000000
,
00001000
00000000
00000000
00001000
00000000
00000000
00000000
00000000
,
00100000
00010000
01000000
00000000
,
00100000
10000000
01000000
00000000
,
10000000
00010000
00100000
00010000
,
10000000
00010000
00100000
00000000
,
00001000
00010000
00000100
00001000
,
00000010
00000000
00000000
00000010
00000000
00000000
00001000
00000000
,
00000000
00001000
00000000
00000000
00000001
00000000
00001000
00000000
,
00000000
00000100
00000000
00010000
,
00001000
00010000
00000000
00001000
,
00100000
00010000
00100000
00001000
,
00100000
00010000
00100000
00010000
,
01000000
00100000
10000000
00010000
,
01000000
00100000
10000000
00100000
,
01000000
00010000
00100000
00001000
,
00010000
00000100
00001000
00000010
,
00001000
00000100
00001000
00000001
,
00000000
00001000
00000010
00001000
,
00000100
00001000
00000010
00001000
,
00000000
00000001
00001000
00000100
,
00000000
00000100
00010000
00001000
,
00000000
00001000
00100000
00010000
,
01000000
00100000
10000000
00100000
,
10000000
00010000
01000000
00010000
,
01000000
00100000
10000000
00010000
,
01000000
00100000
00100000
00100000
,
00000000
10000000
00010000
00100000
,
00000000
00001000
00010000
00000010
,
00000000
00000000
00001000
00000000
00000000
00000001
00000000
00000000
,
00000100
00000000
00000000
00000010
00000000
00000000
00001001
00000000
,
00000010
00001000
00000100
00000000
,
00000100
00010000
00001000
00000000
,
00001000
00100000
00010000
01000000
,
00010000
00100000
00010000
00000000
,
10000000
00010000
10000000
00010000
,
00100000
00001000
00010000
00000100
,
00001000
00000001
00000000
00000010
00001000
00000100
00000000
00010000
,
00001000
01000000
00000000
00010000
10000000
00010000
00100000
00001000
,
00010000
00000010
00000000
00001000
00000100
00000001
00000000
00001000
,
00000100
00010000
00000000
00001000
00100000
00010000
01000000
00100000
,
00000000
01000000
00000000
00000000
,
00000000
00000000
00000000
00000000
,
00000000
10000000
00010000
10000000
,
00010000
01000000
00100000
01000000
,
00100000
00000000
10000000
00010000
10000000
00000000
00010000
00100000
,
00010000
00000000
00100000
00001000
00010000
00000000
00010000
00000010
,
00001000
00000000
00000001
00000100
00000010
00001000
00000100
00010000
,
00001000
00100000
00010000
00000000
00000000
00000000
00000000
00000000
,
10000000
00010000
10000000
00010000
,
10000000
00010000
10000000
00010000
,
00100000
00000000
00001000
00000000
00100000
00000000
00001000
00010000
,
00000000
00010000
00000100
00000000
,
00001000
00000001
00001000
00000010
,
00001000
00000100
00001000
00000010
,
00000100
00000100
00000100
00000100
,
00001001
00000000
00000010
00001000
,
00000100
00010000
00000100
00010000
,
00001000
00010000
00001000
00100000
,
00010000
00000000
00100000
00010000
00000000
00000000
01000000
00000000
,
00100000
10000000
01000000
00100000
,
00010000
10000000
00100000
00100000
,
00100000
00100000
10010000
00000000
,
00100000
10000000
00100000
10000000
,
00010000
00100000
00010000
00100000
,
00001000
00010000
00000100
00001000
,
00000001
00001000
00000100
00001000
,
00000010
00001000
00000100
00010000
,
00001000
00100000
00010000
00000000
,
01000000
01000000
01000000
01000000
,
10010000
00100000
10000000
00010000
,
00100000
00001000
00010000
00000000
,
00000010
00001000
00000001
00000100
,
00000010
00001000
00000100
00010000
,
00001000
00100000
00010000
01000000
,
00100000
00000000
10000000
00000000
00010000
01000000
00010000
01000000
,
00010000
01000000
00010000
01000000
00010000
10000000
00000000
00000000
,
10000000
00000000
00000000
00010000
00000000
00100000
00000000
00000000
,
00100000
00000000
00000000
00001000
00000000
00010000
00000000
00000000
,
00010000
00000000
00000000
00010000
00000000
00000010
00000000
00001000
,
00000000
00000001
00000000
00001000
00000000
00000100
00000000
00000000
,
00000100
00000000
00000000
00010000
00000000
00001000
00000000
00000000
,
00001000
00000000
00000000
00100000
00000000
00010000
00000000
00000000
,
00010000
00000000
00000000
01000000
00000000
00100000
00000000
10000000
,
00000000
00010000
00000000
20020000
00000000
00000000
00000000
00000000
,
00000000
30030000
00000000
00000000
00000000
00000000
00000000
00000000
;

//---------------dance-double - ----------------
#NOTES:
     dance-double:
     :
     Medium:
     15:
     0.656924,0.976025,0.050165,0.183939,0.087789,550.000000,544.000000,6.000000,22.000000,0.000000,0.000000,0.656924,0.976025,0.050165,0.183939,0.087789,550.000000,544.000000,6.000000,22.000000,0.000000,0.000000:
00000000
00000000
00000000
00000000
,
00000000
00000000
00000000
00000000
,
00000000
00000000
00000000
00000000
,
00000000
00000000
00000000
00000000
,
00000000
00000000
00000000
00000000
,
00000000
00000000
00000000
00000000
,
00000000
00000000
00000000
00000000
,
00000000
00000000
00000000
00000000
,
00000000
00000000
00000000
00000000
,
00100000
00000000
00001000
00000000
00010000
00000000
00000100
00001000
,
00000100
00000000
00001000
00000000
00000001
00000000
00000100
00000001
,
00000100
00000000
00000001
00000000
00001000
00000000
00000100
00001000
,
00000100
00010000
00001000
00100000
,
00010000
01000000
00010000
00000000
10000000
00100000
10000000
00000000
,
00010000
01000000
00010000
00000000
00100000
00010000
00100000
00000000
,
00011000
00010000
00000100
00001000
,
00000010
00001000
00000010
00000000
00001000
00000000
00000001
00000000
,
00001000
00000100
00010000
00000100
,
00010000
00000100
00000000
00000100
00010000
00000000
00001000
00000000
,
00100000
00010000
01000000
00100000
,
10000000
00010000
10000000
00000000
00010000
00000000
00100000
00000000
,
00001000
00000000
00010000
00001000
00000000
00010000
00001000
00000000
,
00010000
00001000
00000000
00010000
00001000
00000000
00000000
00000000
,
00100000
00000000
00010000
00000000
01000000
00000000
00100000
10000000
,
00100000
01000000
00010000
00100000
,
00001000
00000000
00010000
00000000
00000100
00000000
00001000
00000010
,
00000000
00000010
00001000
00000000
00000001
00000000
00000100
00000000
,
00000010
00001000
00000100
00010000
,
00100000
00010000
00000000
00100000
00010000
00000000
10000000
01000000
,
00000000
10000000
01000000
00000000
00000000
00000000
00010000
00000000
,
10000000
00000000
00010000
00000000
00100000
00010000
00100000
00000000
,
00001000
00010000
00000100
00001000
,
00000001
00000000
00001000
00000000
00000010
00001000
00000010
00000000
,
00001000
00000100
00010000
00001000
,
00100000
00000000
00010000
00000000
01000000
00010000
01000000
00000000
,
00010000
00000000
00100000
00000000
00001000
00000000
00001000
00010000
,
00000000
00010000
00001000
00000000
00001000
01000000
00000000
01000000
,
00100000
00010000
01000000
10000000
,
00100000
10000000
00100000
00000000
10000000
00000000
01000000
00000000
,
00010000
00100000
00001000
00010000
,
00000100
00001000
00000100
00000000
00001000
00000000
00000010
00000000
,
00000100
00000000
00000001
00001000
00000001
00000000
00001000
00000100
,
00001000
00000000
00000010
00001000
00000010
00000000
00001000
00000001
,
00001000
00000100
00010000
00001000
,
00100000
00010000
10000000
00010000
,
00100000
00010000
00100000
00000000
00001000
00000000
00010000
00000000
,
00000010
00001000
00000010
00000000
00001000
00000000
00000001
00000000
,
00000100
00000001
00000000
00000001
00000100
00000000
00000010
00000000
,
00001000
00000100
00010000
00001000
,
00010000
00001000
00010000
00000000
00001000
00000000
00100000
00000000
,
00010000
00000000
01000000
00100000
00000000
10000000
00010000
00000000
,
01000000
00100000
00000000
10000000
00010000
00000000
00000000
00000000
,
10000000
01000000
00100000
00010000
,
00001000
00000000
00000100
00000000
00000010
00000000
00000001
00000010
,
00000100
00000000
00000010
00000000
00001000
00000000
00000100
00010000
,
00000000
00010000
00000100
00000000
00010000
00000000
00001000
00000000
,
00100000
00010000
00100000
00000000
10000000
01000000
10000000
00000000
,
00010000
10000000
00010000
10000000
00010000
10000000
00010000
10000000
,
00200000
00000000
01300000
00000000
00000000
00010000
00100000
01000000
10000000
00000000
00010000
00000000
00000000
00100000
00010000
00100000
,
00001000
00000000
00010000
00000000
00000000
00000100
00001000
00000001
00000100
00000000
00000001
00001000
00000100
00000000
00000100
00010000
,
00001000
00000000
00100000
00000000
00000000
00100000
00010000
01000000
10000000
00000000
01000000
00000000
00000000
01000000
00010000
00100000
,
00001000
00000000
00010000
00000000
00000000
00010000
00000100
00001000
00000010
00000000
00001000
00000000
00000001
00000000
00000100
00000000
,
00000010
00002002
00003003
00000200
,
00000300
00002000
00003200
00020300
,
00032000
00203000
00300000
00020000
,
00030000
20000000
32000000
03020000
,
00130000
00000000
00010000
10000000
00010000
00100000
00001000
00010000
,
00000100
00001000
00000001
00001000
00000100
00001000
00000010
00001000
,
00000100
00000000
00010000
00000000
00001000
00000000
00001000
00000000
00010000
00000000
00010000
00000000
00001000
00010000
00001000
00010000
,
00001000
00010000
00001000
00010000
00001000
00000000
00000000
00000000
00011000
00000000
00000000
00000000
00000000
00000000
00000000
00000000
,
00110000
00000000
00010000
01000000
00010000
00000000
10000000
00100000
,
10000000
00000000
00010000
01000000
00010000
00000000
00100000
00100000
,
00100000
00000000
00001000
00010000
00001000
00000000
00010000
00000100
,
00001000
00000100
00001000
00000100
00010000
00000000
00000010
00001000
,
00000010
00000000
00001000
00000001
00001000
00000000
00000100
00001000
,
00000100
00000000
00000010
00001000
00000010
00000000
00001000
00000000
,
00000100
00010000
00010000
00000100
00000100
00010000
00010000
00000100
,
00000000
00000000
00000000
00000000
00010000
00001000
00010000
00000000
,
00001000
00100000
00001000
00000000
00100000
00010000
01000000
00010000
,
00100000
00000000
00010000
00000000
10000000
01000000
10000000
00000000
,
00010000
10000000
00010000
00100000
00000000
00010000
00100000
00010000
,
00100000
00000000
00001000
00000000
00010000
00000100
00010000
00000100
,
00001000
00000001
00001000
00000001
00001000
00000100
00000100
00001000
,
00001000
00000100
00000100
00001000
00000000
00000000
00000000
00000000
,
00000100
00010000
00000100
00010000
00001000
00010000
00001000
00000000
,
00010000
00001000
00010000
00001000
00010000
00000100
00010000
00000000
,
00000100
00010000
00001000
00000000
00001000
00100000
00010000
00000000
,
01000000
00010000
01000000
00010000
10000000
00010000
10000000
00000000
,
00100000
10000000
00100000
00000000
01000000
00010000
01000000
00000000
,
00001000
00010000
00001000
00000000
00010000
00000100
00010000
00000000
,
00000100
00001000
00001000
00000100
00000100
00010000
00010000
00001000
,
00011000
00000000
00100000
00010000
00100000
00010000
10000000
01000000
,
10000000
01000000
00100000
00010000
00100000
00001000
00010000
00000000
,
00000100
00001000
00000010
00000100
00000001
00000100
00000010
00001000
,
00000100
00001000
00001000
00010000
00010000
00100000
01000000
10000000
,
00010000
10000000
00020000
00000000
01030000
00100000
20000000
00000000
,
30100000
01000000
00020000
00000000
00130000
00001000
00010000
00001000
,
00010000
00001000
00010000
00001000
02000000
03100000
00000000
00000000
,
00100000
00000000
10000000
00000000
00010000
00000000
10000000
00000000
00010000
10000000
00010000
00000000
00000000
00000000
00000000
00000000
,
00100000
00001000
00010000
00000100
00001000
00000001
00000000
00000000
,
00000001
00000000
00001000
00000000
00000100
00000000
00001000
00000000
00000010
00001000
00000010
00000000
00001000
00000000
00000200
00000000
,
00000000
00010300
00001000
00020000
00000000
00031000
00000000
00000000
,
00001000
00000000
00100000
00000000
00010000
00000000
01000000
00000000
00010000
10000000
00010000
00000000
00000000
00000000
00000000
00000000
,
10000000
00100000
01000000
00002000
00000000
00013000
00000000
00000000
,
00010000
00000100
00001000
00000010
00000000
00000001
00000100
00001000
,
00000000
00010000
00000000
00022000
00000000
00000000
00000000
00000000
,
00000000
00033000
00000000
00000000
00000000
00000000
00000000
00000000
;

//---------------dance-single - ----------------
#NOTES:
     dance-single:
     :
     Medium:
     15:
     0.660508,0.976025,0.066887,0.183939,0.091969,553.000000,545.000000,8.000000,22.000000,0.000000,0.000000,0.660508,0.976025,0.066887,0.183939,0.091969,553.000000,545.000000,8.000000,22.000000,0.000000,0.000000:
// measure 0
0000
0000
0000
0000
,  // measure 1
0000
0000
0000
0000
,  // measure 2
0000
0000
0000
0000
,  // measure 3
0000
0000
0000
0000
,  // measure 4
0000
0000
0000
0000
,  // measure 5
0000
0000
0000
0000
,  // measure 6
0000
0000
0000
0000
,  // measure 7
0000
0000
0000
0000
,  // measure 8
0000
0000
0000
0000
,  // measure 9
0010
0000
1000
0000
0001
0000
1000
0001
,  // measure 10
1000
0000
0010
0000
1000
0000
0001
0100
,  // measure 11
0001
0000
1000
0000
0010
0000
0100
0001
,  // measure 12
0100
0001
1000
0010
,  // measure 13
1000
0010
1000
0000
0001
0100
0001
0000
,  // measure 14
1000
0001
1000
0000
0001
0100
0001
0000
,  // measure 15
1001
0001
0100
0010
,  // measure 16
1000
0001
1000
0000
0010
0000
0100
0000
,  // measure 17
0001
1000
0001
1000
,  // measure 18
0001
0100
0000
0100
0001
0000
1000
0000
,  // measure 19
0010
0100
0001
0100
,  // measure 20
0010
1000
0010
0000
1000
0000
0001
0000
,  // measure 21
1000
0000
0001
1000
0000
0001
1000
0000
,  // measure 22
0001
1000
0000
0001
1000
0000
0000
0000
,  // measure 23
0010
0000
0001
0000
0100
0000
0010
1000
,  // measure 24
0010
0100
0001
0010
,  // measure 25
0001
0000
0100
0000
0010
0000
1000
0001
,  // measure 26
0000
0001
1000
0000
0010
0000
0100
0000
,  // measure 27
0001
1000
0001
0100
,  // measure 28
0010
0001
0000
0010
0001
0000
1000
0100
,  // measure 29
0000
1000
0100
0000
0000
0000
0001
0000
,  // measure 30
1000
0000
0001
0000
0010
0001
0010
0000
,  // measure 31
0001
0100
0010
1000
,  // measure 32
0001
0000
1000
0000
0001
0100
0001
0000
,  // measure 33
1000
0010
0000
0001
,  // measure 34
0100
0000
0001
0000
0100
0001
0100
0000
,  // measure 35
0001
0000
1000
0000
0001
0000
1000
0001
,  // measure 36
0000
0001
1000
0000
0010
0100
0000
0100
,  // measure 37
0010
0001
0100
1000
,  // measure 38
0010
1000
0010
0000
1000
0000
0100
0000
,  // measure 39
0001
0010
0001
0100
,  // measure 40
0010
1000
0010
0000
0100
0000
0001
0000
,  // measure 41
1000
0000
0010
1000
0010
0000
1000
0001
,  // measure 42
1000
0000
0001
0100
0001
0000
1000
0001
,  // measure 43
1000
0000
0010
0100
0010
0100
0010
0100
,  // measure 44
0010
0001
1000
0001
,  // measure 45
0100
0001
0100
0000
0001
0000
1000
0000
,  // measure 46
0010
0100
0010
0000
1000
0000
0001
0000
,  // measure 47
1000
0100
0000
0100
1000
0000
0010
0000
,  // measure 48
0100
0001
1000
0001
,  // measure 49
0100
0001
0100
0000
0010
0000
1000
0000
,  // measure 50
0001
0000
0100
0010
0000
1000
0001
0000
,  // measure 51
0100
0010
0000
1000
0001
0000
0000
0000
,  // measure 52
1000
0100
0010
0001
,  // measure 53
0001
0010
0100
1000
,  // measure 54
0010
0000
0100
0000
0001
0000
1000
0001
,  // measure 55
0000
0001
1000
0000
0010
0000
0100
0000
,  // measure 56
0010
0001
0010
0001
0100
0010
0100
0010
,  // measure 57
1000
0001
1000
0001
1000
0001
1000
0001
,  // measure 58
2000
0000
3010
0000
0000
0001
0010
0100
1000
0000
0001
0000
0000
0010
0001
0010
,  // measure 59
0100
0000
1000
0000
0000
0010
0100
0001
1000
0000
0010
0001
0010
0000
0100
1000
,  // measure 60
0100
0000
0010
0000
0000
0010
0001
0100
1000
0000
0100
0000
0000
0100
0001
0010
,  // measure 61
1000
0000
0001
0000
0000
0001
0100
0010
1000
0000
0001
0100
1000
0000
0010
0000
,  // measure 62
0100
2002
3003
0020
,  // measure 63
0030
0002
0203
0302
,  // measure 64
2003
3020
0030
0002
,  // measure 65
0003
2000
3200
0302
,  // measure 66
0013
0000
0001
1000
0001
0010
0001
1000
,  // measure 67
0100
1000
0001
1000
0010
1000
0100
1000
,  // measure 68
0001
0000
1000
0000
0010
0000
0010
0000
0100
0000
0100
0000
1000
0001
1000
0001
,  // measure 69
1000
0001
1000
0001
1000
0000
0000
0000
1001
0000
0000
0000
0000
0000
0000
0000
,  // measure 70
0011
0000
0001
0100
0001
0000
1000
0010
,  // measure 71
1000
0000
0001
0100
0001
0000
0010
0010
,  // measure 72
0010
0000
1000
0001
1000
0000
0001
0100
,  // measure 73
0010
0100
0010
0100
0001
0000
1000
0010
,  // measure 74
1000
0000
0001
1000
0001
0000
1000
0100
,  // measure 75
1000
0000
0010
1000
0010
0000
1000
0000
,  // measure 76
0010
0001
0001
1000
1000
0001
0001
1000
,  // measure 77
1001
0000
0000
0000
0001
0100
0001
0000
,  // measure 78
1000
0010
1000
0000
0010
0001
0100
0001
,  // measure 79
0010
0000
0001
0000
1000
0100
1000
0000
,  // measure 80
0001
1000
0001
0010
0000
0001
0010
0001
,  // measure 81
0010
0000
0001
0000
1000
0010
1000
0010
,  // measure 82
0100
0001
0100
0001
1000
0001
0001
1000
,  // measure 83
1000
0010
0010
0100
0001
0000
0000
0000
,  // measure 84
1000
0001
1000
0001
1000
0001
1000
0000
,  // measure 85
0001
1000
0001
1000
0001
1000
0001
0000
,  // measure 86
0100
0001
0100
0000
0001
0100
0001
0000
,  // measure 87
0100
0001
0100
0001
0100
0001
0100
0000
,  // measure 88
0010
1000
0010
0000
0100
0001
0100
0000
,  // measure 89
0010
1000
0010
1000
0010
1000
0010
0000
,  // measure 90
1000
0001
0001
1000
1000
0001
0001
1000
,  // measure 91
1001
0000
0010
0001
0010
0000
1000
0010
,  // measure 92
1000
0010
0001
1001
,  // measure 93
0001
0100
0001
0000
1000
0010
1000
0000
,  // measure 94
0001
0010
0100
1000
0001
0100
0001
0000
,  // measure 95
0001
1000
0002
0000
0103
0010
0200
0000
,  // measure 96
1300
0001
2000
0000
3010
0100
0010
0100
,  // measure 97
0001
1000
0001
1000
0020
0130
0000
0000
,  // measure 98
0010
0000
1000
0000
0001
0000
1000
0000
0001
1000
0001
0000
0000
0000
0000
0000
,  // measure 99
0010
0001
0100
0010
1000
0001
0000
0000
,  // measure 100
1000
0000
0100
0000
0010
0000
0001
0000
1000
0001
1000
0000
0010
0000
0200
0000
,  // measure 101
0000
0301
1000
0002
0000
1003
0000
0000
,  // measure 102
0100
0000
0010
0000
0001
0000
0100
0000
0001
1000
0001
0000
0000
0000
0000
0000
,  // measure 103
1000
0010
0100
0002
0000
1003
0000
0000
,  // measure 104
0001
1000
0010
0100
0001
1000
0100
0010
,  // measure 105
0000
0001
0000
2002
0000
0000
0000
0000
,  // measure 106
0000
3003
0000
0000
0000
0000
0000
0000
;
