#TITLE:R∞tAge;
#SUBTITLE:;
#ARTIST:BEMANI Sound Team "HuΣeR+";
#TITLETRANSLIT:RootAge;
#SUBTITLETRANSLIT:;
#ARTISTTRANSLIT:;
#GENRE:beatmaniaIIDX;
#CREDIT:;
#BANNER:RootAge.png;
#BACKGROUND:RootAge-bg.png;
#LYRICSPATH:;
#CDTITLE:;
#MUSIC:RootAge.ogg;
#OFFSET:-0.240000;
#SAMPLESTART:107.439995;
#SAMPLELENGTH:12.800003;
#SELECTABLE:YES;
#BPMS:0.000000=150.000000
;
#STOPS:
;
#BGCHANGES:;
#KEYSOUNDS:;
#ATTACKS:;

//---------------dance-double - ----------------
#NOTES:
     dance-double:
     :
     Hard:
     11:
     0.533923,0.562994,0.617631,0.253387,0.281101,472.000000,394.000000,78.000000,32.000000,0.000000,0.000000,0.533923,0.562994,0.617631,0.253387,0.281101,472.000000,394.000000,78.000000,32.000000,0.000000,0.000000:
00000000
00000000
00000000
00000000
,
00000000
00000000
00000000
00000000
,
00100000
00000000
00000000
10000000
00000000
00000000
20020000
00000000
00000000
00000000
00000000
00000000
30030000
00000000
00000000
00000000
,
00100000
00000000
00000000
00001000
00000000
00000000
00022000
00000000
00000000
00000000
00000000
00000000
00033000
00000000
00000000
00000000
,
00010000
00000000
00000000
00000100
00000000
00000000
00002200
00000000
00000000
00000000
00003300
00000000
00001000
00000000
00000001
00000000
,
00001001
00001100
00000101
00001001
,
00000010
00000000
00000000
00001000
00000000
00000000
00002200
00000000
00000000
00000000
00000000
00000000
00003300
00000000
00000000
00000000
,
00010000
00000000
00000000
00000100
00000000
00000000
00022000
00000000
00000000
00000000
00000000
00000000
00033000
00000000
00000000
00000000
,
00100000
00000000
00000000
00010000
00000000
00000000
02020000
00000000
00000000
00000000
03030000
00000000
20020000
00000000
00000000
00000000
,
00030000
00010000
00010000
00010000
,
30010000
00100000
01000000
10000000
00200000
00000000
00300000
00000000
,
10000000
00000000
00000000
00000000
00010000
00000000
00000000
00000000
10000000
00000000
00000000
10000000
00010000
00000000
00100000
00000000
,
00000000
00000000
00001000
00000000
00000000
00010000
00000000
00000000
00000100
00000000
00000000
00000100
00001000
00000000
00000010
00000000
,
00000100
00000000
00000000
00000000
00000101
00000000
00000000
00000000
00000001
00000000
00000000
00000001
00001000
00000000
00000010
00000000
,
00000000
00000000
00001000
00000000
00000000
00000100
00000000
00000000
00010000
00000000
00000000
00001000
00100000
00000000
00010000
00000000
,
01000000
00000000
00000000
00000000
01100000
00000000
00000000
00000000
10010000
00000000
00000000
10000000
00010000
00000000
00100000
00000000
,
00001000
00000000
00010000
00000000
00000000
00010000
00000000
00000000
00000100
00000000
00000000
00001000
00000100
00000000
00000010
00000000
,
00000001
00000000
00000000
00000000
00000101
00000000
00000000
00000000
00000100
00000000
00000000
00000010
00001000
00000000
00000100
00000000
,
00001000
00000000
00000001
00001000
00000100
00000010
00000000
00000001
,
00001000
00000000
00000001
00000000
00000100
00000000
00000001
00000000
00001000
00000000
00000000
00000100
00000000
00000000
00010000
00000000
,
00001000
00000000
00100000
00000000
00001000
00000000
00100000
00000000
00010000
00000000
00000000
01000000
00000000
00000000
10000000
00000000
,
01000000
00000000
00010000
00000000
10000000
00000000
00010000
00000000
00100000
00000000
00000000
00001000
00000000
00000000
00010000
00000000
,
00000100
00000000
00010000
00000000
00001000
00000000
00010000
00000000
00000100
00000000
00000000
00001000
00000000
00000000
00000010
00000000
,
00000100
00000000
00000001
00000000
00001000
00000000
00000100
00000000
00000010
00000000
00000000
00001001
00000000
00000000
00000100
00000000
,
00000010
00000000
00001000
00000000
00000100
00000000
00010000
00000000
00001000
00000000
00000000
00011000
00000000
00000000
00010000
00000000
,
00001000
00000000
00100000
00000000
00010000
00000000
01000000
00000000
00100000
00000000
00000000
10010000
00000000
00000000
01000000
00000000
,
00100000
10000000
10000000
00010000
00010000
00100000
00100000
00000000
,
20000000
00000000
00000000
00000000
00010000
00000000
00000000
00000000
00100000
00000000
00000000
00100000
00000000
00000000
00100000
00000000
,
00000000
00000000
00010000
00000000
00000000
00010000
00000000
00000000
30020000
00000000
00000000
00000000
00230000
00000000
00000000
00000000
,
00302000
00000000
00000000
00000000
00010000
00000000
00000000
00000000
01000000
00000000
00000000
01000000
00000000
00000000
01003000
00000000
,
00010000
01000000
00001000
00010000
00001000
00010000
00000100
00001000
,
00000020
00000000
00000000
00000000
00001000
00000000
00000000
00000000
00000100
00000000
00000000
00000100
00000000
00000000
00000100
00000000
,
00000000
00000000
00001000
00000000
00000000
00001000
00000000
00000000
00002030
00000000
00000000
00003100
00000000
00000000
00000100
00000000
,
00000020
00000000
00000000
00000000
00000001
00000000
00000000
00000000
00000001
00000000
00000000
00000001
00000000
00000000
00000031
00000000
,
00001000
00000000
00000100
00000000
00000010
00000001
00000100
00000000
,
00000010
00000000
00000000
00000010
00000000
00000000
00001000
00000000
00000001
00000000
00000100
00000000
00000010
00000000
00001000
00000000
,
00000100
00000000
00000000
00000100
00000000
00000000
00000100
00000000
00010000
00000000
00001000
00000000
00100000
00000000
00000000
00000000
,
00010000
00000000
00000000
00010000
00000000
00000000
00010000
00000000
01000000
00000000
10000000
00000000
01000000
00000000
00010000
00000000
,
00100000
00101000
00011000
00010100
,
00001000
00000000
00000000
00001000
00000000
00000000
00000001
00000000
00000100
00000000
00000010
00000000
00001000
00000000
00000100
00000000
,
00010000
00000000
00000000
00010000
00000000
00000000
00001000
00000000
00010000
00000000
00001000
00000000
00100000
00000000
00010000
00000000
,
01000000
00000000
00000000
01000000
00000000
00000000
00100000
00000000
10000000
00000000
00100000
00000000
01000000
00000000
00010000
00000000
,
00100000
00101000
00011000
00010010
,
00001000
00000000
00000000
00001000
00000000
00000000
00000001
00000000
00000100
00000000
00000010
00000000
00001000
00000000
00000100
00000000
,
00010000
00000000
00000000
00010000
00000000
00000000
00001000
00000000
00100000
00000000
00010000
00000000
10000000
00000000
01000000
00000000
,
00100000
00000000
00000000
00100000
00000000
00000000
00001000
00000000
00010000
00000000
00000100
00000000
00010000
00000000
00001000
00000000
,
00100000
00110000
11000000
00110000
,
00100000
00000000
00000000
00100000
00000000
00000000
00001000
00000000
00010000
00000000
00001000
00000000
00010000
00000000
00000100
00000000
,
00001000
00000000
00000000
00001000
00000000
00000000
00000001
00000000
00000100
00000000
00000010
00000000
00001000
00000000
00000100
00000000
,
00010000
00000000
00000000
00010000
00000000
00000000
00010000
00000000
00001000
00000000
00100000
00000000
00010000
00000000
10000000
00000000
,
00100000
10010000
11000000
00110000
,
10010000
00000000
00000000
10010000
00000000
00000000
11000000
00000000
00000000
11000000
00000000
00000000
00000000
00000000
00000000
00000000
,
00110000
00000000
00000000
00110000
00000000
00000000
00011000
00000000
00000000
00011000
00000000
00000000
00000000
00000000
00000000
00000000
,
00010010
00000000
00000000
00010010
00000000
00000000
00001010
00000000
00000000
00001010
00000000
00000000
00000000
00000000
00000000
00000000
,
00000101
00000000
00000000
00000101
00000000
00000000
00001010
00000000
00000000
00001010
00000000
00000000
00000000
00000000
00000000
00000000
,
00001100
00000000
00000000
00001100
00000000
00000000
00010100
00000000
00000000
00010100
00000000
00000000
00000000
00000000
00000000
00000000
,
00011000
00000000
00000000
00011000
00000000
00000000
00101000
00000000
00000000
00101000
00000000
00000000
00000000
00000000
00000000
00000000
,
01010000
00000000
00000000
01010000
00000000
00000000
10100000
00000000
00000000
10100000
00000000
00000000
00000000
00000000
00000000
00000000
,
20000000
00000000
00000000
00010000
00000000
00000000
00010000
00000000
00000000
00020000
00000000
00000000
30030000
00000000
00000000
00000000
,
01000000
00000000
00000000
00010000
00000000
00000000
00000000
00100000
,
00001000
00000000
00000000
00001000
00000000
00000000
00010000
00000000
00000000
00000000
00000000
00000000
00000000
00000000
00000000
00000000
,
00000100
00000000
00000000
00001000
00000000
00000000
00000010
00000000
,
00000110
00001001
00000110
00001001
,
00000100
00000000
00000000
00000010
00000000
00000000
00001000
00000100
,
00010000
00000000
00000000
00010000
00000000
00000000
00010000
00000000
00000000
00000000
00000000
00000000
00001000
00000000
00000000
00000000
,
00100000
00000000
00000000
00100000
00000000
00000000
00010000
00000000
00000000
00000000
00000000
00000000
10000000
00000000
01000000
00000000
,
00100000
10100000
01010000
10100000
,
00100000
00000000
00000000
10000000
00000000
00000000
00020000
00000000
00000000
00000000
00000000
00000000
00130000
00000000
00001000
00000000
,
00010000
00000000
00000000
00011000
00000000
00000000
00002000
00000000
00000000
00000000
00000000
00000000
00013000
00000000
00000100
00000000
,
00001000
00000000
00000000
00001010
00000000
00000000
00000020
00000000
00000000
00000000
00000000
00000000
00000130
00000000
00001000
00000000
,
00000001
00000000
00000000
00000001
00000100
00000000
00000000
00000100
00000010
00000000
00000000
00000010
00001000
00000000
00000000
00000000
,
00001010
00000000
00000000
00001000
00000000
00000000
00002100
00000000
00000000
00000000
00000000
00000000
00003100
00000000
00010000
00000000
,
00001000
00000000
00000000
00100000
00000000
00000000
00201000
00000000
00000000
00000000
00000000
00000000
00310000
00000000
01000000
00000000
,
00100000
00000000
00000000
10000000
00000000
00000000
01010000
00000000
00000000
00000000
10000000
00000000
01000000
00000000
00100000
00000000
,
00010000
01010000
10010000
00110000
,
00100000
00000000
00000000
00001000
00000000
00000000
00020000
00000000
00000000
00000000
00030100
00000000
00001000
00000000
00000010
00000000
,
00000100
00000101
00001100
00001010
,
00022000
00000000
00000000
00000000
,
00000000
00000000
00000000
00000000
,
00033000
00000000
00000000
00000000
;

//---------------dance-single - ----------------
#NOTES:
     dance-single:
     :
     Hard:
     10:
     0.542972,0.562994,0.617631,0.269224,0.285060,480.000000,402.000000,78.000000,34.000000,0.000000,0.000000,0.542972,0.562994,0.617631,0.269224,0.285060,480.000000,402.000000,78.000000,34.000000,0.000000,0.000000:
0000
0000
0000
0000
,
0000
0000
0000
0000
,
0010
0000
0000
1000
0000
0000
2002
0000
0000
0000
0000
0000
3003
0000
0000
0000
,
0010
0000
0000
0001
0000
0000
2002
0000
0000
0000
0000
0000
3003
0000
0000
0000
,
0001
0000
0000
0100
0000
0000
0202
0000
0000
0000
0303
0000
0001
0000
1000
0000
,
1001
1010
0011
1001
,
0010
0000
0000
0001
0000
0000
0202
0000
0000
0000
0000
0000
0303
0000
0000
0000
,
1000
0000
0000
0010
0000
0000
2002
0000
0000
0000
0000
0000
3003
0000
0000
0000
,
0010
0000
0000
0001
0000
0000
0202
0000
0000
0000
0303
0000
2002
0000
0000
0000
,
0003
0001
0001
0001
,
3001
0010
0100
1000
0020
0000
0030
0000
,
1000
0000
0000
0000
0001
0000
0000
0000
1000
0000
0000
1000
0001
0000
0010
0000
,
0000
0000
0001
0000
0000
0001
0000
0000
0100
0000
0000
0100
1000
0000
0010
0000
,
0100
0000
0000
0000
0101
0000
0000
0000
0001
0000
0000
0001
1000
0000
0010
0000
,
0000
0000
1000
0000
0000
0100
0000
0000
0010
0000
0000
0001
0000
0000
0100
0000
,
0010
0000
0000
0000
0110
0000
0000
0000
1001
0000
0000
1000
0001
0000
0010
0000
,
1000
0000
0001
0000
0000
0001
0000
0000
1000
0000
0000
1000
0100
0000
0010
0000
,
0001
0000
0000
0000
0101
0000
0000
0000
0100
0000
0000
0010
1000
0000
0100
0000
,
1000
0000
0001
1000
0100
0010
0000
0001
,
1000
0000
0001
0000
0100
0000
0001
0000
1000
0000
0000
0010
0000
0000
0100
0000
,
0001
0000
1000
0000
0001
0000
0100
0000
0001
0000
0000
0100
0000
0000
1000
0000
,
0100
0000
0001
0000
1000
0000
0001
0000
0010
0000
0000
0001
0000
0000
1000
0000
,
0010
0000
1000
0000
0001
0000
1000
0000
0100
0000
0000
0010
0000
0000
0001
0000
,
0100
0000
0001
0000
1000
0000
0100
0000
0010
0000
0000
1001
0000
0000
0100
0000
,
0010
0000
1000
0000
0100
0000
0010
0000
0001
0000
0000
0001
0000
0000
0001
0000
,
0100
0000
0010
0000
1000
0000
0010
0000
0100
0000
0000
1001
0000
0000
0100
0000
,
0010
1000
1000
0001
0001
0010
0010
0000
,
2000
0000
0000
0000
0001
0000
0000
0000
0010
0000
0000
0010
0000
0000
0010
0000
,
0000
0000
0001
0000
0000
0001
0000
0000
3002
0000
0000
0000
0023
0000
0000
0000
,
0230
0000
0000
0000
2300
0000
0000
0000
0100
0000
0000
0100
0000
0000
3100
0000
,
0010
0001
0010
0001
0010
0001
0100
0010
,
2000
0000
0000
0000
0001
0000
0000
0000
0010
0000
0000
0010
0000
0000
0010
0000
,
0000
0000
0001
0000
0000
0001
0000
0000
3002
0000
0000
0100
0000
0000
0103
0000
,
0020
0000
0000
0000
0100
0000
0000
0000
0100
0000
0000
0100
0000
0000
0130
0000
,
0010
1000
0100
0010
0001
0100
0010
0000
,
0010
0000
0000
0010
0000
0000
1000
0000
0001
0000
0100
0000
0010
0000
1000
0000
,
0100
0000
0000
0100
0000
0000
1000
0000
0001
0000
1000
0000
0010
0000
1000
0000
,
0001
0000
0000
0001
0000
0000
0001
0000
0100
0000
1000
0000
0100
0000
0001
0000
,
0010
0011
1001
1100
,
1000
0000
0000
1000
0000
0000
0001
0000
0100
0000
0010
0000
1000
0000
0100
0000
,
0010
0000
0000
0010
0000
0000
0001
0000
0100
0000
0010
0000
1000
0000
0001
0000
,
0100
0000
0000
0100
0000
0000
0010
0000
1000
0000
0010
0000
0100
0000
0001
0000
,
0010
0011
0110
1100
,
0010
0000
0000
0010
1000
0000
0001
0000
1000
0000
0100
0000
0010
0000
0001
0000
,
0100
0000
0000
0100
0001
0000
1000
0000
0010
0000
0100
0000
0001
0000
0100
0000
,
0010
0000
0000
0010
1000
0000
0001
0000
0010
0000
0100
0000
1000
0000
0010
0000
,
0100
0101
1010
0101
,
1000
0000
0000
1000
0001
0000
0100
0000
0001
0000
0010
0000
0001
0000
0100
0000
,
0001
0000
0000
0001
1000
0000
0010
0000
0100
0000
0001
0000
0100
0000
0010
0000
,
1000
0000
0000
1000
0010
0000
0100
0000
0001
0000
0010
0000
0001
0000
0100
0000
,
0010
1001
1100
0011
,
1001
0000
0000
1001
0000
0000
1100
0000
0000
1100
0000
0000
0000
0000
0000
0000
,
0011
0000
0000
0011
0000
0000
1001
0000
0000
1001
0000
0000
0000
0000
0000
0000
,
0101
0000
0000
0101
0000
0000
1010
0000
0000
1010
0000
0000
0000
0000
0000
0000
,
0110
0000
0000
0110
0000
0000
1001
0000
0000
1001
0000
0000
0000
0000
0000
0000
,
1100
0000
0000
1100
0000
0000
1001
0000
0000
1001
0000
0000
0000
0000
0000
0000
,
1001
0000
0000
1001
0000
0000
0110
0000
0000
0110
0000
0000
0000
0000
0000
0000
,
0101
0000
0000
0101
0000
0000
1010
0000
0000
1010
0000
0000
0000
0000
0000
0000
,
2000
0000
0000
0001
0000
0000
0001
0000
0000
0002
0000
0000
3003
0000
0000
0000
,
0100
0000
0000
0001
0000
0000
0000
0010
,
1000
0000
0000
1000
0000
0000
0001
0000
0000
0000
0000
0000
0000
0000
0000
0000
,
0100
0000
0000
0001
0000
0000
0010
0000
,
0110
1001
0110
1001
,
0100
0000
0000
0010
0000
0000
0001
0100
,
0001
0000
0000
0001
0000
0000
0001
0000
0000
0000
0000
0000
1000
0000
0000
0000
,
0010
0000
0000
0010
0000
0000
0010
0000
0000
0000
0000
0000
1000
0000
0100
0000
,
0010
0110
1001
0110
,
0010
0000
0000
1000
0000
0000
0002
0000
0000
0000
0000
0000
0013
0000
0001
0000
,
1000
0000
0000
1000
0000
0000
0002
0000
0000
0000
0000
0000
1003
0000
0010
0000
,
0100
0000
0000
0110
0000
0000
0020
0000
0000
0000
0000
0000
1030
0000
0001
0000
,
1000
0000
0000
1000
0100
0000
0000
0100
0010
0000
0000
0010
0001
0000
0000
0001
,
0100
0000
0000
0001
0000
0000
0201
0000
0000
0000
0000
0000
0301
0000
1000
0000
,
0010
0000
0000
0010
0000
0000
1020
0000
0000
0000
0000
0000
1030
0000
0010
0000
,
0100
0000
0000
0010
0000
0000
1001
0000
0000
0000
1000
0000
0100
0000
0010
0000
,
0001
0101
1001
0011
,
0010
0000
0000
1001
0000
0000
2002
0000
0000
0000
3003
0000
0100
0000
0010
0000
,
1001
0011
1100
0110
,
2002
0000
0000
0000
,
0000
0000
0000
0000
,
3003
0000
0000
0000
;

//---------------dance-double - ----------------
#NOTES:
     dance-double:
     :
     Medium:
     8:
     0.404967,0.469162,0.467182,0.380081,0.000000,358.000000,299.000000,59.000000,48.000000,0.000000,0.000000,0.404967,0.469162,0.467182,0.380081,0.000000,358.000000,299.000000,59.000000,48.000000,0.000000,0.000000:
00000000
00000000
00000000
00000000
,
00000000
00000000
00000000
00000000
,
00100000
00000000
00000000
20020000
00000000
00000000
30030000
00000000
,
00100000
00000000
00000000
00022000
00000000
00000000
00033000
00000000
,
00010000
00000000
00000000
00020200
00000000
00000000
00030300
00000000
,
00000100
00001000
00000010
00000001
,
00000100
00000000
00000000
00002002
00000000
00000000
00003003
00000000
,
00000010
00000000
00000000
00002200
00000000
00000000
00003300
00000000
,
00010000
00000000
00000000
00001000
00000000
00000000
00200000
00000000
,
00000000
00010000
00010000
00010000
,
00010000
00310000
20020000
30030000
,
00100000
10000000
00010000
00100000
,
00001000
00000000
00010000
00000000
00000010
00001000
00000010
00000000
,
00001000
00000001
00000100
00000010
,
00001000
00000000
00000100
00000000
00001000
00000100
00001000
00000000
,
00000100
00000000
00010000
00000000
00001000
00010000
00001000
00000000
,
00010000
00000000
00001000
00000000
00100000
00010000
01000000
00000000
,
00100000
00000000
10010000
00000000
00100000
10000000
01000000
00000000
,
00100000
00001000
00010000
00000100
,
00001000
00000000
00000101
00000000
00001000
00000010
00000100
00000000
,
00000001
00000000
00001000
00000000
00000100
00010000
00000100
00000000
,
00010000
00000000
00001000
00000000
00100000
00010000
01000000
00000000
,
00100000
00000000
10010000
00000000
00100000
00001000
00010000
00000000
,
00000100
00000000
00000100
00000000
00001000
00000010
00000100
00000000
,
00000001
00000000
00000001
00000000
00001000
00000100
00010000
00000000
,
00001000
00000000
00001000
00000000
00100000
00010000
01000000
00000000
,
00100000
10000000
00010000
00000000
00100000
00000000
00011000
00000000
,
00020000
00000000
00030100
00001000
,
00000020
00000000
00000130
00000001
,
00002000
00000000
00003100
00010000
,
00001000
00010000
00001000
00100000
00001000
00010000
00001000
00000000
,
00020000
00001000
00000100
00030010
,
00002000
00000100
00000010
00003001
,
00000200
00000001
00000010
00000301
,
00002000
00003100
00020000
00031000
,
00011000
00000000
00000000
00202000
00000000
00000000
00303000
00000000
,
00100000
00000000
00000000
00220000
00000000
00000000
00330000
00000000
,
01000000
00000000
00000000
20020000
00000000
00000000
30030000
00000000
,
00110000
00011000
00001100
00001001
,
00001010
00000000
00000000
00002200
00000000
00000000
00003300
00000000
,
00011000
00000000
00000000
00022000
00000000
00000000
00033000
00000000
,
00101000
00000000
00000000
00022000
00000000
00000000
00033000
00000000
,
00100000
01010000
10100000
01010000
,
00100000
00000000
00001000
00000000
00010000
00000000
00000100
00001000
,
00000010
00000000
00000100
00000000
00000001
00000000
00001000
00000100
,
00000010
00000000
00000001
00000000
00001000
00000000
00000100
00010000
,
00000100
00010100
00011000
00101000
,
00110000
00000000
00010000
01000000
00100000
00000000
10000000
00000000
,
00010000
00000000
00100000
00001000
00010000
00000000
00000100
00000000
,
00001000
00000000
00000010
00000100
00000001
00000000
00001000
00000000
,
00001100
00010100
00011000
00101000
,
00200000
00010000
00010000
00310000
,
01000000
00100000
10000000
00000000
00010000
00100000
00001000
00000000
,
00010000
00000100
00001000
00000010
,
00000100
00000001
00001000
00000000
00000100
00010000
00001000
00000000
,
00020000
00031000
00200000
00310000
,
01000000
00100000
10000000
00000000
00010000
01000000
00100000
00000000
,
20000000
30010000
00200000
00301000
,
00020000
00000100
00000200
00030300
,
00000010
00001000
00000001
00000100
,
00000010
00001000
00000100
00010000
,
00001000
00100000
00010000
01000000
,
10010000
01100000
10010000
01100000
,
10000000
00000000
00000000
20020000
00000000
00000000
30030000
00000000
,
00100000
00000000
00000000
00022000
00000000
00000000
00033000
00000000
,
00000010
00000000
00000000
00022000
00000000
00000000
00033000
00000000
,
00100000
01010000
10100000
01010000
,
10000000
00100000
01000000
00010000
,
00001000
00000000
00010000
00000000
00000010
00001000
00000100
00000000
,
00001000
00000000
00000001
00000000
00000100
00000000
00000010
00001000
,
00000100
00010100
00011000
00101000
,
00100000
00000000
01010000
00000000
00100000
00000000
10000000
01000000
,
00100000
00000000
00110000
00000000
00100000
00000000
00001000
00010000
,
00000100
00000000
00001100
00000000
00001000
00000000
00000010
00000100
,
00000001
00001001
00001010
00001100
,
00000100
00010000
00001000
00100000
,
00011000
00101000
00010100
00011000
,
00022000
00000000
00000000
00000000
,
00000000
00000000
00000000
00000000
,
00033000
00000000
00000000
00000000
;

//---------------dance-single - ----------------
#NOTES:
     dance-single:
     :
     Medium:
     8:
     0.415148,0.500439,0.514692,0.427591,0.000000,367.000000,302.000000,65.000000,54.000000,0.000000,0.000000,0.415148,0.500439,0.514692,0.427591,0.000000,367.000000,302.000000,65.000000,54.000000,0.000000,0.000000:
0000
0000
0000
0000
,
0000
0000
0000
0000
,
0010
0000
0000
2002
0000
0000
3003
0000
,
0100
0000
0000
2002
0000
0000
3003
0000
,
0001
0000
0000
0220
0000
0000
0330
0000
,
1000
0010
0001
0100
,
1001
0000
0000
0220
0000
0000
0330
0000
,
1000
0000
0000
0022
0000
0000
0033
0000
,
0001
0000
0000
1001
0000
0000
0020
0000
,
0000
0100
0100
0100
,
0100
0130
2002
3003
,
0010
1000
0001
0010
,
0100
0000
1000
0000
0010
0100
0010
0000
,
1000
0100
0010
0001
,
0100
0000
0001
0000
1000
0010
0100
0000
,
0001
0000
0001
0000
1000
0001
0100
0000
,
0001
0000
0001
0000
1000
0001
0010
0000
,
0010
0000
1001
0000
0001
1000
0001
0000
,
0100
0001
0010
1000
,
0010
0000
0011
0000
1000
0100
0010
0000
,
0001
0000
0101
0000
0001
0100
0010
0000
,
1000
0000
1001
0000
0010
0001
0100
0000
,
0010
1001
0010
1001
,
0100
0000
0100
0000
1000
0001
1000
0000
,
0010
0000
0010
0000
0001
0100
0010
0000
,
1000
0001
1000
0000
0001
0000
0100
0000
,
0010
1000
0001
0000
0010
0000
1001
0000
,
1001
0200
0001
0001
,
0302
1000
1003
1001
,
2000
0000
3100
0010
,
0001
1000
0001
1000
0001
1000
0100
0000
,
0020
0001
0001
0031
,
2000
3010
0200
0301
,
2000
0001
0010
3100
,
2002
3003
0220
0330
,
0100
0000
0000
2002
0000
3003
0000
0000
,
0010
0000
0000
2002
0000
3003
0000
0000
,
0100
0000
0000
0220
0000
0330
0000
0000
,
0011
0110
1010
1001
,
0110
0000
0000
0220
0000
0000
0330
0000
,
1001
0000
0000
0022
0000
0000
0033
0000
,
1001
0000
0000
2200
0000
0000
3300
0000
,
0010
0101
1010
0101
,
0010
0000
0001
0000
0100
0000
0010
1000
,
0100
0000
1000
0000
0010
0000
0100
0001
,
1000
0000
0010
0000
0100
0000
0001
1000
,
0001
0100
0010
1000
,
1001
0000
0001
0100
0010
0000
1000
0000
,
0001
0000
0010
0001
1000
0000
0010
0000
,
0100
0000
0001
0100
0010
0000
1000
0000
,
1100
1001
0110
1001
,
0020
0100
0100
0130
,
0100
0010
1000
0000
0001
0010
0100
0000
,
0001
0001
0001
1001
,
0010
1000
0001
0000
0001
1000
0100
0000
,
1001
0000
0020
0031
,
0100
0010
1000
0000
0001
0100
0010
0000
,
2000
3001
0020
0031
,
2000
0100
0200
3300
,
0010
1000
0001
0100
,
0010
1000
0100
0010
,
0001
0010
0001
0100
,
1001
0110
1001
0110
,
0100
0000
0000
2002
0000
0000
3003
0000
,
0010
0000
0000
0202
0000
0000
0303
0000
,
0010
0000
0000
2020
0000
0000
3030
0000
,
0010
0101
1010
0101
,
1000
0010
0220
0330
,
0001
0100
0220
0330
,
1000
0001
1000
0000
0001
1000
0001
0000
,
1000
0100
1000
0100
0010
0001
0010
0000
,
0001
0000
0101
0000
0001
0000
1000
0010
,
0100
0101
1001
1001
,
1000
0000
0110
0000
0001
0100
0010
1000
,
0001
0000
1001
0000
1000
0010
1000
0010
,
0100
0000
1001
0000
0010
1000
0010
0001
,
1000
0110
1001
0101
,
2002
0000
0000
0000
,
0000
0000
0000
0000
,
3003
0000
0000
0000
;

//---------------dance-double - ----------------
#NOTES:
     dance-double:
     :
     Easy:
     6:
     0.324652,0.437885,0.380081,0.427591,0.000000,287.000000,239.000000,48.000000,54.000000,0.000000,0.000000,0.324652,0.437885,0.380081,0.427591,0.000000,287.000000,239.000000,48.000000,54.000000,0.000000,0.000000:
00000000
00000000
00000000
00000000
,
00000000
00000000
00000000
00000000
,
00000000
00000000
00000000
00000000
,
00000000
00000000
00000000
00000000
,
00000000
00000000
00000000
00000000
,
00000000
00000000
00000000
00000000
,
00110000
00000000
00000000
00110000
00000000
00000000
00000000
00000000
,
00001100
00000000
00000000
00001100
00000000
00000000
00000000
00000000
,
00011000
00000000
00000000
00011000
00000000
00000000
00022000
00000000
,
00000000
00000000
00000000
00000000
,
00000000
00000000
00033000
00000000
,
00100000
00100000
00010000
01000000
,
10000000
10000000
00100000
00010000
,
00100000
00100000
00001000
00010000
,
00000010
00000010
00001000
00000100
,
00000001
00000001
00000100
00001000
,
00000010
00000010
00010000
00001000
,
00100000
00100000
00010000
01000000
,
20020000
30030000
02200000
03300000
,
10000000
01000000
00100000
00010000
,
01000000
00001000
01000000
00010000
,
01000000
00001000
00010000
00001000
,
00010000
00000010
00001000
00000010
,
00001000
00000100
00000010
00000001
,
00001000
00000100
00010000
00000100
,
00010000
00001000
00100000
00010000
,
10000000
01000000
00100000
00000000
,
00020000
00030000
00002000
00003000
,
00100000
00010000
01000000
10000000
,
00200000
00300000
02000000
03000000
,
00001000
00010000
00000100
00001001
,
00000020
00000030
00000200
00000300
,
00000001
00000100
00001000
00000100
,
00020000
00030000
00002000
00003000
,
00100000
00010000
01000000
10010000
,
02200000
03300000
10000000
00010000
,
00220000
00330000
00100000
00001000
,
00022000
00033000
00010000
00000100
,
00001000
00000001
00000110
00001001
,
00000002
00000003
00001000
00000100
,
00020000
00030000
00001000
01000000
,
02200000
03300000
20020000
30030000
,
00110000
11000000
01100000
10010000
,
00100000
00001000
00010000
00000010
,
00001000
00000100
00000010
00001001
,
00000010
00010000
00001000
00100000
,
00010000
01000000
10000000
01100000
,
10000000
01000000
00100000
00001000
,
00010000
00000010
00001000
00000101
,
00000010
00001000
00000100
00010000
,
00011000
00101000
00010100
00011000
,
00200000
00000000
00310000
01000000
,
00200000
00000000
10300000
01000000
,
00200000
00000000
00301000
00010000
,
00000020
00000000
00010030
00001000
,
00010000
00000100
00002002
00003003
,
00000010
00001000
00022000
00033000
,
00100000
00010000
02200000
03300000
,
00100000
10000000
02200000
03300000
,
10000000
00010000
10000000
00010000
,
00100000
00001000
00100000
00001000
,
00010000
00000010
00010000
00000010
,
00001000
00000100
00000010
00000001
,
00001000
00000010
00001000
00000010
,
00000100
00000001
00000100
00000001
,
00001000
00000100
00001000
00000100
,
00010000
00011000
00101000
01001000
,
01000000
00010000
20200000
30300000
,
00100000
00001000
00022000
00033000
,
00010000
00000100
00002020
00003030
,
00000101
00000101
00001001
00001001
,
00000010
00001000
00002200
00003300
,
00010000
00001000
00202000
00303000
,
00100000
00010000
02200000
03300000
,
10000000
01000000
00001000
00010000
,
00000100
00001000
00000202
00000303
,
00001000
00000100
00010000
00001000
,
00022000
00000000
00000000
00000000
,
00000000
00000000
00000000
00000000
,
00033000
00000000
00000000
00000000
;

//---------------dance-single - ----------------
#NOTES:
     dance-single:
     :
     Easy:
     5:
     0.279404,0.437885,0.395917,0.419672,0.000000,247.000000,197.000000,50.000000,53.000000,0.000000,0.000000,0.279404,0.437885,0.395917,0.419672,0.000000,247.000000,197.000000,50.000000,53.000000,0.000000,0.000000:
0000
0000
0000
0000
,
0000
0000
0000
0000
,
0000
0000
0000
0000
,
0000
0000
0000
0000
,
0000
0000
0000
0000
,
0000
0000
0000
0000
,
1010
0000
0000
0202
0000
0000
0303
0000
,
0011
0000
0000
2200
0000
0000
3300
0000
,
0110
0000
0000
1001
0000
0000
0220
0000
,
0000
0000
0000
0000
,
0000
0000
0330
0000
,
0010
0010
1000
0100
,
0010
0010
0001
0100
,
0010
0010
1000
0001
,
0100
0100
0001
1000
,
0010
0100
1000
0001
,
0010
0100
0001
1000
,
0100
0100
0010
0010
,
0002
0000
2000
3003
,
0010
0010
0100
0100
,
1000
0001
1000
0001
,
1000
0100
0010
0001
,
0100
0100
0010
1001
,
0010
0010
0100
0100
,
0001
1000
0001
1000
,
0001
0010
0100
1000
,
0020
0000
0200
0330
,
0002
0000
0000
0000
,
2003
0000
3200
0000
,
0320
0000
0000
0000
,
2030
0000
3002
0003
,
0200
0000
0000
0000
,
0320
0000
2030
0000
,
3002
0000
0000
0003
,
0100
0010
1000
1001
,
0110
0000
0000
0000
,
1000
0000
0000
0000
,
0001
0000
0000
0000
,
0110
1001
1001
0000
,
0010
1000
0200
0300
,
0010
0001
0200
0300
,
0010
0100
2002
3003
,
0011
1100
0022
0033
,
1000
0100
2002
3003
,
0001
0100
2002
3003
,
0010
0100
2002
3003
,
0110
0110
1001
1001
,
0001
1000
0220
0330
,
1000
0001
0220
0330
,
1000
0100
0022
0033
,
1010
1010
0101
0100
,
2000
0000
3000
1001
0000
0000
0000
0000
,
0002
0000
0003
1001
0000
0000
0000
0000
,
0200
0000
0300
0110
0000
0000
0000
0000
,
0020
0000
0030
0110
0000
0000
0000
0000
,
2000
0000
3000
1100
0000
0000
0000
0000
,
0002
0000
0003
0011
0000
0000
0000
0000
,
0200
0000
0300
0110
0000
0000
0000
0000
,
0020
0000
0030
0110
0000
0000
1000
0000
,
0002
0000
0003
0000
,
2000
0000
3000
0000
,
0020
0000
0030
0000
,
0100
0010
1000
0000
,
0001
0100
0001
0100
,
1000
0100
1000
0100
,
0001
0100
1000
0100
,
0010
0001
1001
0000
,
0010
0100
0002
0003
,
1000
0100
0020
0030
,
0001
0100
0010
0000
,
1001
1001
1100
0000
,
0010
0001
0100
0000
,
0010
1000
0100
0000
,
0001
0010
0100
1000
,
1001
1001
0110
0110
,
1000
0100
0010
0001
,
1001
1001
0110
0000
,
2002
0000
0000
0000
,
0000
0000
0000
0000
,
3003
0000
0000
0000
;

//---------------dance-single - ----------------
#NOTES:
     dance-single:
     :
     Beginner:
     4:
     0.140268,0.218942,0.079183,0.087102,0.000000,124.000000,114.000000,10.000000,11.000000,0.000000,0.000000,0.140268,0.218942,0.079183,0.087102,0.000000,124.000000,114.000000,10.000000,11.000000,0.000000,0.000000:
// measure 0
0000
0000
0000
0000
,  // measure 1
0000
0000
0000
0000
,  // measure 2
0000
0000
0000
0000
,  // measure 3
0000
0000
0000
0000
,  // measure 4
0000
0000
0000
0000
,  // measure 5
0000
0000
0000
0000
,  // measure 6
0010
0000
0000
0000
,  // measure 7
0001
0000
0000
0000
,  // measure 8
0100
0000
0000
0000
,  // measure 9
2000
0000
0000
0000
,  // measure 10
0000
0000
3000
0000
,  // measure 11
0001
0000
0001
0000
,  // measure 12
0100
0000
0100
0000
,  // measure 13
1000
0000
1000
0000
,  // measure 14
0010
0000
0010
0000
,  // measure 15
1000
0000
1000
0000
,  // measure 16
0100
0000
0100
0000
,  // measure 17
0001
0000
0001
0000
,  // measure 18
2002
0000
3003
0000
,  // measure 19
0010
0000
0010
0000
,  // measure 20
0100
0000
0100
0000
,  // measure 21
0001
0000
1000
0000
,  // measure 22
0001
0000
1000
0000
,  // measure 23
0010
0000
0010
0000
,  // measure 24
0100
0000
0100
0000
,  // measure 25
1000
0000
0001
0000
,  // measure 26
2002
0000
3003
0000
,  // measure 27
0020
0000
0000
0000
,  // measure 28
0030
0000
0100
0000
,  // measure 29
0020
0000
0000
0000
,  // measure 30
0030
0000
0000
0000
,  // measure 31
0200
0000
0000
0000
,  // measure 32
0300
0000
0010
0000
,  // measure 33
0200
0000
0000
0000
,  // measure 34
0300
0000
0000
0000
,  // measure 35
1001
0000
0000
0000
,  // measure 36
1000
0000
0000
0000
,  // measure 37
0001
0000
0000
0000
,  // measure 38
1000
1000
1000
0000
,  // measure 39
0001
0000
0000
0000
,  // measure 40
1000
0000
0000
0000
,  // measure 41
0001
0000
0000
0000
,  // measure 42
0100
0100
0100
0000
,  // measure 43
0010
0000
0010
0000
,  // measure 44
0100
0000
0100
0000
,  // measure 45
0010
0000
0010
0000
,  // measure 46
1000
1000
1000
0000
,  // measure 47
0010
0000
0010
0000
,  // measure 48
0100
0000
0100
0000
,  // measure 49
0010
0000
0010
0000
,  // measure 50
0001
0001
0001
0000
,  // measure 51
1001
0000
0000
0000
,  // measure 52
0110
0000
0000
0000
,  // measure 53
1001
0000
0000
0000
,  // measure 54
0110
0000
0000
0000
,  // measure 55
1000
0000
0000
0000
,  // measure 56
0001
0000
0000
0000
,  // measure 57
1001
0000
0000
0000
,  // measure 58
0110
0000
0000
0000
,  // measure 59
0010
0000
0000
0000
,  // measure 60
1000
0000
0000
0000
,  // measure 61
0100
0000
0000
0000
,  // measure 62
0001
0001
0001
0000
,  // measure 63
1000
0000
0000
0000
,  // measure 64
0010
0000
0000
0000
,  // measure 65
0100
0000
0000
0000
,  // measure 66
0001
0001
0001
0000
,  // measure 67
1000
0000
1000
0000
,  // measure 68
0001
0000
0001
0000
,  // measure 69
1000
0000
1000
0000
,  // measure 70
0010
0010
0010
0000
,  // measure 71
0001
0000
0001
0000
,  // measure 72
1000
0000
1000
0000
,  // measure 73
0001
0000
0001
0000
,  // measure 74
0010
0010
0010
0000
,  // measure 75
0100
0000
0010
0000
,  // measure 76
1000
1000
1000
0000
,  // measure 77
2002
0000
0000
0000
,  // measure 78
0000
0000
0000
0000
,  // measure 79
3003
0000
0000
0000
;
