#TITLE:Rise Circuit;
#SUBTITLE:;
#ARTIST:COSIO;
#TITLETRANSLIT:;
#SUBTITLETRANSLIT:;
#ARTISTTRANSLIT:;
#GENRE:;
#CREDIT:;
#BANNER:Rise Circuit.png;
#BACKGROUND:Rise Circuit-bg.png;
#LYRICSPATH:;
#CDTITLE:;
#MUSIC:Rise Circuit.ogg;
#OFFSET:-0.055000;
#SAMPLESTART:32.024998;
#SAMPLELENGTH:12.307693;
#SELECTABLE:YES;
#DISPLAYBPM:195.000000;
#BPMS:0.000000=195.000000
;
#STOPS:
;
#BGCHANGES:0.000=Rise Circuit.avi=1.000=0=0=0=StretchNoLoop====,
99999=-nosongbg-=1.000=0=0=0 // don't automatically add -songbackground-
;
#KEYSOUNDS:;
#ATTACKS:;

//---------------dance-single - ----------------
#NOTES:
     dance-single:
     :
     Hard:
     15:
     0.780956,1.040272,0.353777,0.370623,0.391681,649.000000,607.000000,42.000000,44.000000,0.000000,0.000000,0.780956,1.040272,0.353777,0.370623,0.391681,649.000000,607.000000,42.000000,44.000000,0.000000,0.000000:
0000
0000
0000
0000
,
0000
0000
0000
0000
,
0000
0000
0000
0000
,
0000
0000
0000
0000
,
0000
0000
0000
0000
,
0001
1000
0001
1000
0001
1000
0001
1000
,
0000
0010
1000
0010
0100
0010
0100
0000
,
1000
0001
1000
0001
0100
0010
0100
0010
,
0000
0000
0001
0000
0100
0000
0010
0000
0000
0000
1000
0000
0001
0000
0100
0001
,
0100
0001
1000
0010
0100
0001
1000
0001
,
0000
0000
1000
0000
0100
0000
0010
0000
0001
0000
0100
0000
0010
0000
1000
0010
,
1000
0000
0001
0000
0100
0000
0010
1000
0010
0000
0100
0000
0001
0000
1000
0001
,
1000
0000
0010
0000
0100
0000
0001
0000
1000
0010
1000
0000
0001
0100
0001
0000
,
2000
0000
0000
0000
,
3020
0000
0000
0000
0130
0001
0000
1000
,
0020
0000
0000
0100
0000
0000
1000
0000
,
0230
0000
0000
0001
0000
0000
0010
0000
,
0301
0000
1000
1001
0000
0000
0110
0000
,
1000
0000
0001
1001
0000
0000
0110
0000
,
1000
0000
0010
0100
0010
0000
1001
0000
,
0020
0000
1000
1000
0000
0100
0130
0000
,
0102
0000
0103
2000
0001
0000
3001
0000
,
2010
0000
3010
0200
0010
0000
0310
0000
,
1000
0001
1000
0001
0100
0010
0100
0010
,
1000
0001
1000
0001
0000
1000
0100
0010
0001
1000
0100
0010
,
0001
2002
0000
3003
,
0010
0000
1000
0000
0001
0000
0100
0001
0000
0001
0100
0000
0010
0000
1000
0000
,
0001
0000
0100
0000
0010
0000
1000
0000
0001
0100
0001
0000
1000
0000
0010
0000
,
1000
0000
0100
0000
0010
0000
0001
0100
0000
0100
0001
0000
1000
0000
0010
0000
,
1000
0100
1000
0000
0001
0100
0001
0000
1000
0001
1000
0000
0010
0000
0100
0000
,
0001
0000
1000
0000
0001
0000
1000
0100
0000
0100
1000
0000
0010
0000
0100
0000
,
0001
0000
0010
0000
0001
0000
1000
0000
0001
0100
0001
0000
1000
0000
0010
0000
,
1000
0000
0100
0000
0010
0000
0001
0100
0000
0100
0010
0000
1000
0000
0001
0000
,
0100
0010
0100
0000
1000
0010
1000
0000
0001
0100
0001
0000
1000
0000
0010
0000
,
0200
0000
0301
2000
0000
0010
3010
0000
,
0001
0000
1000
0000
0010
0000
1000
0010
2000
0000
0000
0000
3001
0000
0100
0000
,
0010
0000
1000
0000
0001
0000
1000
0001
0000
0001
1000
0000
0010
0000
0100
0000
,
0001
0010
0100
1000
0001
0100
0010
1000
,
0001
1000
0010
0220
0330
1000
0001
0202
,
0303
1000
0001
0000
1100
0000
0001
0022
,
0000
0030
0103
0000
0010
1000
0100
1000
,
0020
0100
1000
1030
,
0001
0100
0000
0000
0010
0000
1000
0001
0000
0000
0100
0000
0010
1000
0000
0000
,
0010
0000
1000
0001
0000
0000
0100
0000
0010
1000
0010
0000
0001
0100
0001
0000
,
2000
0010
3020
0000
0230
0001
0301
0000
,
1001
1001
1001
1001
0000
0010
0110
0000
,
1100
0000
1100
0000
0010
0100
0000
0000
0101
0000
0101
0000
0100
0010
0000
0000
,
1010
0000
1010
0000
0010
0100
0000
0100
0010
0000
1000
0000
0001
0100
0001
0100
,
0010
0000
0000
0000
1100
0000
0000
0011
0000
0000
0100
0000
0101
0000
0000
1010
,
0000
0100
0110
0110
0000
1001
0000
0010
,
0220
0000
0000
0000
,
0000
0000
0000
0000
,
0000
0000
0000
0000
,
0000
0000
0330
0000
,
1000
0001
0100
0001
0000
1000
0010
0100
,
0000
0001
1000
0010
0000
0010
0010
0010
,
1000
0010
0100
0001
0000
1000
0001
1000
,
0000
0010
0100
0001
0000
1000
1000
1000
,
0010
0100
0010
0100
0000
0001
0100
0010
,
0000
1000
0100
0010
0000
0100
0101
0100
,
0010
1000
0100
1000
0000
0001
0100
0010
,
0000
1000
0001
0100
0010
1000
0001
0100
,
0020
1000
1000
1000
,
1000
0000
1030
0000
0001
0100
0000
0020
,
1000
0000
1030
0001
0000
0100
0010
2000
,
0000
0000
3001
0200
0000
0310
1000
0000
,
0002
0000
0103
0020
0000
2030
0000
3020
,
0000
0230
0000
0302
0000
1003
0100
0010
,
0002
0000
0103
0020
1000
0000
1000
0000
,
1000
0000
1030
0000
0001
0101
0101
0101
,
0000
2002
0000
3003
,
0010
0000
1000
0000
0001
0000
1000
0100
0000
0100
1000
0000
0010
0000
0100
0000
,
0001
0000
0010
0001
0010
0000
0001
0000
0100
0010
0100
0000
0010
0000
1000
0000
,
0100
0000
0010
0000
0001
0000
1000
0001
0000
0001
1000
0000
0001
0000
0100
0000
,
0010
1000
0010
0000
1000
0001
1000
0000
0001
0100
0001
0000
1000
0010
1000
0000
,
0001
0000
0100
0000
0010
0000
1000
0100
0000
0100
1000
0000
0010
0000
0100
0000
,
0001
0000
0010
0001
0010
0000
0001
0000
0100
0010
1000
0000
0010
0000
0100
0000
,
0001
0000
1000
0000
0010
0000
0100
0001
0000
0100
0001
0000
0100
0000
0010
0000
,
1000
0010
1000
0000
0001
0100
0001
0000
1000
0010
1000
0010
1000
0000
0010
0000
,
1000
0000
1000
0000
0001
0000
0100
0010
0100
0000
0001
0000
0001
0000
0100
0010
,
0100
0000
0001
0000
0010
0000
0001
0100
0001
0000
1000
0000
0010
0000
1000
0100
,
1000
0010
0100
0002
0000
0103
0010
1000
,
0001
0000
0100
0000
0010
0000
0100
0001
0100
0000
0001
0000
1000
0000
0000
0000
,
0010
0000
1000
0000
0001
0000
1000
0001
1000
0000
0010
0000
0100
0000
0001
0010
,
0001
0000
0100
0000
0010
0000
1000
0100
1000
0000
0010
0000
0100
0000
0001
0000
,
1000
0000
0010
0200
0000
0000
0301
0000
,
1000
0100
0010
0000
0001
0100
0010
0000
,
1000
0001
0000
0000
0100
0000
0001
1000
0000
0000
0010
0000
1000
0100
0000
0000
,
0010
0000
0001
0100
0000
0000
0010
0000
1000
0001
1000
0000
0001
1000
0001
0000
,
1000
0000
0001
1000
0001
0000
0100
0000
0010
1000
0000
0000
0001
0100
0001
0100
,
0010
1000
0000
0000
0001
0100
0000
0000
0010
0000
1000
0001
1000
0001
1000
0000
,
1001
0000
1001
0000
1000
0010
0000
0000
0101
0000
0101
0000
1000
0001
0000
0000
,
0110
0000
0110
0000
0001
1000
0000
1000
0010
0000
1000
0000
0002
2000
0000
0000
,
0000
0000
0000
0000
,
0000
0000
0000
0000
,
3003
0000
0000
0000
;

//---------------dance-double - ----------------
#NOTES:
     dance-double:
     :
     Hard:
     15:
     0.759296,1.080282,0.244274,0.303237,0.387470,631.000000,602.000000,29.000000,36.000000,0.000000,0.000000,0.759296,1.080282,0.244274,0.303237,0.387470,631.000000,602.000000,29.000000,36.000000,0.000000,0.000000:
00000000
00000000
00000000
00000000
,
00000000
00000000
00000000
00000000
,
00000000
00000000
00000000
00000000
,
00000000
00000000
00000000
00000000
,
00000000
00000000
00000000
00000000
,
00100000
00010000
01000000
00010000
,
10000000
00000000
00010000
00000000
01000000
00100000
01000000
00000000
,
00010000
00100000
00001000
00010000
,
00000010
00000000
00001000
00000000
00000001
00000100
00000001
00000000
,
00001000
00000100
00001000
00000100
00001000
00000010
00000100
00000001
,
00000000
00001000
00000100
00001000
00000100
00010000
00001000
00000000
,
00100000
00010000
01000000
00010000
10000000
01000000
00100000
00010000
,
00000000
01000000
00010000
00100000
00001000
00001000
00001000
00000000
,
00020000
00000100
00000100
00000100
,
00000100
00000000
00030100
00000000
00001000
00000100
00000000
00000020
,
00000000
00000000
00000000
00000032
00000000
00000203
00000000
00000320
,
00000000
00000000
00001030
00000000
00000100
00010000
00001000
01000000
,
00020000
00000000
10030000
00100000
00000000
10000000
01000000
00000000
,
00100000
00000000
00001000
00010000
00000000
00000100
00001000
00000010
,
00002000
00000000
00000000
00003002
00000000
00000000
00000103
00000000
,
00000020
00000000
00000000
00002030
00000000
00000000
00003100
00000000
,
00010100
00000000
00010000
00000200
00010000
00000000
00010300
00000000
,
00101000
00000000
00100000
00002000
00100000
00000000
00103000
00000000
,
01000000
00010000
01000000
00010000
10000000
00100000
10000000
00100000
,
01000000
00100000
01000000
00100000
00000000
10000000
00010000
10000000
00010000
01000000
00100000
01000000
,
00100000
20020000
00000000
30030000
,
10000000
00000000
00100000
00000000
01000000
00000000
00010000
00100000
00000000
00100000
00010000
00000000
01000000
00000000
00001000
00000000
,
00010000
00000000
00000100
00000000
00001000
00000000
00000001
00000000
00001000
00000001
00001000
00000000
00000100
00000000
00001000
00000000
,
00000010
00000000
00010000
00000000
00001000
00000000
00010000
00001000
00000000
00001000
00100000
00000000
00010000
00000000
01000000
00000000
,
00100000
10000000
00100000
00000000
10000000
01000000
10000000
00000000
00100000
01000000
00100000
00000000
10000000
00000000
00100000
00000000
,
01000000
00000000
00010000
00000000
01000000
00000000
00001000
00010000
00000000
00010000
00001000
00000000
00010000
00000000
00000010
00000000
,
00001000
00000000
00000100
00000000
00000010
00000000
00000001
00000000
00001000
00000100
00001000
00000000
00000100
00000000
00010000
00000000
,
00001000
00000000
00100000
00000000
00010000
00000000
01000000
00100000
00000000
00100000
01000000
00000000
00010000
00000000
10000000
00000000
,
00100000
10000000
00100000
00000000
01000000
00010000
01000000
00000000
00100000
00000000
01000000
00000000
00010000
00000000
00100000
00000000
,
00002000
00000000
00013000
00000200
00000000
00000000
00001300
00000000
,
00000010
00001000
00000001
00000000
00002000
00000000
00003010
00020000
,
00000000
00000000
00031000
00010000
00000000
00001000
01000000
00100000
,
01000000
00010000
10000000
01000000
00100000
00010000
01000000
00100000
,
20000000
00000000
30010000
02000000
00000000
03010000
00100000
00002000
,
00000000
00000000
00013000
00000000
00000100
00001000
00000001
00000200
,
00000010
00000000
00000301
00000100
00000000
00000010
00001000
00000100
,
00020000
00000000
00031000
00000000
00100000
00010000
01000000
00000000
,
00100000
10000000
00000000
00000000
00010000
00000000
00100000
00001000
00000000
00000000
00010000
00000000
00000100
00001000
00000000
00000000
,
00000010
00000000
00001000
00000001
00000000
00000000
00001000
00000000
00000100
00010000
00000100
00000000
00010000
00000100
00010000
00000000
,
00001000
02000000
03020000
20030000
,
30100000
01000000
01010000
01010000
00000000
00011000
00011000
00000000
,
00001010
00000000
00001010
00000000
00001000
00000001
00000000
00000000
00001100
00000000
00001100
00000000
00010000
00000100
00000000
00000000
,
00101000
00000000
00101000
00000000
00100000
00010000
00000000
00010000
01000000
00000000
00100000
00000000
10000000
00010000
10000000
00000000
,
01000000
00000000
00000000
00000000
10100000
00000000
00000000
10100000
00000000
00000000
01000000
00000000
01100000
00000000
00000000
01100000
,
00000000
01000000
00010000
00100000
00001000
00010000
00000000
00010000
,
00022000
00000000
00000000
00000000
,
00000000
00000000
00000000
00000000
,
00000000
00000000
00000000
00000000
,
00000000
00000000
00000000
00033000
,
00010000
00000100
00001000
00000010
00000000
00001000
00000001
00001000
,
00000000
00000100
00001000
00000100
00010000
00001000
00100000
00010000
,
01000000
00100000
10000000
01000000
00000000
10000000
00100000
01000000
,
00000000
00010000
00100000
00001000
00000000
00010000
00000100
00001000
,
00000001
00001000
00000010
00010000
00000000
00001000
00100000
00010000
,
00000000
10000000
01000000
00100000
00010000
01000000
00010000
00100000
,
00001000
00010000
00000010
00001000
00000000
00000001
00001000
00000100
,
00000000
00001000
00000100
00010000
00001000
00100000
00010000
01000000
,
00200000
00000000
00000000
10000000
00000000
00000000
10300000
00000000
,
02000000
00000000
00000000
00000000
03010000
00100000
00000000
00001000
,
00010000
00000000
00000000
00000100
00000000
00001000
00000010
00000100
,
00000001
00000000
00000000
00000100
00000000
00000010
00010000
00001000
,
00010000
00000000
00001000
00100000
00000000
00001000
00101000
00000000
,
01000000
00000000
00010000
01000000
00000000
00010000
01010000
00000000
,
00200000
00000000
00000000
20000000
00000000
00000000
30300000
00000000
,
00010000
00100000
00010000
00100000
00001000
00010000
00011000
00011000
,
00000000
00002020
00000000
00003030
,
00000001
00000000
00000100
00000000
00001000
00000000
00000010
00000100
00000000
00000100
00000010
00000000
00001000
00000000
00000100
00000000
,
00010000
00000000
00001000
00000000
01000000
00000000
00100000
00000000
10000000
01000000
10000000
00000000
00100000
00000000
00010000
00000000
,
00100000
00000000
10000000
00000000
00010000
00000000
01000000
00010000
00000000
00010000
00100000
00000000
00001000
00000000
00010000
00000000
,
00000100
00001000
00000100
00000000
00001000
00000010
00000100
00000000
00000001
00001000
00000100
00000000
00001000
00000100
00001000
00000000
,
00000100
00000000
00010000
00000000
00001000
00000000
00100000
00010000
00000000
00010000
01000000
00000000
00100000
00000000
10000000
00000000
,
01000000
00000000
00100000
00000000
00010000
00000000
00100000
00010000
00100000
00000000
00010000
00000000
01000000
00100000
01000000
00000000
,
00100000
00000000
10000000
00000000
00010000
00000000
00100000
00001000
00000000
00001000
00010000
00000000
00000100
00000000
00001000
00000000
,
00000001
00001000
00000001
00000000
00001000
00000100
00001000
00000000
00000100
00010000
00000100
00000000
00010000
00000000
00001000
00000000
,
01000000
00100000
01000000
00000000
00010000
01000000
00010000
00000000
00100000
00010000
00100000
00000000
00001000
00000000
00010000
00000000
,
00000100
00001000
00000100
00000000
00001000
00000001
00001000
00000000
00000010
00000100
00000010
00000000
00001000
00000000
00000100
00000000
,
00010000
00000100
00010000
00000000
00001000
00100000
00001000
00000000
01000000
00010000
01000000
00000000
00100000
00000000
10000000
00000000
,
00010000
01000000
00010000
00000000
00100000
00001000
00100000
00000000
00001000
00000000
00010000
00000000
00000010
00000000
00001000
00000000
,
00000001
00000100
00000001
00000000
00001000
00000000
00000010
00000000
00001000
00000000
00000100
00000000
00010000
00000000
00001000
00000000
,
01000000
00010000
01000000
00000000
00100000
00000000
10000000
00000000
01000000
00000000
00100000
00000000
00010000
00000000
00100000
00000000
,
00001000
00010000
00001000
00000000
00010000
00000000
00000100
00000000
00001000
00000010
00001000
00000000
00000010
00000000
00000100
00000000
,
00000001
00001000
00000001
00000000
00000100
00001000
00000100
00000000
00010000
00001000
00010000
00000000
00001000
01000000
00001000
00000000
,
01000000
00100000
00000000
00000000
10000000
00000000
00010000
01000000
00000000
00000000
00001000
00000000
00010000
00000010
00000000
00000000
,
00001000
00000000
00000001
00000100
00000000
00000000
00000010
00000000
00001000
00000100
00001000
00000000
00000100
00010000
00000100
00000000
,
00000000
00000000
00010000
00001000
00010000
00001000
00010000
00000000
00001000
01000000
00001000
00000000
00010000
01000000
00010000
01000000
,
00100000
10000000
00000000
00000000
00010000
00100000
00010000
00000000
00100000
00000000
00001000
00010000
00001000
00010000
00001000
00000000
,
00010100
00000000
00010100
00000000
00001000
00000010
00000000
00000000
00000101
00000000
00000101
00000000
00000010
00001000
00000000
00000000
,
00001100
00000000
00001100
00000000
00000100
00010000
00000000
00010000
00001000
00000000
00100000
00000000
00020000
02000000
00000000
00000000
,
00000000
00000000
00000000
00000000
,
00000000
00000000
00000000
00000000
,
03030000
00000000
00000000
00000000
;

//---------------dance-single - ----------------
#NOTES:
     dance-single:
     :
     Medium:
     10:
     0.506598,0.720188,0.429586,0.193735,0.008423,421.000000,370.000000,51.000000,23.000000,0.000000,0.000000,0.506598,0.720188,0.429586,0.193735,0.008423,421.000000,370.000000,51.000000,23.000000,0.000000,0.000000:
0000
0000
0000
0000
,
0000
0000
0000
0000
,
0000
0000
0000
0000
,
0000
0000
0000
0000
,
0000
0000
0000
0000
,
0010
0010
0001
0100
,
0010
0010
1000
0100
,
0001
0001
1000
0100
,
1000
1000
0001
0100
,
0010
1010
0000
1010
,
0100
0101
0000
0101
,
0010
0100
1000
0001
,
1000
0001
1000
0001
1000
0001
1000
0000
,
0020
0000
0000
0000
,
2030
0000
0000
0000
3001
0100
0000
0002
,
0000
0003
0000
1000
0000
0010
0000
0200
,
0000
0000
0000
0301
0000
1000
0000
0000
,
0020
0000
0000
0130
0000
0001
0000
0100
,
0000
0010
0000
1000
0000
0001
1000
0000
,
0002
0000
0000
0200
0000
0000
0000
0000
,
0000
0000
0000
0303
,
1001
1001
0110
0110
,
1001
1001
0110
0110
,
1000
0001
1000
0001
0100
0010
0100
0010
,
1000
0001
1000
0001
0000
0000
0100
0000
0000
0110
0000
0000
,
0000
2002
0000
3003
,
0100
0000
0001
0000
1000
0001
1000
0000
,
0010
0000
0100
0000
0001
1000
0001
0000
,
1000
0100
1000
0000
0001
0100
0001
0000
,
1000
0010
0100
0000
0001
0000
0100
0000
,
0010
0000
0010
0000
1000
0100
1000
0000
,
0010
0000
0010
0000
0001
0100
0001
0000
,
1000
0100
1000
0000
0001
0100
0001
0000
,
1000
0010
0100
0010
1000
0010
0100
0000
,
0001
0000
0101
0000
1000
0010
1000
0000
,
0001
0100
0010
0000
1000
0010
0100
0000
,
0001
0010
1000
0000
0001
0000
0001
0000
,
1000
0100
0001
0000
1000
0000
1000
0000
,
0010
0100
0010
0000
1000
0001
1000
0000
,
0001
0100
0010
0000
1000
0000
1100
0000
,
0102
1000
1000
1003
,
2010
0001
0001
3001
,
0110
0000
0000
1100
0000
0000
0011
0000
,
0000
0110
0000
0000
1001
0000
0110
0000
,
1000
0001
0100
0000
0010
1000
0001
0000
,
1000
0010
1000
0010
0000
0100
0100
0000
,
0001
0001
0101
0000
1000
1000
1100
0000
,
0010
0010
0110
0000
1001
0000
0110
0000
,
1000
1010
0000
0011
,
0000
0110
0000
1000
0000
0001
0000
0000
,
0220
0000
0000
0000
,
0000
0000
0000
0000
,
0000
0000
0000
0000
,
0000
0000
0330
0000
,
0010
0000
1000
0001
0000
0000
1000
0001
,
0000
0000
0001
1000
0000
0000
0001
1000
,
0000
0000
0100
0010
0000
0000
0100
0010
,
0000
0000
0010
0100
0000
0000
0010
0100
,
0000
0000
0001
1000
0000
0001
0100
0001
,
0000
0000
1000
0001
0000
1000
0100
1000
,
0000
0000
0001
0100
0000
0010
0100
0010
,
0000
1000
0001
1000
0001
0000
1001
0000
,
0020
0000
0000
0000
,
0000
0000
0030
0000
1000
0001
0000
0200
,
0000
0000
0000
0301
0000
1000
0000
0002
,
0000
0103
0000
0010
0000
1000
0000
0000
,
0010
0000
0000
0010
0000
0000
0110
0000
,
0100
0000
0000
0100
0000
0000
1000
0000
,
0002
0000
0000
0200
0000
0000
0000
0000
,
0000
0000
0000
0303
,
0000
2002
0000
3003
,
0010
0000
1000
0000
0001
1000
0001
0000
,
1000
0100
1000
0000
0001
0010
0001
0000
,
0100
0000
1001
0000
0010
0100
0010
0000
,
1000
0100
1000
0000
0001
0100
0001
0000
,
1000
0000
0101
0000
1000
0010
1000
0000
,
0001
0000
1010
0000
0001
0100
0001
0000
,
1000
0010
0100
0000
0010
1000
0100
0000
,
0010
0001
0100
0000
0010
0100
0010
0000
,
1000
0001
1000
0001
1000
0000
0010
0000
,
0100
0001
0100
0001
0100
0000
0010
0000
,
1000
1000
0000
0001
0001
0000
0101
0000
,
0001
0001
0000
1000
1000
0000
0101
0000
,
1000
0010
0100
0010
1000
0010
0100
0000
,
0001
0100
0010
0000
0100
0001
1000
0000
,
0010
1000
0100
0000
0010
0001
0100
0000
,
0010
0100
0010
1000
0001
0100
0010
0000
,
1010
0000
0000
0101
0000
0000
1100
0000
,
0000
0011
0000
0000
0110
0000
1001
0000
,
0000
0010
0100
0000
0001
0000
2000
0000
,
3001
0100
0001
0000
1001
0000
0110
0000
,
1000
0001
1000
0000
0001
1000
0001
0000
,
0100
0010
0100
0000
0110
0000
2002
0000
,
0000
0000
0000
0000
,
0000
0000
0000
0000
,
3003
0000
0000
0000
;

//---------------dance-single - ----------------
#NOTES:
     dance-single:
     :
     Easy:
     7:
     0.348963,0.640167,0.429586,0.345353,0.000000,290.000000,239.000000,51.000000,41.000000,0.000000,0.000000,0.348963,0.640167,0.429586,0.345353,0.000000,290.000000,239.000000,51.000000,41.000000,0.000000,0.000000:
0000
0000
0000
0000
,
0000
0000
0000
0000
,
0000
0000
0000
0000
,
0000
0000
0000
0000
,
0000
0000
0000
0000
,
0010
0000
0001
0000
,
0010
0000
1000
0000
,
0001
0000
0100
0000
,
1000
0000
0100
0000
,
0010
1000
0000
1000
,
0000
0001
0000
0001
,
0010
0100
1000
0001
,
1000
0001
1000
0001
,
0020
0000
0000
0000
,
2030
0000
3002
0000
,
0203
0000
0320
0000
,
0230
0000
0301
1000
,
0020
0000
0130
1001
,
0200
0000
0310
1001
,
2000
0000
3002
0000
,
2003
0000
3002
0000
,
1003
0001
1000
0001
,
1000
0001
1000
0001
,
1000
0001
1000
0000
0001
1000
0001
0000
,
1001
1001
1001
1001
,
0000
2002
0000
3003
,
0100
0001
0000
1001
,
0010
0100
0000
1001
,
1000
0100
0000
0101
,
1000
0010
0000
0110
,
0010
0010
0000
1100
,
0010
0010
0000
0101
,
1000
1100
0001
0101
,
1000
0110
1001
0000
,
0001
0100
0000
1001
,
1000
0100
0000
1001
,
0001
1001
0000
0001
,
1000
0001
1000
0100
,
0010
0001
1000
0010
,
0001
0100
1000
0100
,
0002
1000
1000
1003
,
2000
0001
0001
3001
,
0100
0000
0000
0100
0000
0000
0010
0000
,
0000
0010
0000
0000
1001
0000
1001
0000
,
1000
0100
0010
0001
,
1001
1001
0000
0110
,
0001
1000
0001
0000
1000
0001
1000
0000
,
1001
1001
1001
1001
,
1000
1001
0000
1001
,
0000
0000
0000
1000
0000
0001
0000
0000
,
0220
0000
0000
0000
,
0000
0000
0000
0000
,
0000
0000
0000
0000
,
0000
0000
0330
0000
,
0010
1000
0000
1000
,
0000
0001
0000
0001
,
0000
0100
0000
0100
,
0000
0010
0000
0010
,
0000
0001
1000
0100
,
0000
1000
0001
0100
,
0000
0001
0100
0010
,
0001
1000
1001
1001
,
0020
0000
0000
0000
,
0030
0000
1000
0000
,
0200
0000
0300
0000
,
0020
0000
0030
0000
,
1000
0000
0001
1001
,
0001
0000
1000
1001
,
2000
0000
3002
0000
,
1003
0001
1000
1001
,
0000
2002
0000
3003
,
0010
1000
0001
0001
,
1000
1000
0001
0001
,
0100
1001
0010
0010
,
1000
1000
0001
0001
,
1000
1001
0010
0010
,
0100
1001
0100
0010
,
1000
0001
1000
0100
,
0001
0000
0100
0000
0010
0100
0010
0000
,
2000
0000
0000
3000
,
0002
0000
0000
0003
,
0200
0300
0020
0030
,
0200
0300
0020
0030
,
0002
0003
0200
0300
,
2000
3000
0200
0300
,
0002
0003
0020
0030
,
0200
0000
2300
3000
,
1001
0000
0000
1001
0000
0000
1001
0000
,
0000
1001
0000
0000
0010
0000
0010
0000
,
0000
0000
0000
0000
,
0000
0000
0000
0000
,
1001
0000
1001
0000
,
0110
0110
0110
2002
,
0000
0000
0000
0000
,
0000
0000
0000
0000
,
3003
0000
0000
0000
;

//---------------dance-double - ----------------
#NOTES:
     dance-double:
     :
     Easy:
     6:
     0.345353,0.480125,0.362200,0.252698,0.000000,287.000000,244.000000,43.000000,30.000000,0.000000,0.000000,0.345353,0.480125,0.362200,0.252698,0.000000,287.000000,244.000000,43.000000,30.000000,0.000000,0.000000:
00000000
00000000
00000000
00000000
,
00000000
00000000
00000000
00000000
,
00000000
00000000
00000000
00000000
,
00000000
00000000
00000000
00000000
,
00000000
00000000
00000000
00000000
,
00200000
00000000
00000000
00000000
,
02300000
00000000
00000000
00000000
,
03020000
00000000
00000000
00000000
,
00032000
00000000
00000000
00000000
,
00003010
00000100
00000001
00001000
,
00000010
00000100
00010000
00001000
,
00100000
00100000
01000000
01000000
,
00010000
01000000
20000000
30000000
,
00200000
00000000
00000000
00300000
,
02000000
00000000
00000000
03000000
,
00020000
00000000
00000000
00030000
,
00002000
00000000
00000000
00003000
,
00010000
00001000
00010000
00001000
,
01000000
00100000
01000000
00100000
,
00001000
00010000
00001000
00010000
,
00000010
00000100
00000010
00000100
,
00001001
00000000
00001001
00000000
,
00011000
00000000
00011000
00000000
,
00010000
00010000
00010000
00010000
,
00002000
00003000
00011000
00011000
,
00000000
00200000
00000000
00300000
,
00010000
01000000
10000000
01000000
,
00010000
00100000
00010000
00100000
,
00001000
00010000
00000100
00001000
,
00000101
00000000
00001100
00000000
,
00000001
00000100
00000001
00000100
,
00001000
00000100
00010000
00001000
,
00100000
00010000
01000000
10000000
,
10010000
00000000
01100000
00000000
,
10000000
10100000
00000000
01010000
,
00000000
00100000
00001000
00010000
,
00000000
00010100
00000000
00001001
,
00000000
00000010
00001000
00000100
,
00000000
00010100
00000000
01001000
,
00000000
01100000
00100000
01100000
,
00000000
10010000
00000000
00100000
,
02000000
00010000
00000000
03010000
,
00100000
00000000
00000000
01100000
00000000
00000000
10010000
00000000
,
00000000
01100000
00000000
00000000
10000000
00000000
00010000
00000000
,
00100000
00001000
00010000
00000010
,
00001000
00000001
00001001
00001001
,
00000110
00000000
00011000
00000000
,
01000000
00100000
01100000
10010000
,
00100000
01100000
00000000
10010000
,
00000000
00000000
00000000
00100000
00000000
00001000
00000000
00000000
,
00022000
00000000
00000000
00000000
,
00000000
00000000
00000000
00000000
,
00000000
00000000
00000000
00000000
,
00000000
00000000
00000000
00033000
,
00000000
00000100
00000000
00000100
,
00000000
00000001
00001000
00000001
,
00000000
00000100
00000000
00000100
,
00000000
00010000
00001000
00010000
,
00000000
00001000
01000000
00100000
,
00000000
10000000
00010000
00100000
,
00000000
00001000
00010000
00000100
,
00000000
00001000
00000001
00000100
,
00000020
00000000
00000000
00000000
,
00002030
00000000
00003200
00000000
,
00020300
00000000
00032000
00000000
,
02003000
00000000
03010000
10000000
,
00200000
00000000
02300000
00000000
,
03002000
00000000
00023000
00000000
,
00030020
00000000
00000000
00000000
,
00000200
00000000
00000000
00000330
,
00000000
00022000
00000000
00033000
,
00100000
00000000
00010000
00000000
01000000
00010000
01000000
00000000
,
00100000
10000000
01000000
00010000
,
00100000
00000000
00001000
00000000
00010000
00001000
00010000
00000000
,
00000100
00001000
00000010
00001000
,
00000001
00000000
00000100
00000000
00000010
00001000
00000010
00000000
,
00001000
00000100
00010000
00001000
,
01000000
00000000
00100000
00000000
10000000
00010000
10000000
00000000
,
00100000
00100000
10010000
10010000
,
10000000
00100000
01000000
00010000
,
00100000
00000000
00100000
00000000
00010000
01000000
00010000
00000000
,
00100000
00100000
00001000
00010000
,
00000010
00000000
00000010
00000000
00001000
00000001
00001000
00000000
,
00000010
00000010
00001000
00000100
,
00010000
00010000
00001000
01000000
,
00100000
10100000
00100000
10100000
,
01000000
00001000
00010000
00000100
,
00010000
00000000
00000000
00001000
00000000
00000000
00010000
00000000
,
00000000
00001000
00000000
00000000
00011000
00000000
00011000
00000000
,
00000000
00000000
00000000
00000000
,
00000000
00000000
00000000
00000000
,
10010000
00000000
00011000
00000000
,
00001001
00000000
00011000
00022000
,
00000000
00000000
00000000
00000000
,
00000000
00000000
00000000
00000000
,
00033000
00000000
00000000
00000000
;

//---------------dance-double - ----------------
#NOTES:
     dance-double:
     :
     Medium:
     10:
     0.446432,0.680178,0.227428,0.219005,0.008423,371.000000,344.000000,27.000000,26.000000,0.000000,0.000000,0.446432,0.680178,0.227428,0.219005,0.008423,371.000000,344.000000,27.000000,26.000000,0.000000,0.000000:
00000000
00000000
00000000
00000000
,
00000000
00000000
00000000
00000000
,
00000000
00000000
00000000
00000000
,
00000000
00000000
00000000
00000000
,
00000000
00000000
00000000
00000000
,
00100000
00000000
01000000
00000000
,
10000000
00000000
00010000
00000000
01000000
00100000
01000000
00000000
,
00010000
00000000
00001000
00000000
,
00000100
00000000
00000000
00000000
00000001
00000100
00000001
00000000
,
00001000
00000000
00001000
00000000
00001000
00000010
00000100
00000000
,
00000001
00000000
00000001
00000000
00001000
00000100
00010000
00000000
,
00100000
00010000
01000000
00100000
,
10000000
00100000
01000000
00001000
,
00020000
00000000
00000000
00000000
,
00000000
00000000
00030000
00000000
00001000
00000100
00000000
00000020
,
00000000
00000000
00000000
00001030
00000000
00000100
00000000
00002000
,
00000000
00003000
00000100
00010000
,
00002000
00000000
00000000
00013000
00000000
00000000
00010000
00000000
,
00020000
00000000
00000000
00001000
00000000
00000000
00031000
00000000
,
00002000
00000000
00000000
00020000
00000000
00000000
00000000
00000000
,
00000000
00000000
00033000
00000000
,
00010000
00100000
10000000
01000000
,
00010000
00100000
00001000
00010000
,
00001000
00010000
00001000
00010000
00001000
00010000
00001000
00010000
,
00001000
00010000
00001000
00010000
00000000
00000000
00011000
00000000
00000000
00011000
00000000
00000000
,
00000000
20020000
00000000
30030000
,
01000000
00000000
01000000
00000000
00100000
00010000
01000000
00000000
,
00010000
00000000
00001000
00000000
00010000
00000100
00001000
00000000
,
00000100
00000000
00010000
00000000
00001000
00100000
00010000
00000000
,
00100000
00000000
10010000
00000000
00100000
10000000
00100000
00000000
,
01000000
00000000
01010000
00000000
00100000
00001000
00010000
00000000
,
00000010
00000000
00000110
00000000
00000001
00001000
00000100
00000000
,
00001100
00000000
00001000
00000000
00010000
00001000
01000000
00000000
,
00010000
10000000
00010000
00000000
10000000
00010000
10000000
00000000
,
02000000
00000000
00000000
03020000
00000000
00000000
00030000
00000000
,
00010000
00001000
00010000
00000000
00002000
00000000
00023000
00000000
,
00032000
00000000
00000000
00103000
00000000
00010000
00000000
01000000
,
00000000
00010000
00000000
10000000
00000000
00000000
00010000
00000000
,
20000000
00000000
00000000
30010000
00000000
01000000
00010000
00200000
,
00000000
00000000
00301000
00000000
00000100
00001000
00000001
00000200
,
00000000
00000000
00000300
00000100
00000000
00000010
00001000
00000100
,
00020000
00030000
00001000
01000000
,
01100000
00000000
00000000
00110000
00000000
00000000
00010100
00000000
,
00000000
00001010
00000000
00000000
00001100
00000000
00010100
00000000
,
00001000
00010000
00100000
01000000
,
10000000
00010000
01000000
00010000
00000000
10000000
00010000
00000000
,
00100000
01000000
00100000
00000000
10000000
00010000
10000000
00000000
,
00100000
00010000
00100000
00000000
00001000
00000000
00011000
00000000
,
00010000
00011000
00000000
00000101
,
00000000
00000010
00000000
00001100
00000000
00011000
00000000
00020000
,
00002000
00000000
00000000
00000000
,
00000000
00000000
00000000
00000000
,
00000000
00000000
00000000
00000000
,
00000000
00000000
00000000
00033000
,
00100000
00010000
00000000
01000000
,
00000000
00100000
10000000
00010000
,
01000000
00000000
00100000
01000000
00000000
00000000
00100000
01000000
,
00000000
00000000
00010000
00100000
00000000
00010000
00100000
00000000
,
00001000
00000000
00010000
00001000
00000000
00010000
00000100
00010000
,
00000000
00000100
00001000
00000100
00000000
00001000
00000001
00000000
,
00001000
00000000
00000010
00001000
00000000
00000100
00001000
00000100
,
00000000
00010000
00001000
00010000
00001000
00000000
00100000
00000000
,
00200000
00000000
00000000
00300000
,
00002000
00000000
00000000
00000000
00000000
00103000
00000000
00001000
,
00010000
00000000
00000000
00000100
00000000
00001000
00000010
00000100
,
00000001
00000000
00000000
00000100
00000000
00000010
00010000
00001000
,
00010000
00000000
00000000
00001000
00000000
00000000
00101000
00000000
,
00100000
00000000
00000000
00010000
00000000
00000000
01010000
00000000
,
00200000
00000000
00000000
00300000
,
00010000
00100000
00010000
00000000
10000000
00010000
10000000
00000000
,
00000000
00200000
00000000
00300000
,
01000000
00010000
01000000
00000000
00100000
10000000
00100000
00000000
,
01000000
00010000
00100000
00001000
,
00010000
00001000
00010000
00000000
00000100
00001000
00000100
00000000
,
00001000
00000001
00000100
00000010
,
00001000
00000100
00001000
00000000
00000100
00010000
00000100
00000000
,
00010000
00001000
00100000
00010000
,
01000000
00100000
01000000
00000000
00010000
10000000
00010000
00000000
,
01000000
00100000
01000000
00100000
01000000
00000000
00010000
00000000
,
00100000
00000000
00001000
00000000
00010000
00000100
00010000
00000000
,
00001000
00000000
00100000
00000000
00010000
10000000
00010000
00000000
,
01000000
00000000
00001000
00000000
00010000
00000100
00010000
00000000
,
00000100
00000000
00001000
00000000
00000010
00000100
00000001
00000000
,
00001000
00000000
00000010
00000000
00001000
00000100
00010000
00000000
,
00001000
00000000
01000000
00000000
00010000
01000000
00100000
00000000
,
10000000
00000000
00010000
00000000
00100000
00001000
00010000
00000000
,
00000100
00001000
00000010
00000000
00000100
00000001
00001000
00000000
,
00000110
00000000
00000000
00001100
00000000
00000000
00011000
00000000
,
00000000
00110000
00000000
00000000
01100000
00000000
10010000
00000000
,
00000000
00000000
00000000
00000000
,
00000000
00000000
00000000
00000000
,
10000000
00010000
01000000
00000000
00001000
00010000
00000100
00000000
,
00000010
00001000
00000100
00000000
00010000
00001000
00022000
00000000
,
00000000
00000000
00000000
00000000
,
00000000
00000000
00000000
00000000
,
00033000
00000000
00000000
00000000
;

//---------------dance-single - ----------------
#NOTES:
     dance-single:
     :
     Beginner:
     4:
     0.217801,0.440115,0.134772,0.168465,0.000000,181.000000,165.000000,16.000000,20.000000,0.000000,0.000000,0.217801,0.440115,0.134772,0.168465,0.000000,181.000000,165.000000,16.000000,20.000000,0.000000,0.000000:
// measure 0
0000
0000
0000
0000
,  // measure 1
0000
0000
0000
0000
,  // measure 2
0000
0000
0000
0000
,  // measure 3
0000
0000
0000
0000
,  // measure 4
0000
0000
0000
0000
,  // measure 5
0010
0000
0001
0000
,  // measure 6
0010
0000
1000
0000
,  // measure 7
0001
0000
0100
0000
,  // measure 8
1000
0000
0100
0000
,  // measure 9
0000
1000
0000
1000
,  // measure 10
0000
0001
0000
0001
,  // measure 11
0000
0100
0000
0100
,  // measure 12
0000
0010
0010
0010
,  // measure 13
0020
0000
0000
0000
,  // measure 14
0030
0000
0002
0000
,  // measure 15
0203
0000
0300
0000
,  // measure 16
0200
0000
0300
0000
,  // measure 17
0020
0000
0030
1001
,  // measure 18
0000
0000
0000
1001
,  // measure 19
0000
0000
0002
0000
,  // measure 20
2003
0000
3002
0000
,  // measure 21
1003
0000
0001
0000
,  // measure 22
1000
0000
0001
0000
,  // measure 23
1001
0000
1001
0000
,  // measure 24
0010
0010
0010
0010
,  // measure 25
0000
0000
0000
0000
,  // measure 26
0100
0001
0000
0001
,  // measure 27
0000
1000
0000
1000
,  // measure 28
0000
0001
0000
0001
,  // measure 29
0000
0010
0010
0010
,  // measure 30
0000
1000
0000
1000
,  // measure 31
0000
0001
0000
0001
,  // measure 32
0000
1000
0000
0001
,  // measure 33
0000
0010
0010
0010
,  // measure 34
0000
0100
0000
0001
,  // measure 35
0000
0100
0000
1000
,  // measure 36
0000
0001
0001
0001
,  // measure 37
0000
1000
1000
1000
,  // measure 38
0000
0001
0000
0100
,  // measure 39
0000
1000
0000
0100
,  // measure 40
0000
0001
0001
0001
,  // measure 41
0001
0000
0000
0000
,  // measure 42
0100
0000
0000
0100
0000
0000
0010
0000
,  // measure 43
0000
0010
0000
0000
1001
0000
0000
0000
,  // measure 44
0010
0010
0010
0000
,  // measure 45
1000
0000
0001
0000
,  // measure 46
2000
3000
0002
0003
,  // measure 47
0010
0010
0010
0000
,  // measure 48
0000
1001
0000
1001
,  // measure 49
0000
0000
0000
1000
0000
0001
0000
0000
,  // measure 50
0200
0000
0000
0000
,  // measure 51
0000
0000
0000
0000
,  // measure 52
0000
0000
0000
0000
,  // measure 53
0000
0000
0300
0000
,  // measure 54
0000
1000
0000
1000
,  // measure 55
0000
0001
0000
0001
,  // measure 56
0000
0100
0000
0100
,  // measure 57
0000
0010
0000
0010
,  // measure 58
0000
0001
0000
0100
,  // measure 59
0000
1000
0000
0100
,  // measure 60
0000
0001
0000
0010
,  // measure 61
0000
1000
0000
0010
,  // measure 62
0020
0000
0000
0000
,  // measure 63
0030
0000
1000
0000
,  // measure 64
0200
0000
0300
0000
,  // measure 65
0020
0000
0030
0000
,  // measure 66
1000
0000
0001
0001
,  // measure 67
0001
0000
1000
1000
,  // measure 68
1000
0000
0001
0000
,  // measure 69
1000
1000
1000
0000
,  // measure 70
0000
0000
0000
0000
,  // measure 71
0010
1000
0000
0001
,  // measure 72
0000
1000
0000
0001
,  // measure 73
0000
1000
0000
0010
,  // measure 74
0000
0001
0000
0010
,  // measure 75
0000
1000
0000
0100
,  // measure 76
0000
0001
0000
0100
,  // measure 77
0000
1000
1000
1000
,  // measure 78
0000
0001
0001
0001
,  // measure 79
2000
0000
3000
0000
,  // measure 80
0002
0000
0003
0000
,  // measure 81
0200
0000
0300
0000
,  // measure 82
0020
0000
0030
0000
,  // measure 83
0001
0000
0100
0000
,  // measure 84
1000
0000
0100
0000
,  // measure 85
0001
0000
0010
0000
,  // measure 86
0100
0000
1000
0000
,  // measure 87
1001
0000
0000
1001
0000
0000
1001
0000
,  // measure 88
0000
1001
0000
0000
1001
0000
0000
0000
,  // measure 89
0000
0000
0000
0000
,  // measure 90
0000
0000
0000
0000
,  // measure 91
1001
0000
1001
0000
,  // measure 92
1001
0000
0000
2002
,  // measure 93
0000
0000
0000
0000
,  // measure 94
0000
0000
0000
0000
,  // measure 95
3003
0000
0000
0000
;
