#TITLE:Reminiscence;
#SUBTITLE:;
#ARTIST:MAX 「PUMP IT UP」 より;
#TITLETRANSLIT:;
#SUBTITLETRANSLIT:;
#ARTISTTRANSLIT:MAX from "PUMP IT UP";
#GENRE:;
#CREDIT:Toxsa Dalton;
#BANNER:Reminiscence.png;
#BACKGROUND:Reminiscence-bg.png;
#LYRICSPATH:;
#CDTITLE:;
#MUSIC:Reminiscence.ogg;
#OFFSET:1.100000;
#SAMPLESTART:45.351616;
#SAMPLELENGTH:12.387096;
#LASTBEATHINT:0.258334;
#SELECTABLE:YES;
#BPMS:0.000000=155.000000
;
#STOPS:279.500000=1.548386
;
#BGCHANGES:3.000=Reminiscence.avi=1.000=1=0=0=StretchNoLoop==CrossFade==,
99999=-nosongbg-=1.000=0=0=0 // don't automatically add -songbackground-
;
#KEYSOUNDS:;
#ATTACKS:;

//---------------dance-single - ----------------
#NOTES:
     dance-single:
     :
     Hard:
     11:
     0.499020,0.638852,0.102739,0.326898,0.149439,374.000000,363.000000,11.000000,35.000000,0.000000,0.000000,0.499020,0.638852,0.102739,0.326898,0.149439,374.000000,363.000000,11.000000,35.000000,0.000000,0.000000:
// measure 0
0000
0000
0000
0000
,  // measure 1
0000
0000
0000
0000
,  // measure 2
0000
0000
0000
0000
,  // measure 3
0000
0000
0000
0000
,  // measure 4
0000
0000
0000
0000
,  // measure 5
0000
0000
0000
0000
,  // measure 6
0001
0000
1000
0000
0001
0000
0000
0000
1000
0000
0000
1000
0000
0000
0001
0000
,  // measure 7
0100
0000
0010
0000
0100
0000
0000
0000
0010
0000
0000
0010
0000
0000
0010
0000
,  // measure 8
1000
0000
0001
0000
0000
0001
0000
0000
1000
0000
0000
1000
0000
0000
0010
0000
,  // measure 9
0100
0010
0200
0000
0301
1000
0002
0000
,  // measure 10
1003
0000
0001
0000
1000
0000
0000
0000
0010
0000
0000
0010
0000
0000
0010
0000
,  // measure 11
1000
0000
0001
0000
1000
0000
0000
0000
0100
0000
0000
0100
0000
0000
0100
0000
,  // measure 12
1000
0000
0001
0000
0000
0001
0000
0000
0010
0000
0000
0010
0000
0000
0100
0000
,  // measure 13
0010
0000
0001
0000
0000
0001
0000
0000
1000
0000
0000
1000
0000
0000
0000
0000
,  // measure 14
1001
0000
0000
0100
0000
0000
0010
0000
,  // measure 15
0001
0000
0000
0010
0000
0000
0100
0000
,  // measure 16
2000
0000
0000
0001
0002
0000
0000
0000
,  // measure 17
0000
0000
3003
0000
,  // measure 18
0010
0000
0000
0100
0000
0000
0001
0000
,  // measure 19
1000
0000
0000
0100
0000
0000
0010
0000
,  // measure 20
0002
0000
0000
1000
2000
0000
3003
0000
,  // measure 21
2002
0000
0000
3003
,  // measure 22
0100
0010
0100
0010
1000
0001
1000
0100
,  // measure 23
0010
0001
0010
0001
1000
0010
0100
0010
,  // measure 24
1000
0001
1000
0001
1000
0100
0010
0001
,  // measure 25
1000
0100
1000
0010
1000
0001
1000
0100
,  // measure 26
0010
0001
0100
0001
1000
0001
0100
0010
,  // measure 27
1000
0100
1000
0010
1000
0001
0100
0010
,  // measure 28
1000
0100
0010
0001
0001
0010
0100
1000
,  // measure 29
0001
0000
0000
1000
0000
0000
1001
0000
,  // measure 30
0001
1000
0010
0020
0000
1030
0001
0200
,  // measure 31
0000
0301
1000
0020
0000
1030
0100
0010
,  // measure 32
0001
0010
0100
2000
0000
3001
0100
0020
,  // measure 33
0000
0130
1001
1100
,  // measure 34
0001
0100
1000
0200
0000
0301
1000
0002
,  // measure 35
0000
1003
0010
2000
0000
0000
3001
1000
,  // measure 36
0100
0010
0001
0200
0000
0310
1000
0001
,  // measure 37
0001
1000
0100
0020
0000
0031
1000
0000
,  // measure 38
0001
0100
0001
2000
0000
3001
0010
0200
,  // measure 39
0000
1300
0100
0020
0000
0000
0031
0000
,  // measure 40
1000
0010
0100
0200
0000
0310
1000
0020
,  // measure 41
0000
1030
1001
1100
,  // measure 42
0001
0010
0100
0020
0000
0031
1000
0002
,  // measure 43
0000
1003
0100
0020
0000
0031
0100
0001
,  // measure 44
1000
0100
0010
0002
0000
1003
0100
1000
,  // measure 45
0010
1000
0100
0020
0000
0000
0031
0000
,  // measure 46
0100
0000
0010
0000
0110
0000
0000
0000
0001
0000
0000
0001
0000
0000
1000
0000
,  // measure 47
0010
1000
0100
0000
0010
0001
0100
0000
,  // measure 48
1000
0000
0001
0000
1001
0000
0000
0000
0010
0000
0000
0010
0000
0000
1000
0000
,  // measure 49
0001
0010
0100
0000
1000
0100
0010
0000
,  // measure 50
0001
0000
0100
0000
0010
0000
0000
0000
1000
0000
0000
1000
0000
0000
1000
0000
,  // measure 51
0001
0100
0010
0000
1000
0010
0100
0000
,  // measure 52
0001
0000
0010
0000
0100
0000
0000
0000
1000
0000
0000
1000
0000
0000
0100
0000
,  // measure 53
0010
0000
0000
0010
0000
0000
0001
0000
0000
0100
0000
0000
1001
0000
0000
0000
,  // measure 54
0010
0000
0010
0000
1000
0001
0000
0000
,  // measure 55
1000
0000
0100
0010
0000
0000
0001
0000
,  // measure 56
2000
0000
0000
0000
0000
0000
0000
0000
0001
0000
0000
3001
0000
0000
0001
1000
,  // measure 57
0002
0000
0000
0203
0000
0000
0310
0000
,  // measure 58
1000
0001
1000
0100
0010
0001
1000
0000
,  // measure 59
0001
1000
0001
0010
0100
1000
0001
0000
,  // measure 60
1000
1000
0001
0001
0100
0100
0010
0010
,  // measure 61
1000
0000
0100
0000
0010
0000
0001
0000
1000
0000
1000
0000
1000
0001
1000
0001
,  // measure 62
1000
0000
0010
0000
0000
0010
0000
0000
0100
0000
0000
0010
0000
0000
0100
0000
,  // measure 63
0001
0000
0100
0000
0000
0100
0000
0000
0010
0000
0000
0100
0000
0000
0010
0000
,  // measure 64
1000
0000
0001
0000
0000
0001
0000
0000
1000
0000
0000
0100
0000
0000
0010
0000
,  // measure 65
0001
0000
1000
0000
0000
1000
0000
0000
0001
0000
0000
0010
0000
0000
0100
0000
,  // measure 66
0010
0000
0001
0000
0100
0001
0000
0000
0001
0000
0000
1000
0000
0000
0001
0000
,  // measure 67
1000
0000
0010
0000
1000
0010
0000
0000
0100
0000
0000
0100
0000
0000
0100
0000
,  // measure 68
0001
0010
0100
1000
0001
1000
0010
0100
,  // measure 69
0020
0000
0000
0200
0000
0000
0330
0000
,  // measure 70
2002
0000
0000
0000
,  // measure 71
0000
0000
0000
0000
,  // measure 72
3003
0000
0000
0000
;

//---------------dance-single - ----------------
#NOTES:
     dance-single:
     :
     Medium:
     7:
     0.314890,0.470733,0.140099,0.336238,0.000000,236.000000,221.000000,15.000000,36.000000,0.000000,0.000000,0.314890,0.470733,0.140099,0.336238,0.000000,236.000000,221.000000,15.000000,36.000000,0.000000,0.000000:
// measure 0
0000
0000
0000
0000
,  // measure 1
0000
0000
0000
0000
,  // measure 2
0000
0000
0000
0000
,  // measure 3
0000
0000
0000
0000
,  // measure 4
0000
0000
0000
0000
,  // measure 5
0000
0000
0000
0000
,  // measure 6
0001
0000
0001
0000
1000
0001
1000
0000
,  // measure 7
0100
0000
0100
0000
0010
0100
0010
0000
,  // measure 8
1000
0000
0100
0000
0010
0001
0010
0000
,  // measure 9
0001
0100
0010
1000
,  // measure 10
1000
0000
1000
0000
0010
1000
0010
0000
,  // measure 11
0100
0000
0100
0000
0001
0100
0001
0000
,  // measure 12
1000
0010
0100
0001
,  // measure 13
2000
3000
0002
0003
,  // measure 14
1001
0000
0000
0000
,  // measure 15
0001
0000
0000
0000
,  // measure 16
2000
0000
3002
0000
,  // measure 17
0000
0000
0003
0000
,  // measure 18
0100
0000
0000
0000
,  // measure 19
0001
0000
0100
0000
,  // measure 20
0020
0000
0200
0330
,  // measure 21
2002
0000
0000
3003
,  // measure 22
0100
0100
1000
1000
,  // measure 23
0010
0010
0001
0001
,  // measure 24
1000
0100
0010
0001
,  // measure 25
1000
0001
1000
0001
,  // measure 26
0010
0010
0100
0100
,  // measure 27
1000
0001
1000
0100
,  // measure 28
0010
0001
0100
0010
,  // measure 29
2002
0000
3003
0000
,  // measure 30
0001
0010
0100
1000
,  // measure 31
0001
1000
0001
0000
1000
0000
0000
0000
,  // measure 32
1000
0100
0010
0001
,  // measure 33
2000
3000
0002
0003
,  // measure 34
0001
1000
0010
0100
,  // measure 35
0010
0000
0100
0010
0100
0000
0000
0000
,  // measure 36
0100
0001
1000
0010
,  // measure 37
0200
0300
2002
3003
,  // measure 38
0001
0010
0100
1000
,  // measure 39
0001
1000
0001
0000
2002
0000
3003
0000
,  // measure 40
0001
0000
0100
0000
0010
1000
0010
0000
,  // measure 41
2000
3000
0002
0003
,  // measure 42
0001
0100
0010
1000
,  // measure 43
0001
1000
0001
0000
2002
0000
3003
0000
,  // measure 44
1000
0010
0100
0010
,  // measure 45
1000
0100
2002
3003
,  // measure 46
0100
0000
0110
0000
0001
1000
0001
0000
,  // measure 47
0010
0000
0110
0000
1000
0001
1000
0000
,  // measure 48
0010
1001
0010
1001
,  // measure 49
0001
0100
1000
0010
,  // measure 50
0001
0000
0010
0000
0001
1000
0001
0000
,  // measure 51
1000
0000
0010
0000
1000
0001
1000
0000
,  // measure 52
0001
0000
0100
0000
1000
0100
1000
0000
,  // measure 53
0100
0010
0001
1001
,  // measure 54
0010
0010
0010
0000
,  // measure 55
1000
0000
0100
0000
,  // measure 56
0002
0000
0003
0000
,  // measure 57
2000
0000
3001
0000
,  // measure 58
1000
1000
0010
0100
,  // measure 59
0001
0001
0100
0010
,  // measure 60
1000
0001
0100
0010
,  // measure 61
1000
0010
0200
0300
,  // measure 62
0001
0001
0200
0300
,  // measure 63
1000
1000
0200
0300
,  // measure 64
0001
0010
2002
3003
,  // measure 65
1000
0010
2002
3003
,  // measure 66
0010
0000
0100
0000
0001
1000
0001
0000
,  // measure 67
0100
0000
0010
0000
1000
0001
1000
0000
,  // measure 68
0001
0010
0100
1000
,  // measure 69
0002
0000
2000
3003
,  // measure 70
2002
0000
0000
0000
,  // measure 71
0000
0000
0000
0000
,  // measure 72
3003
0000
0000
0000
;

//---------------dance-single - ----------------
#NOTES:
     dance-single:
     :
     Easy:
     5:
     0.205479,0.268990,0.046700,0.130759,0.000000,154.000000,149.000000,5.000000,14.000000,0.000000,0.000000,0.205479,0.268990,0.046700,0.130759,0.000000,154.000000,149.000000,5.000000,14.000000,0.000000,0.000000:
// measure 0
0000
0000
0000
0000
,  // measure 1
0000
0000
0000
0000
,  // measure 2
0000
0000
0000
0000
,  // measure 3
0000
0000
0000
0000
,  // measure 4
0000
0000
0000
0000
,  // measure 5
0000
0000
0000
0000
,  // measure 6
0001
0001
1000
0000
,  // measure 7
1000
1000
0001
0000
,  // measure 8
1000
0100
0010
0000
,  // measure 9
0001
0100
0010
0000
,  // measure 10
1000
0100
0010
0000
,  // measure 11
0100
0010
0001
0000
,  // measure 12
1000
0001
1000
0001
,  // measure 13
2000
3000
0002
0003
,  // measure 14
1001
0000
0000
0000
,  // measure 15
0001
0000
0000
0000
,  // measure 16
1000
0000
2000
0000
,  // measure 17
0000
0000
3000
0000
,  // measure 18
1000
0000
0000
0000
,  // measure 19
0001
0000
0000
0000
,  // measure 20
0010
0000
0010
0000
,  // measure 21
2002
0000
3003
0000
,  // measure 22
0100
0000
1000
0000
,  // measure 23
0010
0000
0001
0000
,  // measure 24
1000
0000
0001
0000
,  // measure 25
1000
0001
1000
0000
,  // measure 26
0010
0000
0100
0000
,  // measure 27
0001
0000
1000
0000
,  // measure 28
0010
0100
0010
0000
,  // measure 29
2002
0000
3003
0000
,  // measure 30
0010
0001
0100
0000
,  // measure 31
0001
0000
1000
0000
,  // measure 32
0010
1000
0100
0000
,  // measure 33
1000
0000
0001
0000
,  // measure 34
0100
0010
0100
0000
,  // measure 35
0010
0100
0010
0000
,  // measure 36
1000
0100
0010
0001
,  // measure 37
0200
0300
0020
0030
,  // measure 38
0001
0100
1000
0000
,  // measure 39
1000
0100
0001
0000
,  // measure 40
0001
0010
0100
0000
,  // measure 41
1000
0100
0010
0000
,  // measure 42
0001
0000
1000
0000
,  // measure 43
0010
0000
0100
0000
,  // measure 44
0001
0010
0100
1000
,  // measure 45
0002
0003
2000
3000
,  // measure 46
0100
0010
0100
0000
,  // measure 47
0010
0100
0010
0000
,  // measure 48
1000
0001
1000
0000
,  // measure 49
0001
1000
0001
0000
,  // measure 50
0001
0010
0100
0000
,  // measure 51
1000
0100
0010
0000
,  // measure 52
0001
0000
1000
0000
,  // measure 53
0001
0000
1001
0000
,  // measure 54
0010
0000
0000
0000
,  // measure 55
1000
0000
0000
0000
,  // measure 56
0100
0000
0000
0000
,  // measure 57
0001
0000
0001
0000
,  // measure 58
1000
0000
1000
0000
,  // measure 59
0010
0000
0010
0000
,  // measure 60
0100
0000
0100
0000
,  // measure 61
0020
0000
0030
0000
,  // measure 62
0001
0000
0100
0000
,  // measure 63
1000
0000
0100
0000
,  // measure 64
0001
0010
0100
0000
,  // measure 65
1000
0010
0100
0000
,  // measure 66
0010
0100
0001
0000
,  // measure 67
0100
0010
1000
0000
,  // measure 68
0001
0000
1000
0000
,  // measure 69
0010
0000
0100
0000
,  // measure 70
2002
0000
0000
0000
,  // measure 71
0000
0000
0000
0000
,  // measure 72
3003
0000
0000
0000
;

//---------------dance-single - ----------------
#NOTES:
     dance-single:
     :
     Beginner:
     1:
     0.098737,0.168119,0.018680,0.018680,0.000000,74.000000,72.000000,2.000000,2.000000,0.000000,0.000000,0.098737,0.168119,0.018680,0.018680,0.000000,74.000000,72.000000,2.000000,2.000000,0.000000,0.000000:
// measure 0
0000
0000
0000
0000
,  // measure 1
0000
0000
0000
0000
,  // measure 2
0000
0000
0000
0000
,  // measure 3
0000
0000
0000
0000
,  // measure 4
0000
0000
0000
0000
,  // measure 5
0000
0000
0000
0000
,  // measure 6
0001
0000
0000
0000
,  // measure 7
1000
0000
0000
0000
,  // measure 8
0001
0000
0000
0000
,  // measure 9
1000
0000
0000
0000
,  // measure 10
0010
0000
0000
0000
,  // measure 11
0100
0000
0000
0000
,  // measure 12
0010
0000
0000
0000
,  // measure 13
0100
0000
0000
0000
,  // measure 14
1001
0000
0000
0000
,  // measure 15
0000
0000
0000
0000
,  // measure 16
1000
0000
0000
0000
,  // measure 17
0000
0000
0000
0000
,  // measure 18
0001
0000
0000
0000
,  // measure 19
0001
0000
0000
0000
,  // measure 20
1000
0000
0000
0000
,  // measure 21
1000
0000
0000
0000
,  // measure 22
0010
0000
0000
0000
,  // measure 23
0010
0000
0000
0000
,  // measure 24
0100
0000
0000
0000
,  // measure 25
0100
0000
0000
0000
,  // measure 26
1000
0000
0000
0000
,  // measure 27
0001
0000
0000
0000
,  // measure 28
1000
0000
0000
0000
,  // measure 29
0001
0000
0000
0000
,  // measure 30
1000
0000
1000
0000
,  // measure 31
1000
0000
0000
0000
,  // measure 32
0001
0000
0001
0000
,  // measure 33
0001
0000
0000
0000
,  // measure 34
0100
0000
0100
0000
,  // measure 35
0100
0000
0000
0000
,  // measure 36
0010
0000
0010
0000
,  // measure 37
0010
0000
0000
0000
,  // measure 38
0001
0000
0000
0000
,  // measure 39
1000
0000
0000
0000
,  // measure 40
0001
0000
0001
0000
,  // measure 41
0001
0000
0000
0000
,  // measure 42
1000
0000
0000
0000
,  // measure 43
0001
0000
0000
0000
,  // measure 44
1000
0000
1000
0000
,  // measure 45
1000
0000
0000
0000
,  // measure 46
0010
0000
0000
0000
,  // measure 47
0100
0000
0000
0000
,  // measure 48
0010
0000
0010
0000
,  // measure 49
0010
0000
0000
0000
,  // measure 50
0100
0000
0000
0000
,  // measure 51
0010
0000
0000
0000
,  // measure 52
0100
0000
0100
0000
,  // measure 53
0100
0000
0000
0000
,  // measure 54
0010
0000
0000
0000
,  // measure 55
1000
0000
0000
0000
,  // measure 56
0100
0000
0000
0000
,  // measure 57
0001
0000
0000
0000
,  // measure 58
1000
0000
0000
0000
,  // measure 59
0010
0000
0000
0000
,  // measure 60
0100
0000
0000
0000
,  // measure 61
0010
0000
0000
0000
,  // measure 62
0001
0000
0000
0000
,  // measure 63
0100
0000
0000
0000
,  // measure 64
1000
0000
0000
0000
,  // measure 65
0100
0000
0000
0000
,  // measure 66
0010
0000
0000
0000
,  // measure 67
0100
0000
0000
0000
,  // measure 68
0001
0000
0000
0000
,  // measure 69
1000
0000
1000
0000
,  // measure 70
2002
0000
0000
0000
,  // measure 71
0000
0000
0000
0000
,  // measure 72
3003
0000
0000
0000
;
