#TITLE:レグルスαβ;
#SUBTITLE:;
#ARTIST:Xceon;
#TITLETRANSLIT:Regulus alpha beta;
#SUBTITLETRANSLIT:;
#ARTISTTRANSLIT:;
#GENRE:;
#CREDIT:;
#MENUCOLOR:;
#METERTYPE:DDR;
#BANNER:Regulus alpha beta.png;
#BACKGROUND:Regulus alpha beta-bg.png;
#LYRICSPATH:;
#CDTITLE:;
#MUSIC:Regulus alpha beta.ogg;
#OFFSET:2.847;
#SAMPLESTART:94.260;
#SAMPLELENGTH:12.000;
#SELECTABLE:YES;
#LISTSORT:;
#BPMS:0.000=84.000,36.000=168.000;
#STOPS:;
#BGCHANGES:;
#ATTACKS:;

//---------------dance-single - ----------------
#NOTES:
     dance-single:
     :
     Hard:
     11:
     0.522,0.604,0.367,0.245,0.161:
0000
0000
0000
0000
,
0000
0000
0000
0000
,
0000
0000
0000
0000
,
0000
0000
0000
0000
,
0000
0000
0000
0000
,
0020
0001
0031
0000
0200
1000
1300
0000
,
0020
1000
1030
0000
0200
0001
0301
0000
,
0020
0100
0130
0000
0002
1000
1003
0000
,
2002
0000
3003
0000
0020
0000
0200
0330
,
1001
0000
0000
0001
0100
0000
0000
0100
0010
0000
0000
0010
1000
0000
0000
0000
,
1000
0000
0000
1000
0001
0000
0000
0001
0100
0000
0000
0100
0010
0000
0000
0000
,
0010
0000
0000
0010
1000
0000
0000
1000
0100
0000
0000
0100
1000
0000
0000
0000
,
0010
0000
0000
0010
1000
0000
0000
1000
0001
0000
0000
0001
0100
0000
0010
0000
,
1000
0000
0000
1000
0001
0000
0000
0001
0100
0000
0000
0100
0010
0000
0000
0000
,
1000
0000
0000
1000
0010
0000
0000
0010
0100
0000
0000
0100
0001
0000
0000
0000
,
0001
0000
0000
0001
1000
0000
0000
1000
0010
0000
0000
0010
0100
0000
0010
0000
,
1000
0000
0000
1000
0001
0000
0000
0001
0100
0000
0010
0000
1000
0000
0001
0000
,
1000
0000
0010
0000
0000
0010
0000
0000
0110
0000
0000
0100
0000
0000
0100
0000
,
0000
0000
0001
0000
0000
0001
0000
0000
0101
0000
0000
0100
0000
0000
0100
0000
,
0000
0000
0010
0000
0000
0010
0000
0000
1010
0000
0000
0100
0000
0000
0100
0000
,
0000
0000
0010
0000
0000
0010
0000
0000
0101
0000
0000
0100
0000
0000
0100
0000
,
0000
0000
0010
0000
0000
1000
0000
0000
1001
0000
0000
1000
0000
0000
0010
0000
,
0000
0000
0100
0000
0000
0001
0000
0000
1001
0000
0000
0001
0000
0000
0100
0000
,
0000
0000
0001
0000
0000
0001
0000
0000
0101
0000
0000
0010
0000
0000
1000
0000
,
0000
0000
1000
0000
0000
1000
0000
0000
1001
0000
0000
0100
0000
0000
0010
0000
,
2000
3010
0002
0100
,
1000
0103
0020
1030
,
0200
1300
0002
1000
,
0100
0013
2000
3010
,
0002
0103
0020
1000
,
0100
1030
0101
1010
,
0001
0100
0001
0100
0010
1000
0010
1000
,
0001
0010
0001
0010
0100
1000
0100
1000
,
0010
0100
0010
0100
0001
1000
0001
1000
,
0001
0010
0100
1000
0010
0100
0001
2000
,
0002
0000
0000
3003
,
0020
0000
2030
0000
,
3200
0000
0302
0000
,
2003
0000
3020
0000
,
0230
0000
0302
0000
,
1003
0010
1000
0000
0001
0000
0100
0000
,
0001
0010
0001
0000
1000
0000
0100
0000
,
1000
0010
0100
0000
0001
0000
1000
0000
,
0001
0010
0100
0000
0001
0000
1000
0000
,
0011
0000
1000
0100
0000
0011
0000
1100
,
0000
0001
0100
0010
1000
0010
0100
0001
,
1000
0000
0100
1000
0000
0011
0000
1010
,
0000
0001
0100
0010
0010
1000
0100
0010
,
0001
0000
1000
0010
0000
1010
0000
0101
,
0000
1000
0001
0100
0010
0010
1000
0001
,
1000
0011
1100
0101
,
0010
1001
1100
0011
,
0100
1001
0011
1100
,
0010
1100
0101
1100
,
0001
0010
0001
0010
0100
1000
0100
1000
,
0010
0100
0010
0100
0001
0010
0100
1000
,
0001
0000
0100
0000
0001
0100
0001
0000
1000
0000
0100
0000
0010
0000
0001
0000
,
1000
0010
1000
0000
0001
0100
0001
0000
1000
0000
0010
0000
0100
0000
0001
0000
,
2000
0000
0002
3003
,
1001
0000
1100
0000
0101
0000
0001
0100
,
0010
0100
0001
1000
0100
0010
0001
1000
,
0001
0000
1010
0000
0101
0000
1000
0010
,
1000
0100
0010
0001
0100
0010
1000
0001
,
1000
0000
0011
0000
1010
0000
0001
0100
,
0010
1000
0010
0100
0100
0001
1000
0010
,
1000
0000
0011
0000
1001
0000
0001
0100
,
0010
0010
1000
0100
0010
0001
0100
0100
,
0001
0000
1001
0000
1010
0000
0001
0100
,
0010
0010
1000
0100
0010
0001
0100
0100
,
0010
0000
1001
0000
0011
0000
1000
0010
,
0100
0001
0100
0010
1000
0010
0100
0100
,
0001
0000
1100
0000
0011
0000
1000
0010
,
0100
0001
0100
0010
1000
0010
0100
0001
,
0001
0000
0001
0100
0100
0000
1001
0000
,
0110
0000
1000
0001
0001
0000
1000
0002
,
2000
0000
0000
0000
,
0000
0000
0000
0000
,
0000
0000
0000
0000
,
0000
0000
0000
0000
,
3003
0000
0000
0000
;

//---------------dance-double - ----------------
#NOTES:
     dance-double:
     :
     Hard:
     11:
     0.484,0.514,0.352,0.275,0.134:
00000000
00000000
00000000
00000000
,
00000000
00000000
00000000
00000000
,
00000000
00000000
00000000
00000000
,
00000000
00000000
00000000
00000000
,
00000000
00000000
00000000
00000000
,
20000000
00000000
30020000
00000000
00130000
00001000
00020000
00000000
,
00030020
00000000
00002030
00000000
00003001
00000100
00000020
00000000
,
00002030
00000000
00003200
00000000
00010300
00001000
02000000
00000000
,
03200000
00000000
20300000
00000000
30020000
00000000
00200000
00330000
,
00010000
00000000
00000000
00010000
00000100
00000000
00000000
00000000
00001000
00000000
00000000
00001000
00000010
00000000
00000000
00000000
,
00000100
00000000
00000000
00000100
00000001
00000000
00000000
00000001
00001000
00000000
00000000
00001000
00000001
00000000
00000000
00000000
,
00001000
00000000
00000000
00001000
00000010
00000000
00000000
00000000
00000100
00000000
00000000
00000100
00010000
00000000
00000000
00000000
,
00010000
00000000
00000000
00010000
00001000
00000000
00000000
00001000
00100000
00000000
00000000
00100000
00010000
00000000
00000000
00000000
,
00010000
00000000
00000000
00010000
01000000
00000000
00000000
00000000
01000000
00000000
00000000
01000000
00100000
00000000
00000000
00000000
,
00100000
00000000
00000000
00100000
10000000
00000000
00000000
00000000
10000000
00000000
00000000
10000000
00010000
00000000
00000000
00000000
,
00100000
00000000
00000000
00100000
00010000
00000000
00000000
00000000
00010000
00000000
00000000
00010000
00001000
00000000
00000000
00000000
,
00001000
00000000
00000000
00001000
00000100
00000000
00000000
00000100
00000010
00000000
00000000
00000010
00000001
00000000
00000000
00000000
,
00001000
00000000
00000100
00000000
00000000
00000100
00000000
00000000
00001100
00000000
00000000
00001000
00000000
00000000
00001000
00000000
,
00000000
00000000
00010000
00000000
00000000
00010000
00000000
00000000
00011000
00000000
00000000
00001000
00000000
00000000
00100000
00000000
,
00000000
00000000
00010000
00000000
00000000
00010000
00000000
00000000
10010000
00000000
00000000
10000000
00000000
00000000
00100000
00000000
,
00000000
00000000
01000000
00000000
00000000
01000000
00000000
00000000
01010000
00000000
00000000
00010000
00000000
00000000
00100000
00000000
,
00000000
00000000
00100000
00000000
00000000
00100000
00000000
00000000
00011000
00000000
00000000
00010000
00000000
00000000
00010000
00000000
,
00000000
00000000
00000100
00000000
00000000
00000100
00000000
00000000
00001010
00000000
00000000
00000001
00000000
00000000
00000001
00000000
,
00000000
00000000
00000100
00000000
00000000
00001010
00000000
00000000
00000100
00000000
00000000
00001000
00000000
00000000
00010000
00000000
,
00000000
00000000
00001000
00000000
00000000
00100000
00000000
00000000
00010000
00000000
00000000
10000000
00000000
00000000
01000000
00000000
,
20000000
30010000
02000000
00010000
,
00100000
03001000
00020000
00031000
,
00020000
00030100
00002000
00000001
,
00000010
00003100
00000200
00010300
,
00002000
01003000
00020000
00100000
,
01000000
10030000
00200000
01300000
,
00010000
00100000
01000000
00000000
10000000
00100000
01000000
00000000
,
00010000
00100000
00001000
00000000
00010000
00000100
00001000
00000000
,
00000001
00000100
00000001
00000100
00000010
00001000
00000010
00001000
,
00000100
00010000
00001000
00100000
00010000
01000000
00100000
20000000
,
00020000
00000000
00000000
30030000
,
00200000
00000000
00000000
00000000
,
02300000
00000000
00000000
00000000
,
03002000
00000000
00000000
00000000
,
00023000
00000000
00000000
00000000
,
00030010
00000100
00001001
00001100
,
00000100
00010000
00011000
01001000
,
01000000
00100000
10010000
01100000
,
20020000
30030000
00220000
00330000
,
00100000
00000000
00001000
00010000
00000000
00011000
00000000
00001100
,
00000000
00001000
00000010
00000100
00000001
00000000
00001001
00000000
,
00000010
00000000
00001000
00000100
00000000
00010000
00000000
00011000
,
00000000
00001000
00100000
00010000
01000000
00000000
00100000
00000000
,
10010000
00000000
10000000
00100000
00000000
01000000
00000000
10010000
,
00000000
00100000
00001000
00010000
00001000
00000000
00010000
00000100
,
00001000
00000000
00001001
00000000
00000110
00000000
00001000
00000100
,
00010000
00000000
00011000
00000000
00101000
00000000
00100000
00010000
,
01000000
00000000
10100000
00000000
01010000
00000000
00100000
10000000
,
01000000
00110000
00101000
00101000
,
00010000
00000100
00010000
00000100
00001000
00000010
00001000
00000010
,
00000100
00000001
00001000
00000010
00001000
00000100
00010000
00001000
,
00100000
00010000
01000000
00100000
10000000
01000000
00010000
00100000
,
00001000
00010000
00000100
00001000
00000001
00000010
00000100
00010000
,
00002000
00000000
00020000
00033000
,
00110000
00000000
01010000
00000000
10010000
00000000
00100000
00001000
,
00000000
00010000
00000000
00000100
00001000
00000010
00000100
00000001
,
00001000
00000000
00001001
00000000
00001100
00000000
00000100
00010000
,
00000000
00001000
00100000
00010000
01000000
00100000
10000000
00010000
,
00100000
00000000
00110000
00000000
00011000
00000000
00010000
00000100
,
00000000
00001000
00000010
00000100
00000001
00000100
00000010
00001000
,
00000100
00000000
00001100
00000000
00011000
00000000
00001000
00100000
,
00010000
01000000
00100000
10000000
00010000
00100000
00001000
00010000
,
00001000
00000000
00010100
00000000
00001010
00000000
00000001
00000100
,
00000010
00001000
00000100
00010000
00001000
00100000
00010000
00000000
,
01000000
00000000
00100000
00000000
10010000
00000000
00100000
00001000
,
00010000
00000100
00001000
00000010
00000100
00000001
00001000
00000100
,
00000100
00000000
00001001
00000000
00001010
00000000
00000010
00010000
,
00000000
00000100
00010000
00001000
00000000
00001000
00100000
00010000
,
01000000
00000000
00100000
10010000
10010000
00000000
00100000
00000000
,
00001000
00000000
00010000
00000100
00000100
00000000
00002000
00020000
,
00000000
00000000
00000000
00000000
,
00000000
00000000
00000000
00000000
,
00000000
00000000
00000000
00000000
,
00000000
00000000
00000000
00000000
,
00033000
00000000
00000000
00000000
;

//---------------dance-double - ----------------
#NOTES:
     dance-double:
     :
     Medium:
     7:
     0.334,0.453,0.031,0.214,0.000: // measure 1
00000000
00000000
00000000
00000000
,  // measure 2
00000000
00000000
00000000
00000000
,  // measure 3
00000000
00000000
00000000
00000000
,  // measure 4
00000000
00000000
00000000
00000000
,  // measure 5
00000000
00000000
00000000
00000000
,  // measure 6
00200000
00300000
00002000
00003000
,  // measure 7
00020000
00030000
00000020
00000030
,  // measure 8
00002000
00003000
00000200
00000300
,  // measure 9
00000020
00000030
00000002
00000003
,  // measure 10
00001000
00000010
00001000
00000100
,  // measure 11
00010000
00001000
00100000
00010000
,  // measure 12
10000000
01000000
00100000
00010000
,  // measure 13
01000000
00001000
00010000
00000100
,  // measure 14
00001000
00000010
00000100
00000001
,  // measure 15
00001000
00000100
00010000
00001000
,  // measure 16
00100000
00010000
01000000
00100000
,  // measure 17
10000000
00010000
00100000
00001000
,  // measure 18
00010000
00000010
00001000
00000101
,  // measure 19
00000010
00001000
00000100
00011000
,  // measure 20
00001000
00100000
00010000
01000000
,  // measure 21
00100000
10000000
00100000
10010000
,  // measure 22
00100000
00010000
01000000
00100000
,  // measure 23
10000000
01000000
00100000
00001000
,  // measure 24
00010000
00000010
00001000
00000001
,  // measure 25
00000100
00000010
00000100
00000010
00000100
00000010
00000100
00000000
,  // measure 26
00000002
00000103
00000020
00001030
,  // measure 27
00000100
00000000
00010000
00000000
00001000
00100000
00001000
00000000
,  // measure 28
00200000
00310000
02000000
03100000
,  // measure 29
10000000
00000000
00010000
00000000
00100000
00010000
00100000
00000000
,  // measure 30
00002000
00010000
00020000
00033000
,  // measure 31
00000200
00001000
00002000
00003300
,  // measure 32
00000010
00000100
00000001
00000000
00001000
00000000
00000100
00000000
,  // measure 33
00000010
00001000
00000100
00000000
00010000
00000000
00001000
00000000
,  // measure 34
00200000
00000000
00320000
00000000
,  // measure 35
01030000
00100000
20020000
30030000
,  // measure 36
00200000
00000000
00000000
00000000
,  // measure 37
01300000
00000000
00001000
00000000
,  // measure 38
00010000
00000000
00000100
00000000
,  // measure 39
00001000
00000000
00000001
00000000
,  // measure 40
00001000
00000000
00000100
00000000
,  // measure 41
00010000
00010000
00001000
00001000
,  // measure 42
00100000
00010000
01000000
10000000
,  // measure 43
00100000
00100000
01000000
01000000
,  // measure 44
00001000
00010000
00000010
00001000
,  // measure 45
00000001
00000000
00000001
00001000
00000000
00000100
00000000
00010000
,  // measure 46
00000000
00001000
01000000
00010000
,  // measure 47
10000000
00000000
10000000
00010000
00000000
00100000
00000000
00001000
,  // measure 48
00000000
00010000
00000100
00001000
,  // measure 49
00000001
00000100
00000001
00000000
00001000
00000000
00000100
00000000
,  // measure 50
00010000
00001000
00010000
00000000
00001000
00000000
00100000
00000000
,  // measure 51
00010000
00000000
01000000
00100000
10000000
00000000
00100000
00000000
,  // measure 52
01000000
00000000
00010000
00100000
00010000
00000000
01000000
00000000
,  // measure 53
00001000
00000000
00010000
00001000
00010000
00000000
00000100
00000000
,  // measure 54
00001000
00000000
00000010
00000100
00000010
00000000
00001000
00000000
,  // measure 55
00000001
00000100
00000010
00001000
,  // measure 56
00000100
00010000
00001000
00100000
,  // measure 57
00010000
01000000
00010000
01000000
00010000
01000000
00010000
00000000
,  // measure 58
00100000
10000000
00100000
10000000
00100000
10000000
00100000
00000000
,  // measure 59
02000000
00000000
00200000
03300000
,  // measure 60
10000000
00000000
00100000
00000000
01000000
00000000
00010000
00100000
,  // measure 61
00000000
00001000
00010000
00000100
,  // measure 62
00001000
00000000
00000001
00000000
00000100
00000000
00000010
00000100
,  // measure 63
00000000
00000010
00001000
00000100
,  // measure 64
00010000
00000000
00001000
00000000
00100000
00000000
00010000
01000000
,  // measure 65
00000000
00000000
00100000
00000000
10000000
00100000
10000000
00000000
,  // measure 66
00100000
00000000
01000000
00000000
00010000
00000000
00100000
00010000
,  // measure 67
00000000
00000000
00100000
00000000
00001000
00010000
00001000
00000000
,  // measure 68
00010000
00000000
00000100
00000000
00001000
00000000
00000001
00001000
,  // measure 69
00000000
00000100
00010000
00001000
,  // measure 70
00100000
00000000
00010000
00000000
01000000
00000000
00100000
10000000
,  // measure 71
00000000
00010000
00100000
00001000
,  // measure 72
00010000
00000000
00000100
00000000
00001000
00000000
00000010
00000100
,  // measure 73
00000001
00000000
00001000
00000000
00000100
00000000
00010000
00001000
,  // measure 74
00200000
00000000
00320000
00000000
,  // measure 75
02030000
00000000
03002000
00000000
,  // measure 76
00020000
00000000
00000000
00000000
,  // measure 77
00000000
00000000
00000000
00000000
,  // measure 78
00000000
00000000
00000000
00000000
,  // measure 79
00000000
00000000
00000000
00000000
,  // measure 80
00033000
00000000
00000000
00000000
;

//---------------dance-single - ----------------
#NOTES:
     dance-single:
     :
     Medium:
     7:
     0.339,0.453,0.031,0.214,0.000:
0000
0000
0000
0000
,
0000
0000
0000
0000
,
0000
0000
0000
0000
,
0000
0000
0000
0000
,
0000
0000
0000
0000
,
0020
0030
0200
0300
,
0002
0003
2000
3000
,
0002
0003
0200
0300
,
0020
0030
2000
3000
,
0001
0100
0010
1000
,
0001
1000
0010
0100
,
0001
0010
0100
1000
,
1000
0100
0010
0001
,
1000
0010
0100
0001
,
0010
0100
1000
0001
,
0010
0001
0100
1000
,
0010
1000
0100
0001
,
0010
0010
0100
1001
,
0100
0100
0010
1001
,
1000
0010
0001
0100
,
1000
0100
0010
1001
,
0010
0001
0100
1000
,
0010
1000
0100
0001
,
0010
0100
0001
1000
,
0001
1000
0001
1000
0001
1000
0001
0000
,
2000
3100
0020
0031
,
0100
0000
0010
0000
1000
0001
1000
0000
,
0020
0130
0002
1003
,
0001
0000
0100
0000
0010
1000
0010
0000
,
2000
0001
0002
3003
,
0200
0010
0020
0330
,
0010
0100
0001
0000
1000
0000
0100
0000
,
0010
0001
0100
0000
0001
0000
1000
0000
,
0020
0000
2030
0000
,
3100
0010
2002
3003
,
0020
0000
0000
0000
,
0130
0000
1000
0000
,
0001
0000
0100
0000
,
0010
0000
1000
0000
,
0001
0000
0010
0000
,
0001
0001
1000
1000
,
0010
0001
0100
1000
,
0010
0010
0100
0100
,
1000
0001
0010
0010
,
1000
0000
0001
1000
0000
0100
0000
0010
,
0000
0001
0100
0010
,
1000
0000
1000
0001
0000
0010
0000
0100
,
0000
1000
0100
0010
,
0001
0100
0001
0000
1000
0000
0100
0000
,
0001
1000
0001
0000
1000
0000
0010
0000
,
0001
0000
0100
0010
1000
0000
0010
0000
,
0100
0000
0001
0010
0001
0000
0100
0000
,
1000
0000
0001
1000
0001
0000
0100
0000
,
0010
0000
1000
0001
1000
0000
0010
0000
,
0100
0010
0100
0000
0010
0100
0010
0000
,
1000
0001
1000
0000
0001
1000
0001
0000
,
0001
0100
0001
0100
0001
0100
0001
0000
,
0010
1000
0010
1000
0010
1000
0010
0000
,
0200
0000
0020
0330
,
1000
0000
0010
0000
0100
0000
0001
1000
,
0000
1000
0001
0100
,
0010
0000
1000
0000
0001
0000
1000
0100
,
0000
0010
0001
0100
,
1000
0000
0010
0000
0100
0000
0001
1000
,
0000
0000
0010
0000
1000
0010
1000
0000
,
0010
0000
0100
0000
0001
0000
0010
0001
,
0000
0000
0100
0000
1000
0001
1000
0000
,
0001
0000
0100
0000
1000
0000
0001
1000
,
0000
0100
0001
0010
,
1000
0000
0010
0000
0001
0000
1000
0001
,
0000
0100
0010
1000
,
0001
0000
0100
0000
1000
0000
0010
0100
,
0001
0000
1000
0000
0100
0000
0001
1000
,
0020
0000
0032
0000
,
0203
0000
2300
0000
,
0002
0000
0000
0000
,
0000
0000
0000
0000
,
0000
0000
0000
0000
,
0000
0000
0000
0000
,
3003
0000
0000
0000
;

//---------------dance-single - ----------------
#NOTES:
     dance-single:
     :
     Beginner:
     1:
     0.083,0.151,0.000,0.145,0.000:
0000
0000
0000
0000
,
0000
0000
0000
0000
,
0000
0000
0000
0000
,
0000
0000
0000
0000
,
0000
0000
0000
0000
,
0002
0000
0003
0000
,
2000
0000
3000
0000
,
0020
0000
0030
0000
,
0200
0000
0300
0000
,
0002
0000
0000
0000
,
0003
0000
0000
0000
,
2000
0000
0000
0000
,
3000
0000
0000
0000
,
0020
0000
0000
0000
,
0030
0000
0000
0000
,
0200
0000
0000
0000
,
0300
0000
0000
0000
,
0002
0000
0003
0000
,
0000
0000
1000
0000
,
2000
0000
3000
0000
,
0000
0000
0100
0000
,
0200
0000
0300
0000
,
0000
0000
0010
0000
,
0010
0000
0000
0000
,
0010
0000
0000
0000
,
0200
0000
0300
0000
,
0000
0000
1000
0000
,
2000
0000
3000
0000
,
0000
0000
0001
0000
,
0002
0000
0003
0000
,
0000
0000
0100
0000
,
0200
0000
0000
0000
,
0300
0000
0000
0000
,
0020
0000
0000
0000
,
0030
0000
0000
0000
,
0000
0000
0000
0000
,
1000
0000
0000
0000
,
0000
0000
0000
0000
,
0001
0000
0000
0000
,
0000
0000
0000
0000
,
0100
0000
0000
0000
,
0000
0000
0000
0000
,
0010
0000
0000
0000
,
0000
0000
0000
0000
,
1000
0000
0000
0000
,
0001
0000
0000
0000
,
1000
0000
0000
0000
,
0001
0000
0000
0000
,
0100
0000
0000
0000
,
0010
0000
0000
0000
,
0100
0000
0000
0000
,
0100
0000
0000
0000
,
0100
0000
0000
0000
,
0100
0000
0000
0000
,
0020
0000
0000
0000
,
0000
0000
0030
0000
,
0200
0000
0000
0000
,
0000
0000
0300
0000
,
0000
0000
0000
0000
,
1000
0000
0000
0000
,
0001
0000
0000
0000
,
0100
0000
0000
0000
,
0010
0000
0000
0000
,
1000
0000
0000
0000
,
0100
0000
0000
0000
,
0010
0000
0000
0000
,
0001
0000
0000
0000
,
1000
0000
0000
0000
,
0001
0000
0000
0000
,
1000
0000
0000
0000
,
0001
0000
0000
0000
,
0100
0000
0000
0000
,
0010
0000
0000
0000
,
0100
0000
0000
0000
,
0010
0000
0000
0000
,
0200
0000
0000
0000
,
0000
0000
0000
0000
,
0000
0000
0000
0000
,
0000
0000
0000
0000
,
0300
0000
0000
0000
;

//---------------dance-single - ----------------
#NOTES:
     dance-single:
     :
     Easy:
     2:
     0.170,0.211,0.031,0.283,0.000:
0000
0000
0000
0000
,
0000
0000
0000
0000
,
0000
0000
0000
0000
,
0000
0000
0000
0000
,
0000
0000
0000
0000
,
0002
0000
0003
0000
,
2000
0000
3000
0000
,
0020
0030
0200
0300
,
0020
0030
0200
0300
,
0000
0001
0001
0001
,
0000
1000
1000
1000
,
0000
0010
0010
0010
,
0000
0100
0100
0100
,
0000
0001
0001
0001
,
0000
1000
1000
1000
,
0000
0010
0010
0010
,
0000
0100
0100
0100
,
0100
0000
0002
0000
,
0003
0000
1000
0000
,
0010
0000
0200
0000
,
0300
0000
0001
0000
,
1000
0000
0020
0000
,
0030
0000
0100
0000
,
0002
0000
0003
0000
,
2000
0000
3000
0000
,
1000
0000
0200
0000
,
0300
0000
0010
0000
,
0001
0000
0200
0000
,
0300
0000
0010
0000
,
1000
0000
0002
0000
,
0003
0000
0200
0000
,
0020
0000
0000
0000
,
0000
0000
0330
0000
,
2002
0000
0000
0000
,
0000
0000
3003
0000
,
0000
0000
0000
0000
,
0010
0000
0000
0000
,
1000
0000
0000
0000
,
0100
0000
0000
0000
,
0001
0000
0000
0000
,
0010
0000
0010
0000
,
0001
0000
0001
0000
,
0100
0000
0100
0000
,
1000
0000
1000
0000
,
0002
0000
0003
0000
,
2000
0000
3000
0000
,
0020
0000
0030
0000
,
0200
0000
0300
0000
,
0001
0000
0001
0000
,
1000
0000
1000
0000
,
0000
0100
0200
0300
,
0000
0010
0020
0030
,
0000
1000
2000
3000
,
0000
0001
0002
0003
,
0002
0000
0003
0000
,
2000
0000
3000
0000
,
0020
0000
0030
0000
,
0220
0000
0330
0000
,
0001
0000
1000
0000
,
0000
0001
0002
0003
,
0000
0000
1000
0000
,
0000
1000
2000
3000
,
0000
0000
0010
0000
,
0000
0100
0200
0300
,
0000
0000
0100
0000
,
0000
0001
0002
0003
,
0000
0000
1001
0000
,
0000
1000
0100
1000
,
0000
0000
0010
0000
,
0000
0001
0100
0001
,
0000
0000
0100
0000
,
0000
1000
0001
1000
,
0000
0000
0010
0000
,
0100
0000
0001
0000
,
1000
0000
0001
0000
,
2002
0000
0000
0000
,
0000
0000
0000
0000
,
0000
0000
0000
0000
,
0000
0000
0000
0000
,
3003
0000
0000
0000
;

//---------------dance-double - ----------------
#NOTES:
     dance-double:
     :
     Easy:
     2:
     0.122,0.272,0.008,0.076,0.000: // measure 1
00000000
00000000
00000000
00000000
,  // measure 2
00000000
00000000
00000000
00000000
,  // measure 3
00000000
00000000
00000000
00000000
,  // measure 4
00000000
00000000
00000000
00000000
,  // measure 5
00000000
00000000
00000000
00000000
,  // measure 6
00002000
00003000
00002000
00003000
,  // measure 7
00020000
00030000
00020000
00030000
,  // measure 8
00002000
00003000
00020000
00030000
,  // measure 9
00002000
00003000
00020000
00030000
,  // measure 10
00000100
00000000
00000000
00000000
,  // measure 11
00001000
00000000
00000000
00000000
,  // measure 12
00000001
00000000
00000000
00000000
,  // measure 13
00000010
00000000
00000000
00000000
,  // measure 14
00001000
00000000
00000000
00000000
,  // measure 15
00000100
00000000
00000000
00000000
,  // measure 16
00001000
00000000
00000000
00000000
,  // measure 17
00010000
00000000
00000000
00000000
,  // measure 18
00001000
00000000
00001000
00000000
,  // measure 19
00000000
00000000
00100000
00000000
,  // measure 20
00100000
00000000
00100000
00000000
,  // measure 21
00000000
00000000
00010000
00000000
,  // measure 22
00010000
00000000
00010000
00000000
,  // measure 23
00000000
00000000
10000000
00000000
,  // measure 24
10000000
00000000
00000000
00000000
,  // measure 25
00010000
00000000
00000000
00000000
,  // measure 26
01000000
00000000
01000000
00000000
,  // measure 27
00000000
00000000
00010000
00000000
,  // measure 28
00010000
00000000
00010000
00000000
,  // measure 29
00000000
00000000
00100000
00000000
,  // measure 30
00100000
00000000
00100000
00000000
,  // measure 31
00000000
00000000
00001000
00000000
,  // measure 32
00001000
00000000
00000000
00000000
,  // measure 33
00010000
00000000
00000000
00000000
,  // measure 34
00000100
00000000
00000000
00000000
,  // measure 35
00001000
00000000
00000000
00000000
,  // measure 36
00000000
00000000
00000000
00000000
,  // measure 37
00000010
00000000
00000000
00000000
,  // measure 38
00000001
00000000
00000000
00000000
,  // measure 39
00000100
00000000
00000000
00000000
,  // measure 40
00001000
00000000
00000000
00000000
,  // measure 41
00000100
00000000
00000000
00000000
,  // measure 42
00001000
00000000
00000000
00000000
,  // measure 43
00010000
00000000
00000000
00000000
,  // measure 44
00001000
00000000
00000000
00000000
,  // measure 45
00100000
00000000
00010000
00000000
,  // measure 46
00100000
00000000
00000000
00000000
,  // measure 47
10000000
00000000
01000000
00000000
,  // measure 48
10000000
00000000
00000000
00000000
,  // measure 49
00010000
00000000
00100000
00000000
,  // measure 50
00010000
00000000
00000000
00000000
,  // measure 51
00000000
00100000
00100000
00000000
,  // measure 52
00000000
00001000
00001000
00000000
,  // measure 53
00000000
00010000
00010000
00000000
,  // measure 54
00000000
00001000
00001000
00000000
,  // measure 55
00010000
00000000
00000100
00000000
,  // measure 56
00001000
00000000
00000100
00000000
,  // measure 57
00000010
00000000
00000001
00000000
,  // measure 58
00001000
00000000
00000100
00000000
,  // measure 59
00000000
00000000
00000000
00000000
,  // measure 60
00000000
00010000
00010000
00000000
,  // measure 61
00000000
00000000
00001000
00000000
,  // measure 62
00000000
00100000
00100000
00000000
,  // measure 63
00000000
00000000
00010000
00000000
,  // measure 64
00000000
01000000
01000000
00000000
,  // measure 65
00000000
00000000
00100000
00000000
,  // measure 66
00000000
10000000
10000000
00000000
,  // measure 67
00010000
00000000
00100000
00000000
,  // measure 68
00000000
00001000
00001000
00000000
,  // measure 69
00000000
00000000
00010000
00000000
,  // measure 70
00000000
00010000
00010000
00000000
,  // measure 71
00000000
00000000
00000100
00000000
,  // measure 72
00000000
00001000
00001000
00000000
,  // measure 73
00000001
00000000
00000010
00000000
,  // measure 74
00001000
00000000
00000100
00000000
,  // measure 75
00010000
00000000
00001000
00000000
,  // measure 76
00022000
00000000
00000000
00000000
,  // measure 77
00000000
00000000
00000000
00000000
,  // measure 78
00000000
00000000
00000000
00000000
,  // measure 79
00000000
00000000
00000000
00000000
,  // measure 80
00033000
00000000
00000000
00000000
;
