#TITLE:RAMPAGE;
#SUBTITLE:;
#ARTIST:USAO;
#TITLETRANSLIT:;
#SUBTITLETRANSLIT:;
#ARTISTTRANSLIT:;
#GENRE:;
#CREDIT:;
#BANNER:RAMPAGE.png;
#BACKGROUND:RAMPAGE-bg.png;
#LYRICSPATH:;
#CDTITLE:;
#MUSIC:RAMPAGE.ogg;
#OFFSET:0.160000;
#SAMPLESTART:23.210991;
#SAMPLELENGTH:15.180004;
#SELECTABLE:YES;
#DISPLAYBPM:97.000000:195.000000;
#BPMS:0.000000=195.000000
,156.000000=97.500000
,164.000000=195.000000
,420.000000=97.500000
;
#STOPS:
;
#BGCHANGES:;
#KEYSOUNDS:;
#ATTACKS:;

//---------------dance-single - ----------------
#NOTES:
     dance-single:
     :
     Hard:
     16:
     0.827184,1.111836,0.616293,0.143324,0.272316,808.000000,722.000000,86.000000,20.000000,0.000000,0.000000,0.827184,1.111836,0.616293,0.143324,0.272316,808.000000,722.000000,86.000000,20.000000,0.000000,0.000000:
0000
0000
0000
0000
,
0000
0000
0000
0000
,
0000
0000
0000
0000
,
0000
0000
0000
0000
,
0000
0000
0000
0000
,
0000
0000
0000
0000
,
0000
0000
0000
0000
,
1001
0000
1000
0001
1001
0000
0001
0000
,
1001
0000
0001
0100
0001
0100
0100
0100
,
0110
0000
0000
0000
1000
0000
0001
0100
0001
0000
1000
0000
0100
0000
0010
0000
,
0002
0000
0103
0010
0110
0000
1001
0000
,
0001
0100
0001
0100
1000
0100
1000
0100
,
0001
0000
0100
0000
0001
0000
0100
0000
0010
0000
1000
0010
1000
0000
0010
0000
,
0100
0001
0100
0001
0100
0010
0100
0010
,
0100
0000
0001
0000
0100
0000
0001
0000
1000
0000
0010
0100
0010
0000
1000
0000
,
0001
0100
0001
0100
0010
1000
0010
1000
,
0001
0000
0100
0000
0001
0000
0100
0000
0010
0000
0100
0010
0100
0000
0001
0000
,
1000
0000
0001
1000
0001
0000
1000
0010
1000
0000
0001
0100
0001
0000
1000
0100
,
2000
3002
0203
0310
,
1010
0000
0101
0100
0101
0000
1010
0000
,
0110
0010
0110
0000
1001
0000
0110
0000
,
1000
0010
0100
0001
1000
0010
0100
0001
,
1000
0010
1000
0010
0100
0001
0100
0001
2000
0000
0000
0000
3020
0000
0000
0000
,
0130
0000
0101
0100
0100
0000
0110
0000
,
1000
0010
0000
0000
0010
0100
0000
0000
0100
0001
0000
0000
0001
1000
0000
0000
,
1001
0001
0100
0000
1001
1000
0100
0000
,
0110
0000
0010
0000
1010
0000
0000
0000
0001
0100
0001
0000
1001
0000
0000
0000
,
0110
0000
1001
0001
1001
0000
1100
0000
,
0100
1000
0000
0000
1000
0001
0000
0000
0001
0100
0000
0000
0100
0010
0000
0000
,
1000
0000
0010
0100
0001
0000
1000
0000
0001
0000
0100
0001
1000
0000
0010
0000
,
1000
0100
0010
0001
0100
0110
0110
0000
,
1001
0000
1000
1100
1000
0000
0101
0000
,
0110
0000
1000
1010
1000
0010
0010
0010
,
1000
0000
0101
0001
0100
0000
1000
0001
,
1000
0000
0000
0000
0010
0000
1000
0000
0100
0000
1000
0010
0100
0000
0001
0000
,
0100
0000
0010
0000
0100
0000
0001
0100
0010
0000
0100
0000
0010
0000
1000
0000
,
0010
0100
0001
1000
0100
0010
0001
1000
,
0001
0000
0100
0000
0010
0000
1000
0000
0001
1000
0100
0000
1000
0001
0100
0000
,
0010
0100
1000
0100
0010
0000
2000
0000
0000
0000
0001
0000
0001
0000
3001
0000
,
1002
0000
0000
0100
0000
0000
0100
0000
0100
0000
0000
0100
0000
0100
0100
0100
,
0100
0000
0000
0100
0000
0000
0100
0100
0200
0000
0000
0000
0000
0000
0303
0000
,
1001
0000
1000
0001
0000
0100
0000
0100
,
0000
0000
0000
0001
0001
1000
1000
0001
,
0001
0010
0010
0100
0100
1000
1000
0001
,
0001
0100
0010
1000
0010
0100
0001
1000
,
0001
0000
1000
0001
0000
1000
0100
0001
,
0000
0000
0000
0000
1000
0001
1000
0010
1000
0000
0001
0000
0100
0000
0010
0000
,
0010
0000
1000
0000
0100
0000
0010
0000
0001
0000
0010
0000
0100
0000
1000
0001
,
1000
0010
0100
0001
0100
0010
2020
3030
,
0101
0000
0001
1000
0000
1000
0001
1000
,
0010
0000
1000
0000
0100
0000
0001
1000
,
0001
0000
0000
0000
0000
0000
0001
1000
0010
0000
1000
0000
0000
0000
0010
0000
,
0000
1000
0100
0010
0000
0100
0001
0010
,
0001
1000
0001
0100
0000
1000
0001
0100
,
0000
0000
0001
0000
0001
0000
1000
0010
,
0001
0000
0000
0000
0100
0000
0010
0100
0010
0000
0100
0000
0000
0000
1001
0000
,
0000
0010
0100
0000
1001
0000
0110
0000
,
1001
0000
0101
0001
0000
0100
1100
0100
,
0000
0000
1000
0000
0010
0000
0100
0001
0100
0000
0010
0000
1000
0000
0001
0000
,
0001
0000
0100
0000
0100
0000
0010
0000
0010
0000
1000
0000
1000
0000
0001
0100
,
0001
1000
0100
0010
0001
0100
0010
1000
,
0010
0000
1001
0000
0001
0100
0010
1000
,
0000
0001
1000
0000
0001
0100
0010
2000
,
0000
3001
1000
0000
1000
0100
0010
0001
,
0200
0320
2030
3002
,
0103
0001
0100
0000
0010
1000
0010
0000
,
0100
0000
0001
0000
0100
0000
0000
0000
0010
0000
1000
0000
0010
0000
1000
0001
,
1000
0000
0001
0000
0100
0000
0001
1000
0001
0000
0010
0000
1000
0000
0100
0000
,
0000
0001
0100
0001
1000
0001
0100
0000
,
1001
1000
1010
0010
0110
0100
0101
0001
,
1001
1000
1100
0100
0110
0010
0011
0001
,
0001
0100
0001
0100
0010
1000
0010
1000
0001
0010
0001
0010
0100
1000
0100
1000
,
0010
0100
1001
1001
,
0101
0000
0000
0000
1000
0000
0010
0000
0100
0000
0001
0100
0001
0000
0001
0000
,
1000
0000
0010
0100
0010
0000
0010
0000
1000
0000
0001
0100
0001
0000
0001
0000
,
1000
0000
0101
0001
1000
0000
0101
0001
,
1000
0000
0010
1000
0100
0010
0001
0100
,
0110
0000
0000
0000
1001
0000
0001
0000
0100
0000
0010
0100
0010
0000
0010
0000
,
1000
0000
0001
0100
0001
0000
0001
0000
1000
0000
0010
0100
0010
0000
0010
0000
,
1000
0001
1000
0001
0100
0010
0100
0010
,
1000
0010
0100
0010
1010
0000
0101
0000
,
1100
0000
0101
0001
0100
0000
0110
0000
,
1010
0000
0001
0100
0010
1000
0100
0010
,
0001
0000
1010
0010
0100
0000
0101
0000
,
1001
0000
0110
0000
1000
0001
1001
0000
,
1000
0100
0010
0001
0100
0010
0100
0010
,
1010
0001
0101
0010
1010
0001
1001
0001
,
0101
0100
1000
0010
0001
0001
1001
0000
,
0220
0000
0000
0330
,
1000
0100
0010
0011
0000
0010
0100
0101
,
0000
0000
1000
0000
0010
0000
0100
0000
0001
0000
1000
0000
0001
0000
0100
0001
,
0100
0000
0100
0000
0010
0000
0010
0000
1000
0000
1000
0000
0001
0000
0100
0001
,
0100
0000
0010
0000
1000
0000
0100
0000
0010
0000
0001
0000
1000
0000
0001
1000
,
0001
0100
0010
1000
0000
0001
0100
0110
,
0000
0000
1000
0000
0100
0000
0010
0000
0001
0000
0101
0000
0001
0000
1000
0001
,
0100
0000
0010
1000
0010
0000
0100
0000
0001
0000
1000
0000
0100
0000
0010
0000
,
0001
0100
0001
0000
0100
0000
0010
0000
1000
0100
1000
0000
1000
0000
0010
0000
,
0100
0101
0100
0000
0010
1010
0010
0000
,
1000
0000
0010
0000
1000
0000
0001
1000
0100
0000
1000
0000
0001
0000
1000
0001
,
0100
0010
0100
0000
1010
1000
1001
0000
,
1000
0000
0100
0000
0010
0000
0001
0000
0100
0000
0010
1000
0010
0000
0100
0001
,
0100
0000
0010
0000
1000
0000
0001
0100
0001
0000
1000
0000
0001
0000
0100
0000
,
0010
1000
0100
0010
0001
1000
0010
1000
,
0010
0010
0100
0100
0001
1000
0001
1000
,
0010
0000
1000
0100
0010
0001
0100
0000
,
1002
0000
0000
1000
0000
0000
1000
0000
1000
0000
0000
1000
0000
1000
1000
1000
,
1000
0000
0000
1000
0000
0000
1000
1000
2000
0000
0000
0000
0000
0000
0000
0000
,
3003
0000
0000
0000
;

//---------------dance-double - ----------------
#NOTES:
     dance-double:
     :
     Hard:
     16:
     0.853801,1.035157,0.709454,0.100327,0.297397,834.000000,735.000000,99.000000,14.000000,0.000000,0.000000,0.853801,1.035157,0.709454,0.100327,0.297397,834.000000,735.000000,99.000000,14.000000,0.000000,0.000000:
00000000
00000000
00000000
00000000
,
00000000
00000000
00000000
00000000
,
00000000
00000000
00000000
00000000
,
00000000
00000000
00000000
00000000
,
00000000
00000000
00000000
00000000
,
00000000
00000000
00000000
00000000
,
00000000
00000000
00000000
00000000
,
01100000
00000000
10000000
01000000
00010000
00000000
01010000
00000000
,
00011000
00000000
00010000
00000100
00001000
00000001
00001000
00000100
,
00001000
00000000
00000100
00010000
00001000
00000000
01001000
00000000
,
00000000
00100000
01000000
00100000
01100000
00000000
10010000
00000000
,
10000000
01000000
10000000
01000000
00010000
01000000
00010000
01000000
,
10000000
01000000
00010000
01000000
10000000
00100000
01000000
00010000
,
00100000
00001000
00100000
00001000
00010000
00000100
00010000
00000100
,
00001000
00000010
00000001
00000010
00001000
00000100
00000010
00000001
,
00001000
00000010
00001000
00000010
00010000
00000100
00010000
00000100
,
00001000
00000010
00000001
00000010
00001000
00000100
00010000
00001000
,
01000000
00000000
00010000
01000000
00010000
00000000
10000000
00100000
10000000
00000000
00010000
10000000
00010000
00000000
10000000
00000000
,
00100000
10100000
00110000
10010000
,
01100000
01100000
01010000
01001000
,
00011000
00011000
00010100
00010010
,
00001010
00001010
00001010
00000000
00001001
00001001
00001001
00000000
,
00000100
00000010
00000100
00000010
00001000
00000100
00000010
00000001
00002000
00000000
00000000
00000000
00003002
00000000
00000000
00000000
,
00000013
00000000
00001100
00000100
00000100
00000000
00010100
00000000
,
00010000
00001000
00000000
00000000
00001000
01000000
00000000
00000000
01000000
00100000
00000000
00000000
00100000
10000000
00000000
00000000
,
11000000
00000000
01010000
00000000
11000000
01000000
11000000
00000000
,
00110000
00000000
00101000
00000000
00101000
00001000
00011000
00000000
,
00010100
00000000
00001000
00001010
00001010
00000000
00000101
00000000
,
00000001
00001000
00000000
00000000
00001000
00000100
00000000
00000000
00000100
00010000
00000000
00000000
00010000
00001000
00000000
00000000
,
00001000
01000000
00100000
10000000
00100000
01000000
00010000
01000000
,
00001000
00010000
00000010
00001000
00001001
00000100
00000101
00000000
,
00001002
00000000
00000103
00000110
00000100
00000000
00001010
00000000
,
00010100
00000000
00010000
00011000
00010000
00001000
00001000
00001000
,
00010000
00000000
00001000
01001000
00001000
00000000
01001000
00000000
,
01010000
00000000
00010000
00100000
01000000
10000000
00010000
10000000
,
10010000
00000000
00000000
00000000
10000000
00000000
00100000
01000000
00010000
00000000
01000000
00000000
00001000
00000000
00010000
00000000
,
00000100
00001000
00000001
00000100
00000010
00001000
00000100
00010000
,
00001000
00001000
00100000
00100000
00010000
00010000
01000000
01000000
,
00200000
00000000
10300000
01000000
00100000
00010000
00010000
00010000
,
20010000
00000000
00000000
00010000
00000000
00000000
00100000
00000000
00100000
00000000
00000000
00100000
00000000
01000000
01000000
01000000
,
01000000
00000000
00000000
00010000
00000000
00000000
00100000
00100000
30200000
00000000
00000000
00000000
00300000
00000000
00000000
00000000
,
01010000
00000000
00001000
00010000
00000000
00000100
00000000
00001000
,
00000000
00000000
00000000
00000001
00000000
00000001
00000000
00001000
,
00000100
00001000
00000100
00010000
00001000
00100000
00010000
01000000
,
00100000
10000000
00010000
00000000
10000000
00010000
01000000
00010000
,
10000000
00000000
00100000
01000000
00000000
00010000
01000000
10000000
,
00000000
00000000
00000000
00000000
00010000
01000000
00100000
01000000
00010000
00000000
00100000
00000000
00001000
00000000
00010000
00000000
,
00000010
00001000
00000001
00001000
00000100
00010000
00001000
01000000
,
00100000
10000000
01000000
00100000
00020000
02000000
00000000
03030000
,
11000000
01010000
00011000
00001100
,
00000101
00000000
00000011
00000000
00001010
00000000
00001100
00001100
,
00001100
00000000
00000000
00000000
00010000
00000000
00000100
00010000
00000100
00000000
00010000
00000000
00001000
00000000
01000000
00000000
,
00100000
10000000
00100000
01000000
00010000
00000000
01010000
01010000
,
01010000
00000000
00100000
10000000
01000000
10000000
00100000
02000000
,
00000000
00000000
03010000
00000000
00110000
00000000
00100000
00001000
,
00010000
00000100
00010000
00000100
00001000
00000001
00001000
00000001
,
00001000
00000100
00010000
00001000
00100000
00010000
01000000
00000000
,
00100000
00000000
10100000
00100000
00000000
01000000
01010000
01000000
,
00000000
00101000
00000000
00100000
00001000
00010000
00000010
00001000
,
00000100
00000010
00000001
00000010
00000100
00001000
00000010
00010000
,
00001000
00000000
00100000
00000000
00010000
00000000
01000000
00000000
00100000
00000000
10000000
00010000
10000000
00000000
00100000
00000000
,
01100000
00000000
01100000
00000000
00010000
10000000
00100000
01000000
,
00100000
10000000
00010000
01000000
00001000
00010000
00000100
00001000
,
00000001
00000001
00001000
00000100
00010000
00010000
00001000
01000000
,
00010000
00100000
01000000
10000000
00100000
00100000
01000000
01000000
,
00010000
00100000
01000000
00000000
00010000
00100000
01000000
00000000
,
00010000
00000000
00100000
00000000
01000000
00000000
00010000
00100000
00010000
00000000
00100000
00000000
00001000
00000000
00010000
00000100
,
00010000
00000010
00001000
00000001
00001000
00000010
00001000
00000100
,
00001000
00000000
00000010
00000000
00010000
00000000
00001000
00100000
00001000
00000000
00100000
00000000
00010000
00000000
01000000
00000000
,
01010000
01000000
11000000
00000000
10100000
00100000
01100000
00000000
,
01001000
00001000
00011000
00000000
00010010
00000010
00000110
00000000
,
00000001
00000100
00000001
00000000
00001000
00000010
00001000
00000000
00000100
00010000
00000100
00010000
00001000
01000000
00001000
01000000
,
00010000
00100000
01000000
10000000
00010000
00000000
10010000
00000000
,
11000000
00000000
00000000
00000000
00110000
00000000
00000000
00000000
01000000
00000000
00001000
00010000
00001000
00000000
01000000
00000000
,
00001000
00000000
00010000
00000100
00010000
00000000
00001000
00000000
01000000
00000000
00010000
01000000
00100000
00000000
10000000
00000000
,
00100000
01010000
00011000
00001100
,
00000101
00000011
00001010
00001001
,
00000110
00000000
00000000
00000000
00001000
00000000
00000100
00000000
00010000
00000000
00000100
00010000
00001000
00000000
00010000
00000000
,
00000100
00000000
00010000
00001000
01000000
00000000
00001000
00000000
00010000
00000000
00001000
00000000
01000000
00000000
00100000
00000000
,
10000000
00000000
01000000
00000000
00100000
00000000
00010000
01000000
00010000
00000000
01000000
00000000
00100000
00000000
10000000
00000000
,
00010000
00000000
00010000
01000000
01100000
00000000
10010000
00000000
,
11000000
00000000
00010000
01000000
00100000
00000000
10100000
00000000
,
10100000
00000000
00010000
01000000
00001000
00010000
00000100
00001000
,
00000001
00000000
00000000
00000000
00001000
00000000
00000100
00001000
00000100
00000000
00001000
00000000
00000100
00000000
00010000
00000000
,
00001000
00000000
00100000
00000000
00100000
00000000
00010000
00000000
01000000
00000000
00100000
01000000
00100000
00000000
01000000
00100000
,
01000000
00010000
00010000
10000000
10010000
10000000
10100000
00100000
,
01100000
00000000
01000000
00000000
01010000
00000000
00010000
00000000
00100000
00001000
00100000
00000000
00000100
00010000
00000100
00000000
,
00001000
00000100
00001000
00000100
00000010
00000001
00000010
00000001
00000100
00000010
00000100
00000000
00000001
00001000
00000001
00000000
,
00000100
00000010
00001000
00000100
00020000
00000000
00032000
00000000
,
01003000
00000000
10100000
00100000
01000000
00010000
00100000
00001000
,
00010000
00000000
00000000
00000000
00000100
00000000
00001000
00000000
00000010
00000000
00000100
00000000
00000001
00000000
00001000
00000001
,
00001000
00000000
00000010
00001000
00000010
00000000
00001000
00000100
00001000
00000000
00000100
00010000
00000100
00000000
00010000
00001000
,
00010000
00000000
00001000
00000000
01000000
00000000
00100000
00000000
10000000
01000000
00100000
00000000
01000000
00100000
00010000
00000000
,
01000000
00000000
00100000
00000000
10000000
00000000
00010000
00000000
01000000
00010000
00100000
00000000
00010000
10000000
01000000
00000000
,
10000000
00000000
00010000
00000000
00100000
00000000
00001000
00000000
00010000
00000100
00001000
00000100
00010000
00000000
00000100
00000000
,
00001000
00000000
00000010
00000000
00000100
00000000
00000001
00000000
00001000
00000100
00000010
00000000
00000100
00000010
00000001
00000000
,
00001000
00000100
00000010
00000100
00001000
00000000
00000010
00000000
00001000
00000000
00000100
00000000
00010000
00000000
00001000
00000000
,
01000000
00000000
00100000
00000000
10100000
00000000
00100000
01000000
00100000
00000000
10000000
00000000
00100000
00000000
01000000
00000000
,
00010000
00000000
01000000
00000000
00001000
00000000
01000000
00000000
00010000
00000000
01000000
00000000
00100000
10000000
00100000
01000000
,
00100000
01000000
00001000
00010000
00000100
00001000
00000001
00001000
,
00000100
00000000
00010000
00000000
00001000
00000000
01000000
00000000
00010000
01000000
00100000
01000000
00010000
00000000
10000000
00100000
,
01000000
00000000
00010000
00000000
00100000
00000000
00001000
00010000
00001000
00000000
00010000
00000000
00000100
00000000
00000010
00000000
,
00000001
00000000
00000010
00000000
00000100
00000000
00001000
00000100
00000010
00000000
00000001
00000000
00001000
00000000
00000100
00000000
,
00010000
00000100
00010000
00000000
00001000
00100000
00001000
00000000
00100000
00000000
00010000
00000000
01000000
00000000
10000000
00000000
,
00200000
00000000
00302000
00000000
,
00010000
00000000
00000000
00010000
00000000
00000000
00010000
00000000
00010000
00000000
00000000
00010000
00000000
00010000
00010000
00010000
,
00010000
00000000
00000000
00010000
00000000
00000000
00010000
00010000
00020000
00000000
00000000
00000000
00000000
00000000
00000000
00000000
,
00033000
00000000
00000000
00000000
;

//---------------dance-double - ----------------
#NOTES:
     dance-double:
     :
     Medium:
     11:
     0.582510,0.651766,0.394141,0.085994,0.000000,569.000000,514.000000,55.000000,12.000000,0.000000,0.000000,0.582510,0.651766,0.394141,0.085994,0.000000,569.000000,514.000000,55.000000,12.000000,0.000000,0.000000:
00000000
00000000
00000000
00000000
,
00000000
00000000
00000000
00000000
,
00000000
00000000
00000000
00000000
,
00000000
00000000
00000000
00000000
,
00000000
00000000
00000000
00000000
,
00000000
00000000
00000000
00000000
,
00000000
00000000
00000000
00000000
,
00100000
00000000
00000000
00010000
00000000
00000000
01000000
00000000
,
00010000
00000000
00000000
00100000
00000000
00001000
00010000
00001000
,
00010000
00000100
00001000
00000100
00001000
00000010
00001000
00000001
,
00000000
00000001
00000010
00000100
00001000
00000000
00001001
00000000
,
00000010
00000000
00001010
00000000
00000010
00001000
00000100
00000000
,
00001000
00000000
00001100
00000000
00000100
00010000
00001000
00000000
,
00100000
00000000
00101000
00000000
00100000
00010000
01000000
00000000
,
00100000
10000000
00100000
01000000
00100000
00000000
10100000
00000000
,
01010000
00000000
10000000
00010000
10000000
00000000
00010000
00000000
,
00100000
00000000
00001000
00010000
00000100
00000000
00001000
00000000
,
00000001
00000000
00001000
00000100
00010000
00000000
00011000
00000000
,
00101000
00110000
00110000
00101000
,
10000000
00010000
01000000
00000000
10010000
00000000
01010000
00000000
,
01001000
00011000
00010100
00001100
,
00000001
00001000
00000100
00001000
00000001
00001000
00000100
00000000
,
00001100
00011000
01010000
10010000
,
00100000
00000000
10000000
00010000
00010000
00000000
01010000
00000000
,
01000000
01010000
10000000
01010000
,
10000000
00200000
01300000
00002000
,
00013000
00000020
00000130
00001001
,
00000010
00000000
00001000
00000001
00000001
00000000
00001100
00000000
,
00000001
00001010
00000001
00001100
,
00000010
00001000
00000100
00000000
00010000
00000000
00001000
00000000
,
01000000
00010000
10000000
00010000
01000000
00000000
10010000
00000000
,
01100000
00000000
10000000
00100000
01000000
00000000
01100000
00000000
,
01000000
00000000
00010000
00100000
00000000
00010000
00100000
00010000
,
00100000
00000000
00001000
00010000
00000010
00000000
00001000
00000000
,
00000001
00000000
00001000
00000100
00000000
00001000
00000100
00010000
,
00002000
00000000
00003000
00100000
00010000
01000000
00100000
10000000
,
00000000
01100000
00000000
00000000
10000000
00000000
01010000
00000000
,
10000000
00100000
01000000
00000000
00001000
00000000
00010000
00000000
,
00000010
00001000
00000100
00000000
00002000
00000000
00003000
00000000
,
00022000
00000000
00000000
00000000
,
00000000
00000000
00033000
00000000
,
00100000
00000000
00000000
00010000
00000000
01000000
00000000
10000000
,
00000000
00000000
00000000
00100000
00000000
00001000
00000000
00010000
,
00000000
00000010
00000000
00001000
00000000
00000001
00000000
00001000
,
00000010
00001000
00000100
00010000
,
00001000
00000000
00001000
00100000
00000000
00010000
00000000
01000000
,
00000000
00000000
00100000
00000000
10000000
00000000
00100000
01000000
,
00000000
00010000
00000000
00100000
00000000
00001000
00000000
00010000
,
00000000
00000010
00000000
00002000
00000000
00000000
00003000
00000000
,
00012000
00010000
00010000
00010000
,
00010000
00010000
00010000
00013000
,
00000000
00000000
00000000
00001000
00000010
00001000
00000000
00000100
,
00000000
00010000
00000000
00000000
00001000
00000000
00100000
00000000
,
00010000
00000000
01000000
00010000
00000000
10000000
00000000
00020000
,
00000000
10000000
00000000
10030000
,
00000000
00000000
00000000
01000000
00001000
00010000
00000000
00000100
,
00000000
00001000
00000000
00000001
00000000
00000000
00000100
00000000
,
00000010
00000000
00001000
00000100
00000000
00001000
00000000
00000001
,
00000000
00000000
00000000
00001000
00000000
00001000
00000000
00000010
,
00001000
00000100
00010000
00001000
,
01000000
00000000
00010000
00000000
10000000
00000000
00100000
10000000
,
00100000
00000000
01000000
01000000
00000000
00010000
00100000
00010000
,
00000000
00100000
00001000
00100000
00000000
00001000
00010000
00000100
,
00000000
00000100
00001000
00000001
00000000
00000001
00001000
00000000
,
00000100
00010000
00000100
00010000
00001000
00000000
00100000
00000000
,
00010000
01000000
00010000
00000000
10000000
01000000
10000000
00000000
,
00010000
01000000
00010000
00000000
00100000
00001000
00010000
00001000
,
00010000
00000010
00001000
00000000
00000010
00001000
00000001
00000000
,
00001000
00000010
00010000
00000000
00000100
00010000
00001000
00010000
,
00001000
01000000
00010000
00000000
10000000
00100000
01000000
00000000
,
00010000
00100000
00001000
00000000
00010000
00000010
00001000
00000000
,
00000001
00000100
00000001
00000100
00001000
00000100
00001000
00000100
,
00000001
00000110
00001100
00011000
,
10010000
00000000
00100000
00000000
10000000
00010000
00010000
00010000
,
10000000
00010000
00010000
00010000
10000000
00010000
00010000
00010000
,
10000000
01000000
00100000
00000000
01000000
00010000
00100000
00000000
,
00001000
00010000
00001000
00000000
00010000
00000010
00001000
00000000
,
00000001
00000000
00001100
00000000
00000001
00001000
00001000
00001000
,
00000001
00001000
00001000
00001000
00000001
00001000
00001000
00001000
,
00000010
00001000
00000100
00000000
00010000
00001000
00100000
00000000
,
00010000
01000000
00100000
10000000
00010000
00100000
00001000
00010000
,
00000010
00000000
00000100
00000001
00001000
00000000
00001001
00000000
,
00001001
00000000
00001000
00000100
00010000
00000100
00001000
00000100
,
00010000
00000000
00001000
00100000
00010000
00000000
10010000
00000000
,
01010000
00000000
10000000
00100000
01000000
00010000
01000000
00000000
,
00001000
00010000
00001000
00010000
00000100
00000000
00001100
00000000
,
00000011
00000000
00000001
00000100
00001000
00000100
00000001
00000000
,
00000100
00000010
00001000
00000010
00010000
00000010
00001000
00000010
,
00000100
00001100
00011000
01010000
,
10010000
00000000
00100000
00010000
00000000
01000000
00010000
10000000
,
00000000
00100000
00010000
00100000
00000000
00001000
00010000
00000100
,
00010000
00001000
00010000
00001000
00010000
00001000
00010000
00000000
,
00000100
00001000
00000010
00000000
00000100
00000001
00001000
00000000
,
00000001
00000000
00001000
00000100
00000000
00010000
00000100
00010000
,
00000000
00001000
00010000
00001000
00000000
00100000
00010000
01000000
,
00100000
10000000
01000000
00100000
00010000
00000000
00100000
00001000
,
00010000
00000100
00010000
00000000
00001100
00000000
00000011
00000000
,
00001001
00000000
00000010
00001000
00000100
00001000
00010000
00001000
,
00000000
00010000
00001000
00100000
00000000
00100000
00010000
10000000
,
00000000
00100000
10000000
00010000
00000000
00100000
00001000
00010000
,
00000000
00010000
00000100
00001000
00000000
00000001
00001000
00000100
,
00001000
00000100
00001000
00000100
00010000
00001000
00010000
00000100
,
00010000
00000100
00010000
00000100
00010000
00001000
00100000
00010000
,
01000000
00100000
10000000
01000000
00100000
00010000
00100000
00010000
,
00001000
00010000
00001000
00010000
00000100
00000000
00011000
00000000
,
00022000
00000000
00000000
00000000
,
00000000
00000000
00000000
00000000
,
00033000
00000000
00000000
00000000
;

//---------------dance-double - ----------------
#NOTES:
     dance-double:
     :
     Easy:
     8:
     0.446352,0.690105,0.738118,0.157656,0.000000,436.000000,333.000000,103.000000,22.000000,0.000000,0.000000,0.446352,0.690105,0.738118,0.157656,0.000000,436.000000,333.000000,103.000000,22.000000,0.000000,0.000000:
00000000
00000000
00000000
00000000
,
00000000
00000000
00000000
00000000
,
00000000
00000000
00000000
00000000
,
00000000
00000000
00000000
00000000
,
00000000
00000000
00000000
00000000
,
00000000
00000000
00000000
00000000
,
00000000
00000000
00000000
00000000
,
00100000
00000000
00010000
00000000
,
00000100
00000000
00001000
00000000
,
00000001
00001000
00000001
00001000
,
00002002
00000000
00000000
00003003
,
00000010
00001010
00000010
00001010
,
00000100
00010000
00001000
01000000
,
00010000
01010000
00010000
01010000
,
00100000
10000000
00010000
00100000
,
00001000
00011000
00001000
00011000
,
00010000
00000100
00001000
00000001
,
00001000
00001010
00001000
00001010
,
00001001
00000110
00001001
00000000
,
00001001
00001001
00010100
00010100
,
00011000
00011000
01001000
01001000
,
10010000
01100000
10010000
01100000
,
10010000
10010000
00220000
00330000
,
10000000
10010000
10000000
10010000
,
01000000
00100000
00001000
00011000
,
00010000
00011000
00010000
00010100
,
00001000
00000010
00001000
00000101
,
00001000
00001100
00001000
00001100
,
00010000
00001000
01000000
01010000
,
10000000
10010000
10000000
10010000
,
00100000
01000000
00110000
11000000
,
00100000
00100000
10010000
01100000
,
10000000
00000000
00100000
01000000
00100000
00000000
10000000
00000000
,
00010000
00100000
00101000
00101000
,
00010000
00000000
00000100
00000000
00001000
00000010
00001000
00000000
,
00000001
00000110
00001000
00000110
,
00000001
00000000
00001000
00000000
00000100
00010000
00000100
00000000
,
00011000
00011000
01001000
01001000
,
00020000
00000000
00032000
00003000
,
00022000
00000000
00000000
00000000
,
00000000
00000000
00033000
00000000
,
00000000
00100000
00000000
00100000
,
00000000
00100000
00000000
00100000
,
00000000
10000000
00000000
01000000
,
00000000
00100000
00000000
00010000
,
00000000
00001000
00000000
00001000
,
00000000
00010000
00000000
00010000
,
00000000
00000010
00000000
00001000
,
00000000
00000100
00000000
00000001
,
00002002
00000000
00000000
00000000
,
00000000
00000000
00000000
00000000
,
00003003
00000000
00000000
00000000
,
00000000
00000000
00000000
00000000
,
00000001
00001000
00000001
00001000
,
00000100
00000000
00000000
00000000
,
00010000
00001000
00010000
00001000
,
00100000
00010000
02000000
03000000
,
00100000
10010000
00000000
10010000
,
00000000
00100000
00001000
00010000
,
00000010
00001001
00000000
00001001
,
00000000
00000010
00010000
00001000
,
00100000
00010000
01000000
00100000
,
10000000
01000000
00100000
00010000
,
00001000
00010000
00001000
00010000
,
00022000
00000000
00000000
00033000
,
00010000
00001000
00000000
00000000
00010000
00001000
00000000
00000000
,
00010000
00001000
00000000
00000000
00010000
00000100
00010000
00000100
,
00010000
00000100
00000000
00000000
00001000
00000001
00000000
00000000
,
00001000
00000001
00000000
00000000
00001001
00000000
00000000
00000000
,
00000001
00001000
00000100
00001000
,
00000100
00010000
00001000
00100000
,
00110000
00110000
11000000
11000000
,
01100000
01100000
20020000
30030000
,
10100000
10100000
01010000
01010000
,
00100000
00001000
00010000
00000100
,
00001010
00001010
00000101
00000101
,
00001000
00000100
00010000
00001000
,
00011000
00011000
01001000
01001000
,
00011000
00011000
00010100
00010100
,
00010000
00000100
00001000
00000001
,
00001000
00000100
00020000
00030000
,
00001000
00100000
00010000
01000000
,
00100000
00100000
10010000
10010000
,
00100000
00001000
00010000
00000010
,
00000100
00000100
00001001
00001001
,
00000010
00000000
00001000
00000100
00001000
00000000
00000010
00000000
,
00001000
00000100
00010000
00001000
,
01000000
00000000
00100000
10000000
00100000
00000000
01000000
00000000
,
20020000
00000000
00000000
30030000
,
00100000
00010000
01000000
00001000
,
00010000
00000010
00001000
00000100
,
00000001
00000001
00001000
00001000
,
00000100
00010000
00001000
01000000
,
00100000
10000000
01000000
00010000
,
00100000
00001000
00010000
00000010
,
00001000
00000100
00000001
00000100
,
00001000
00010000
00001000
01000000
,
00010000
10010000
10000000
10010000
,
10000000
00100000
01000000
00001000
,
00010000
00011000
00001000
00011000
,
00010000
00000010
00000100
00000001
,
00001001
00001001
00001100
00001100
,
00010100
00010100
00011000
00011000
,
01010000
01010000
10010000
10010000
,
00100000
00002000
00020000
00033000
,
00022000
00000000
00000000
00000000
,
00000000
00000000
00000000
00000000
,
00033000
00000000
00000000
00000000
;

//---------------dance-single - ----------------
#NOTES:
     dance-single:
     :
     Easy:
     7:
     0.456589,0.690105,0.802614,0.171989,0.000000,446.000000,334.000000,112.000000,24.000000,0.000000,0.000000,0.456589,0.690105,0.802614,0.171989,0.000000,446.000000,334.000000,112.000000,24.000000,0.000000,0.000000:
0000
0000
0000
0000
,
0000
0000
0000
0000
,
0000
0000
0000
0000
,
0000
0000
0000
0000
,
0000
0000
0000
0000
,
0000
0000
0000
0000
,
0000
0000
0000
0000
,
0010
0000
0001
0000
,
0100
0000
1000
0000
,
0001
1000
0001
1000
,
2002
0000
0000
3003
,
1000
1001
1000
1001
,
1000
0100
0010
0001
,
0100
0101
0100
0101
,
0010
1000
0100
0001
,
1000
1001
1000
1001
,
0010
0100
1000
0001
,
0100
0110
0100
0110
,
1001
0110
1001
0000
,
0011
0011
0101
0101
,
1001
1001
0101
0101
,
1001
0110
1001
0110
,
1001
1001
0022
0033
,
1000
1001
1000
1001
,
0100
0010
1000
1001
,
0001
0101
0001
0101
,
0001
0100
0010
1001
,
1000
1001
1000
1001
,
0010
0100
1000
1001
,
0001
1001
0001
1001
,
1000
0100
0010
1001
,
0010
0010
1001
0110
,
1000
0000
0010
0100
0010
0000
1000
0000
,
0001
0010
1001
1001
,
0100
0000
0010
0000
1000
0001
1000
0000
,
0010
0110
0100
0110
,
0001
0000
1000
0000
0010
0100
0010
0000
,
1001
1001
0110
0110
,
0002
0000
1003
0000
,
2002
0000
0000
0000
,
0000
0000
3003
0000
,
0000
0010
0000
0010
,
0000
0010
0000
0010
,
0000
1000
0000
0100
,
0000
0010
0000
0001
,
0000
1000
0000
1000
,
0000
0001
0000
0001
,
0000
0010
0000
1000
,
0000
0100
0000
0001
,
2002
0000
0000
0000
,
0000
0000
0000
0000
,
3003
0000
0000
0000
,
0000
0000
0000
0000
,
0001
0100
0010
1000
,
0200
0000
0300
0000
,
0001
1000
0001
1000
,
0010
0001
0200
0300
,
0010
1001
0000
1001
,
0000
0010
0001
0100
,
1000
1001
0000
1001
,
0000
0010
1000
0100
,
0010
0001
0100
0010
,
1000
0100
0010
0001
,
1000
0001
1000
0001
,
2002
0000
0000
3003
,
0100
0010
0000
0000
0100
0010
0000
0000
,
0100
0010
0000
0000
1000
0001
1000
0001
,
1000
0001
0000
0000
1000
0001
0000
0000
,
1000
0001
0000
0000
1001
0000
0000
0000
,
1000
0100
1000
0100
,
0010
0001
0010
0001
,
0011
0011
1100
1100
,
0110
0110
2002
3003
,
1010
1010
0101
0101
,
0010
0001
0100
1000
,
1010
1010
0101
0101
,
1000
0001
1000
0000
0001
1000
0001
0000
,
1001
1001
0110
0110
,
1001
0000
0001
1000
0001
0000
1001
0000
,
0101
0101
1100
1100
,
0101
0000
2002
3003
,
0010
0010
0001
0100
,
0010
0010
1001
1001
,
0010
0010
1000
0100
,
0010
0010
1001
1001
,
0010
0000
1000
0001
1000
0000
0010
0000
,
0001
0000
1000
0100
1000
0000
0001
0000
,
0100
0000
0010
1000
0010
0000
0100
0000
,
2002
0000
0000
3003
,
0010
0001
0100
1000
,
0001
1000
0100
0001
,
0010
0010
0100
1001
,
0100
0010
1001
1001
,
0010
1000
0100
0001
,
0010
0001
0100
1000
,
0010
0010
0110
1001
,
0100
0001
0020
0030
,
0001
1001
1000
1001
,
1000
0010
0100
0001
,
0001
1001
0000
1001
,
0001
0010
0100
1000
,
1001
1001
1100
1100
,
0101
0101
0110
0110
,
0011
0011
1010
1010
,
1001
2000
0002
3003
,
2002
0000
0000
0000
,
0000
0000
0000
0000
,
3003
0000
0000
0000
;

//---------------dance-single - ----------------
#NOTES:
     dance-single:
     :
     Medium:
     11:
     0.585581,0.651766,0.415639,0.107493,0.000000,572.000000,514.000000,58.000000,15.000000,0.000000,0.000000,0.585581,0.651766,0.415639,0.107493,0.000000,572.000000,514.000000,58.000000,15.000000,0.000000,0.000000:
0000
0000
0000
0000
,
0000
0000
0000
0000
,
0000
0000
0000
0000
,
0000
0000
0000
0000
,
0000
0000
0000
0000
,
0000
0000
0000
0000
,
0000
0000
0000
0000
,
0010
0000
0000
0001
0000
0000
0100
0000
,
0010
0000
0000
1000
0000
0100
0100
0000
,
1000
0001
1000
0001
1000
0100
0010
0001
,
1000
0001
0100
0010
1000
0000
1001
0000
,
0010
0000
1010
0000
0010
1000
0100
0000
,
1000
0000
1100
0000
0010
0001
0100
0000
,
0010
0000
1010
0000
0010
1000
0001
0000
,
0010
1000
0010
0100
0010
0000
1010
0000
,
0101
0000
1000
0001
1000
0000
0001
0000
,
0010
0000
1000
0001
0100
0000
1000
0000
,
0001
0000
1000
0100
0010
0000
0001
0000
,
1010
0011
0011
1010
,
1001
0100
1001
0101
,
0101
1001
1010
1001
,
0010
1000
0001
0100
0010
1000
0001
0100
,
0010
0001
0101
1001
,
0010
0000
1000
0001
0001
0000
0101
0000
,
0100
0101
1000
0101
,
1000
0020
0130
0002
,
1003
0200
0310
0001
,
0100
0000
0001
0010
0010
0000
0011
0000
,
0100
0110
1000
1001
,
0010
0001
0100
0000
0001
0000
1000
0000
,
0100
0001
1000
0001
0100
0000
1001
0000
,
0110
0000
1000
0010
0100
0000
0110
0000
,
0100
0000
0001
0010
0000
0001
0010
0001
,
0010
0000
0001
1000
0001
0000
0100
0000
,
0010
0000
1000
0001
0000
1000
0001
1000
,
0020
0000
0030
0010
0001
0100
0010
1000
,
0000
1001
0000
0000
1000
0000
0101
0000
,
1000
0010
0100
0000
1000
0000
0001
0000
,
0100
0001
1000
0000
2002
0000
3003
0000
,
2002
0000
0000
0000
,
0000
0000
3003
0000
,
0010
0000
0000
0001
0000
0100
0000
1000
,
0000
0000
0000
0010
0000
1000
0000
0001
,
0000
1000
0000
0010
0000
0100
0000
0001
,
1000
0000
0010
0000
0100
0001
0100
0000
,
0010
0000
1000
0010
0000
0100
0001
0100
,
0000
0000
0010
0000
1000
0001
1000
0001
,
0000
0100
0010
0100
0000
0000
0001
0000
,
1000
0001
1000
0001
0000
0200
0000
0300
,
2001
0001
0001
0001
,
0001
0001
0001
3001
,
0000
0000
0000
0010
0100
0010
0000
1000
,
0000
1001
0000
0000
1000
0000
0010
0000
,
0001
0000
0100
0001
0000
1000
0000
0002
,
0000
1000
0000
1003
,
0000
0000
0000
0100
1000
0001
0000
1000
,
0000
0001
0000
0100
0000
0000
0010
0000
,
1000
0000
0100
1000
0000
0001
0000
1000
,
0000
0000
0000
0010
0000
0010
0000
1000
,
0001
0100
0001
1000
,
0001
0000
0010
0000
1000
0000
0010
1000
,
0010
0000
0100
0100
0000
0001
0010
0001
,
0000
0010
0100
0010
0000
0001
1000
0010
,
0000
0010
1000
0100
0000
0000
1001
0000
,
0100
0010
0100
0010
0100
0000
0010
0000
,
0001
0100
0001
0000
1000
0100
1000
0000
,
0001
0100
0001
0000
0010
1000
0001
1000
,
0001
1000
0100
0000
1000
0010
0100
0000
,
0001
1000
0001
0000
1000
0001
0100
0001
,
1000
0001
0100
0000
1000
0010
0100
0000
,
0001
0010
0001
0000
1000
0010
1000
0000
,
0001
0010
0001
0010
1000
0010
1000
0010
,
0001
0110
2002
3003
,
1001
0000
0010
0000
1000
0001
0001
0001
,
1000
0001
0001
0001
1000
0001
0001
0001
,
1000
0100
0010
0000
0100
0001
0010
0000
,
0001
1000
0001
0000
0100
0001
1000
0000
,
0010
0000
1100
0000
0010
1000
1000
1000
,
0001
1000
1000
1000
0010
1000
1000
1000
,
0001
1000
0100
0000
1001
0000
0110
0000
,
1001
0000
0010
1000
0001
0000
0110
0000
,
1000
0000
0001
1000
0100
0000
1001
0000
,
1001
0000
1000
0010
0100
0010
0100
0010
,
1000
0000
0001
0100
0010
0000
1001
0000
,
0101
0000
1000
0010
0100
0001
0100
0000
,
1000
0001
1000
0001
1000
0000
1100
0000
,
0011
0000
1000
0100
0001
0100
1000
0000
,
0100
0010
0100
0010
1000
0001
1000
0100
,
0010
0101
1001
0110
,
1001
0000
0010
0001
0000
0100
0001
1000
,
0000
0010
0001
0010
0000
1000
0001
0100
,
0001
1000
0001
1000
0001
1000
0001
0000
,
0100
0010
1000
0000
0001
1000
0100
0000
,
1000
0000
0001
0100
0000
0001
0010
0001
,
0000
1000
0001
1000
0000
0010
0001
0100
,
0010
1000
0100
0010
0001
0000
0100
0001
,
1000
0001
0100
0000
1010
0000
0101
0000
,
1001
0000
0010
0100
0010
1000
0001
1000
,
0000
0001
0100
0010
0000
1000
0001
0100
,
0000
0010
1000
0001
0000
0010
0100
0001
,
0000
0001
1000
0010
0000
0100
0001
1000
,
0001
1000
0001
0100
0010
0100
0001
1000
,
0001
1000
0001
1000
0010
0100
0010
1000
,
0001
1000
0100
0010
0001
0010
0001
1000
,
0001
0100
0010
1000
0001
0000
1001
0000
,
2002
0000
0000
0000
,
0000
0000
0000
0000
,
3003
0000
0000
0000
;

//---------------dance-single - ----------------
#NOTES:
     dance-single:
     :
     Beginner:
     5:
     0.227271,0.345052,0.107493,0.136158,0.000000,222.000000,207.000000,15.000000,19.000000,0.000000,0.000000,0.227271,0.345052,0.107493,0.136158,0.000000,222.000000,207.000000,15.000000,19.000000,0.000000,0.000000:
// measure 0
0000
0000
0000
0000
,  // measure 1
0000
0000
0000
0000
,  // measure 2
0000
0000
0000
0000
,  // measure 3
0000
0000
0000
0000
,  // measure 4
0000
0000
0000
0000
,  // measure 5
0000
0000
0000
0000
,  // measure 6
0000
0000
0000
0000
,  // measure 7
0010
0000
0010
0000
,  // measure 8
0100
0000
0100
0000
,  // measure 9
0000
1000
0000
1000
,  // measure 10
2000
0000
3000
0000
,  // measure 11
0000
0001
0000
0001
,  // measure 12
0000
1000
0000
1000
,  // measure 13
0000
0100
0000
0100
,  // measure 14
0000
0010
0000
0010
,  // measure 15
0000
0001
0000
0001
,  // measure 16
0000
0100
0000
0100
,  // measure 17
0000
1000
0000
1000
,  // measure 18
1000
1000
1000
0000
,  // measure 19
0010
0000
0100
0000
,  // measure 20
1000
0000
0001
0000
,  // measure 21
0010
0010
0010
0000
,  // measure 22
2002
0000
3003
0000
,  // measure 23
0001
0001
0000
0001
,  // measure 24
0000
0001
0000
1000
,  // measure 25
1000
1000
0000
1000
,  // measure 26
0000
0010
0010
0010
,  // measure 27
0000
0100
0000
0100
,  // measure 28
0000
0100
0000
0010
,  // measure 29
0010
0010
0000
0100
,  // measure 30
0000
0001
0001
0000
,  // measure 31
0010
0000
0100
0000
,  // measure 32
1000
1000
1000
0000
,  // measure 33
0010
0000
0100
0000
,  // measure 34
0001
0001
0001
0000
,  // measure 35
0010
0010
0010
0000
,  // measure 36
0100
0100
0100
0000
,  // measure 37
2000
3000
0002
0003
,  // measure 38
2000
0000
3000
0000
,  // measure 39
2002
0000
0000
0000
,  // measure 40
0000
0000
3003
0000
,  // measure 41
0000
0010
0000
0010
,  // measure 42
0000
0010
0000
0010
,  // measure 43
0000
1000
0000
0100
,  // measure 44
0000
0010
0000
0001
,  // measure 45
0000
1000
0000
1000
,  // measure 46
0000
0001
0000
0001
,  // measure 47
0000
0010
0000
1000
,  // measure 48
0000
0100
0000
0000
,  // measure 49
2002
0000
0000
0000
,  // measure 50
3003
0000
0000
0000
,  // measure 51
0000
0000
0000
0000
,  // measure 52
0000
0000
0000
0000
,  // measure 53
0001
0000
0001
0000
,  // measure 54
0002
0000
0003
0000
,  // measure 55
0000
1000
0000
1000
,  // measure 56
0000
1000
1000
0000
,  // measure 57
0000
0001
0000
0001
,  // measure 58
0000
0010
0000
0100
,  // measure 59
0000
1000
0000
1000
,  // measure 60
0000
0100
0000
0010
,  // measure 61
0010
0000
0001
0000
,  // measure 62
0100
0000
1000
0000
,  // measure 63
0001
0001
0001
0000
,  // measure 64
2002
0000
0000
3003
,  // measure 65
0100
0000
0100
0000
,  // measure 66
0100
0000
1000
1000
,  // measure 67
1000
0000
1000
0000
,  // measure 68
1000
0000
1001
0000
,  // measure 69
1000
0000
0100
0000
,  // measure 70
0010
0000
0001
0000
,  // measure 71
0010
0010
0010
0000
,  // measure 72
0110
0000
1001
0000
,  // measure 73
0010
0010
0100
0000
,  // measure 74
0010
0000
0100
0000
,  // measure 75
1000
1000
0001
0000
,  // measure 76
1000
0000
0001
0000
,  // measure 77
1000
0000
1000
0000
,  // measure 78
0001
0000
0001
0000
,  // measure 79
0010
0010
0010
0000
,  // measure 80
0100
0000
0100
0000
,  // measure 81
0010
0000
1000
0000
,  // measure 82
0100
0000
0001
0000
,  // measure 83
0010
0010
0010
0000
,  // measure 84
0100
0100
0100
0000
,  // measure 85
0010
0010
0010
0000
,  // measure 86
0100
0100
0100
0000
,  // measure 87
0010
0000
0100
0000
,  // measure 88
2002
0000
0000
3003
,  // measure 89
0010
0000
0001
0000
,  // measure 90
0100
0000
1000
0000
,  // measure 91
0010
0000
1000
0000
,  // measure 92
0100
0000
0001
0000
,  // measure 93
0010
0100
0010
0000
,  // measure 94
0100
0010
0100
0000
,  // measure 95
0010
0000
0010
0000
,  // measure 96
2002
0000
3003
0000
,  // measure 97
0001
0001
0001
0000
,  // measure 98
1000
1000
1000
0000
,  // measure 99
0001
0001
1000
0000
,  // measure 100
1000
1000
0001
0000
,  // measure 101
1001
0000
0110
0000
,  // measure 102
1001
0000
0110
0000
,  // measure 103
0010
0010
0010
0010
,  // measure 104
0010
0000
1001
0000
,  // measure 105
2002
0000
0000
0000
,  // measure 106
0000
0000
0000
0000
,  // measure 107
3003
0000
0000
0000
;
