#TITLE:Radius;
#SUBTITLE:;
#ARTIST:BEMANI Sound Team "Sota F.";
#TITLETRANSLIT:;
#SUBTITLETRANSLIT:;
#ARTISTTRANSLIT:;
#GENRE:;
#CREDIT:;
#BANNER:Radius.png;
#BACKGROUND:Radius-bg.png;
#LYRICSPATH:;
#CDTITLE:;
#MUSIC:Radius.ogg;
#OFFSET:1.572000;
#SAMPLESTART:76.839996;
#SAMPLELENGTH:12.000000;
#LASTBEATHINT:1.430000;
#SELECTABLE:YES;
#BPMS:0.000000=150.000000
;
#STOPS:259.750000=1.600000
;
#BGCHANGES:;
#KEYSOUNDS:;
#ATTACKS:;

//---------------dance-double - ----------------
#NOTES:
     dance-double:
     :
     Hard:
     12:
     0.558386,0.610735,0.331542,0.183220,0.488588,448.000000,410.000000,38.000000,21.000000,0.000000,0.000000,0.558386,0.610735,0.331542,0.183220,0.488588,448.000000,410.000000,38.000000,21.000000,0.000000,0.000000:
// measure 0
00000000
00000000
00000000
00000000
,  // measure 1
00000000
00000000
00000000
00000000
,  // measure 2
00000000
00000000
00000000
00000000
,  // measure 3
00000000
00000000
00000000
00000000
,  // measure 4
00000000
00000000
00000000
00000000
,  // measure 5
00100000
00000000
00000000
00100000
00000000
00000000
00010000
00000000
10000000
00000000
00000000
00010000
00000000
00000000
00000000
00000000
,  // measure 6
00100000
00011000
00000100
00001001
,  // measure 7
00000001
00000000
00000000
00001000
00000000
00000000
00000100
00000000
00010000
00000000
00000000
00001000
00000000
00000000
00100000
00000000
,  // measure 8
00110000
00000000
00000000
01010000
00000000
00000000
10010000
00000000
00000000
10010000
00000000
00000000
01100000
00000000
00000000
00000000
,  // measure 9
10000000
00000000
00000000
00000000
00010000
00000000
00000000
00100000
00000000
00000000
00100000
00000000
00001000
00000000
00010000
00000000
,  // measure 10
00000010
00000000
00000000
00000000
00001000
00000000
00000000
00000001
00000000
00000000
00000001
00000000
00001000
00000000
00000100
00000000
,  // measure 11
00010000
00000000
00000000
00000000
00001000
00000000
00000000
00100000
00000000
00000000
00100000
00000000
00010000
00000000
01000000
00000000
,  // measure 12
00100000
10000000
00100000
10000000
00010000
01000000
00010000
00000000
,  // measure 13
00100000
00000000
00000000
00000000
00001000
00000000
00000000
00010000
00000000
00000000
00010000
00000000
00000100
00000000
00000000
00001001
,  // measure 14
00000000
00000000
00000000
00000000
00000001
00000000
00000000
00000001
00000000
00000000
00001000
00000000
00000100
00000000
00010000
00000000
,  // measure 15
00001000
00000000
00000000
00000000
00010000
00000000
00000000
00001000
00000000
00000000
00100000
00000000
00100000
00000000
00010000
00000000
,  // measure 16
02000000
00000000
00200000
03300000
,  // measure 17
10000000
00000000
00000000
00100000
00000000
01000000
00000000
00100000
00000000
00000000
01000000
00000000
00001000
00000000
00010000
00000000
,  // measure 18
00000100
00000000
00001000
00000100
00000000
00000000
00000010
00000000
00000001
00000010
00000000
00000000
00000001
00000000
00000100
00000000
,  // measure 19
00000010
00000000
00000000
00001000
00000000
00000100
00000000
00000010
00000000
00000000
00001000
00000000
00000100
00000000
00010000
00000000
,  // measure 20
00001000
00000000
00100000
00001000
00000000
00000000
01000000
00000000
00010000
01000000
00000000
00000000
00100000
00000000
10000000
00000000
,  // measure 21
00010000
00000000
00000000
00100000
00000000
00001000
00000000
00010000
00000000
00000000
00000100
00000000
00001000
00000000
00000001
00000000
,  // measure 22
00000100
00000000
00000010
00001000
00000000
00000000
00000100
00000000
00010000
00001000
00000000
00000000
00010000
00000000
00001000
00000000
,  // measure 23
01000000
00000000
00000000
00100000
00000000
10000000
00000000
20020000
00000000
00000000
00000000
00000000
30030000
00000000
00000000
00000000
,  // measure 24
00100000
00010000
00100000
00010000
00000000
00000000
10000000
01000000
10000000
01000000
00000000
00000000
00100000
00000000
00001000
00000000
,  // measure 25
00010000
00000000
00000000
00010000
00000000
00000000
00000100
00000000
00001000
00000000
00000000
00000000
00000110
00000000
00000000
00000000
,  // measure 26
00000001
00000100
00000001
00002000
00000000
00003100
00010000
00000000
,  // measure 27
00002000
00000000
00000000
00100000
00000000
00000000
00103000
00000000
00020000
00000000
00000000
00000000
10000000
00000000
20030000
00000000
,  // measure 28
00000000
31000000
00100000
00020000
00000000
00130000
00001000
00000000
,  // measure 29
00010000
00000000
00000000
00000100
00000000
00000000
00001000
00000000
00001000
00000000
00000000
00000000
00000001
00000000
00001000
00000000
,  // measure 30
00000010
00001000
00000100
00020000
00000000
00031000
00100000
00000000
,  // measure 31
00020000
00000000
00000000
01000000
00000000
00000000
01030000
00000000
10000000
00000000
00100000
00000000
01000000
00000000
00020000
00000000
,  // measure 32
00000000
00130000
00001000
00020000
00000000
00000100
00030100
00000000
,  // measure 33
00001000
00000000
00000000
00000000
00000001
00000000
00000000
00001000
00000100
00000000
00001000
00000000
00000010
00000000
00000000
00001000
,  // measure 34
00000000
00001000
00000000
00000000
00000100
00000000
00010000
00000000
00000000
00000000
00001000
00000000
00100000
00000000
00010000
00000000
,  // measure 35
01000000
00000000
00010000
10000000
10000000
00000000
00010000
20020000
,  // measure 36
00000000
00000000
30030000
10010000
,  // measure 37
00100000
00000000
00000000
00100000
00001000
00000000
00010000
00000000
00000100
00000000
00000100
00000000
00001000
00000000
00000000
00000001
,  // measure 38
00000000
00000001
00000100
00000000
00000010
00000000
00001000
00000000
00000100
00000000
00010000
00000000
00011000
00000000
00000000
00000000
,  // measure 39
00100000
00000000
00010000
00000000
01000000
00000000
00100000
00000000
10000000
00010000
10000000
00000000
00100000
00000000
01000000
00000000
,  // measure 40
00001000
00000000
00000000
00000000
00010000
00001000
00010000
00002000
00000000
00000000
00000000
00000000
01003000
00000000
00000000
00000000
,  // measure 41
00010000
00000000
00100000
00000000
01000000
00000000
10000000
00000000
00100000
00000000
00000000
01000000
00000000
00010000
00000000
10000000
,  // measure 42
00000000
00000000
00010000
00000000
00100000
00000000
00001000
00000000
00010000
00000000
00000000
00000100
00000000
00000000
00001000
00000000
,  // measure 43
00000001
00000000
00001000
00000000
00000100
00000000
00010000
00000000
00001000
00000000
00000000
00100000
00000000
00010000
00000000
01000000
,  // measure 44
00000000
00100000
10000000
00000000
00010000
00000000
00100000
00000000
00001000
00000000
00000000
00011000
00000000
00000000
00000000
00000000
,  // measure 45
00010100
00000000
00001000
00001010
00000000
00000001
00000101
00000000
,  // measure 46
00001000
00001100
00000000
00010000
00011000
00000000
00110000
00000000
,  // measure 47
01000000
00000000
00010000
10000000
00000000
10000000
00000000
00100000
00000000
01000000
00000000
00010000
00100000
00000000
00001000
00000000
,  // measure 48
00010000
00001000
00000000
00010000
00000000
00000100
00001000
00000010
00000000
00000000
00000000
00000000
00001001
00000000
00000000
00000000
,  // measure 49
00000001
00000000
00001000
00000000
00000000
00000000
00000100
00000000
00010000
00000100
00000000
00010000
00000000
00000000
00001000
00000000
,  // measure 50
00100000
00000000
00000000
00000000
00010000
00000000
00000000
00010000
01000000
00000000
00100000
00000000
10000000
00000000
00000000
00000000
,  // measure 51
00100000
01000000
00000000
00010000
00000000
00000000
10000000
00000000
00010000
00000000
00000000
00000000
00100000
00000000
00001000
00000000
,  // measure 52
00010000
00000000
00000000
00010000
00000000
00000000
00000100
00000000
00000000
00001000
00000000
00000000
00001001
00000000
00000000
00000000
,  // measure 53
00000010
00000000
00001000
00000000
00000100
00000000
00010000
00000000
00001000
00010000
00000000
00010000
00000000
00001000
00100000
00000000
,  // measure 54
00010000
00000000
00000000
00000000
10010000
00000000
00000000
10000000
00100000
00000000
01000000
00000000
00010000
00000000
00000000
00000000
,  // measure 55
00100000
00001000
00000000
00001000
00000000
00000000
00010000
00000000
00000100
00000000
00000000
00000000
00001000
00000000
00000001
00000100
,  // measure 56
00000001
00000000
00000000
00001001
00000000
00000000
00001000
00000000
00000000
00001100
00000000
00000000
00010100
00000000
00000000
00000000
,  // measure 57
00001000
00000000
00100000
00000000
00010000
00000000
01000000
00000000
00100000
10000000
00000000
10000000
00000000
00100000
01000000
00000000
,  // measure 58
00010000
00100000
00001000
00000000
00010000
00000100
00001000
00000000
,  // measure 59
00000001
00001000
00000000
00001000
00000000
00000010
00001000
00000010
00002000
00000000
00000000
00000000
00013000
00000000
00000000
00000000
,  // measure 60
00011000
00000000
00000000
00001000
00000000
00000000
00101000
00000000
00000000
00110000
00000000
00000000
00101000
00000000
00000000
00000000
,  // measure 61
00100000
00000000
00000000
00000000
00010000
00000000
01000000
00000000
00100000
10000000
00000000
10000000
00000000
10000000
00100000
00000000
,  // measure 62
01000000
00010000
00100000
00000000
00001000
00010000
00000100
00000000
,  // measure 63
00001000
00000010
00000000
00000010
00000000
00001000
00000100
00000010
00000001
00000000
00000000
00000000
00001001
00000000
00000000
00000000
,  // measure 64
00001010
00000000
00000000
00001001
00000000
00000000
00001100
00000000
00000000
00001010
00000000
00000000
00002002
00000000
00000000
00000000
,  // measure 65
00003003
00000000
00000010
00000000
00001000
00000000
00000100
00000000
00000000
00010000
00000000
00010000
00001000
00000000
00000000
00011000
,  // measure 66
00000000
00000000
00100000
00000000
00010000
00000000
10000000
00010000
00000000
00010000
00000000
01000000
00000000
00000000
00001000
00000000
,  // measure 67
00010000
00000000
00000000
00010000
00000000
00001000
00000000
00000000
00010000
00000000
00000100
00000000
00001000
00000100
00001000
00000000
,  // measure 68
00000010
00000000
00000000
00001000
00000000
00000000
00000001
00000100
00000001
00000100
00000000
00000000
00002002
00000000
00000000
00000000
,  // measure 69
00000000
00000000
00000000
00000000
,  // measure 70
00003003
00000000
00000000
00000000
;

//---------------dance-single - ----------------
#NOTES:
     dance-single:
     :
     Hard:
     13:
     0.606996,0.641272,0.366441,0.209395,0.580198,487.000000,445.000000,42.000000,24.000000,0.000000,0.000000,0.606996,0.641272,0.366441,0.209395,0.580198,487.000000,445.000000,42.000000,24.000000,0.000000,0.000000:
0000
0000
0000
0000
,
0000
0000
0000
0000
,
0000
0000
0000
0000
,
0000
0000
0000
0000
,
0000
0000
0000
0000
,
0010
0000
0000
0010
0000
0000
0001
0000
1000
0000
0000
0001
0000
0000
1000
0000
,
0010
1001
0100
1001
,
0001
0000
0000
1000
0000
0000
0100
0000
1000
0000
0000
0001
0000
0000
0100
0000
,
1001
0000
0000
1001
0000
0000
1100
0000
0000
0011
0000
0000
1001
0000
0000
0000
,
1000
0000
0000
0000
0001
0000
0000
1000
0000
1000
0001
0000
1000
0000
0100
0000
,
0010
0000
0000
0000
0100
0000
0000
0001
0000
0001
1000
0000
0100
0000
0010
0000
,
0001
0000
0000
0000
1000
0000
0010
0000
1000
0000
0000
1000
0001
0000
0100
0000
,
0010
1000
0010
1000
0001
0100
1001
0000
,
0010
0000
1000
0000
0001
0000
1000
0001
0000
0001
0000
0000
0100
0000
0000
1001
,
0000
0000
0000
0000
1000
0000
1000
0001
0000
1000
0000
0000
0001
0000
0100
0000
,
0010
0000
0000
1000
0000
0100
1000
0000
0001
0000
0001
0000
1000
0000
0001
0000
,
0200
0000
0020
0330
,
1000
0000
0000
0010
0000
0100
0000
0010
0000
0000
0100
0000
1000
0000
0001
0000
,
0100
0000
0001
0100
0000
0000
0010
1000
0010
1000
0000
0000
0001
0000
0100
0000
,
0010
0000
0000
1000
0000
0100
0000
0010
0000
0000
1000
0000
0100
0000
0001
0000
,
1000
0000
0010
1000
0000
0000
0001
0100
0001
0100
0000
0000
0010
0000
1000
0000
,
0001
0000
0000
0010
0000
0001
0000
1000
0000
0000
0001
0000
1000
0000
0001
0000
,
1000
0010
1000
0010
0000
0000
0100
0001
0100
0001
0000
0000
0001
0000
1000
0000
,
0100
0000
0000
0010
0000
1000
0000
2002
0000
0000
0000
0000
3003
0000
0000
0000
,
0010
0001
0010
0001
0000
0000
1000
0100
1000
0100
0000
0000
0010
0000
1000
0000
,
0001
0000
0000
0001
0000
1000
0001
1000
0001
0000
0000
1000
0000
1000
0001
0000
,
0100
0010
1000
0002
0000
0103
0001
0000
,
2000
0000
0000
0010
0000
0000
3010
0000
1000
0000
0100
0000
0010
0000
0002
0000
,
0000
0103
0010
2000
0000
3010
0110
0000
,
0001
0000
0000
0100
0000
0010
1000
0010
2000
0000
0000
0000
3000
0000
0001
0100
,
0001
0100
0010
2000
0000
3001
0100
0010
,
2000
0000
0000
0100
0000
0000
3100
0000
1000
0000
0010
0000
0100
0000
0002
0000
,
0000
0013
0001
2000
0000
0010
3010
0000
,
1000
0000
0000
0000
0001
0000
0000
1000
0100
0000
1000
0000
0010
0000
0100
0010
,
0000
0010
0000
0000
1000
0000
0002
0000
0000
0000
1003
0000
0100
0000
0010
0000
,
0002
0000
1003
0010
0100
0001
1000
2002
,
0000
0000
3003
1001
,
0010
0000
0000
0010
1000
0000
0001
0000
0100
0000
0100
0000
0001
0000
1000
0001
,
0000
0001
0100
0000
0010
0000
1000
0000
0100
0000
1000
0000
0001
0000
1000
0000
,
0010
0000
0100
0000
0001
0000
1000
0000
1000
0001
1000
0000
0010
0000
0100
0000
,
0001
0000
0000
0000
0001
1000
0001
2000
0000
0000
0000
0000
3100
0000
0000
0000
,
0001
0000
0010
0000
0100
0000
1000
0000
0010
0000
0000
0100
0000
0001
0000
1000
,
0000
0000
0001
0000
0010
0000
0100
0000
1000
0000
0000
0110
0000
0000
1000
0000
,
0001
0000
1000
0000
0100
0000
0010
0000
0001
0000
0000
1000
0000
0001
1000
0000
,
0001
0000
1000
0000
0001
0100
0001
0000
1000
0000
0000
1001
0000
0000
0000
0000
,
0101
0000
1000
1010
0000
0001
0101
0000
,
1000
1100
0000
0001
1001
0000
0011
0000
,
0100
0000
0001
1000
0000
1000
0000
0010
0000
0100
0001
0100
0001
0000
1000
0000
,
0001
1000
0000
0001
0000
0100
0010
2000
0000
0000
0000
0000
3001
0000
0000
0000
,
0001
0000
1000
0000
0000
0000
0001
0100
0001
0100
0000
0001
0000
0000
1000
0000
,
0001
0000
0000
0000
1000
0000
0000
0001
0100
0000
0010
0000
1000
0000
0000
0000
,
0010
0100
0000
0001
0000
0000
1000
0000
0001
0000
0000
0000
1000
0000
0001
0000
,
0100
0000
0000
1001
0000
0000
0100
0000
0000
0110
0000
0000
1001
0000
0000
0000
,
0010
0000
1000
0000
0100
0000
1000
0001
1000
0001
0000
0001
0000
1000
0010
0000
,
0100
0000
0001
0000
1001
0000
0000
0001
0010
0000
0100
0000
1001
0000
0000
0000
,
0010
1000
0000
1000
0000
0001
1000
0001
1000
0000
0000
0000
1000
0000
0001
0100
,
0001
0000
0000
1001
0000
0000
1000
0000
0000
1100
0000
0000
0101
0000
0000
0000
,
1000
0000
0010
0000
0100
0000
0001
1000
0001
1000
0000
1000
0000
0010
0100
0000
,
0001
0010
0100
1000
0010
0100
0001
0000
,
0001
1000
0000
1000
0000
0010
1000
0010
2000
0000
0000
0000
3001
0000
0000
0000
,
1001
0000
0000
1010
0000
0000
0101
0000
0000
1100
0000
0000
0011
0000
0000
0000
,
0010
0000
0000
0000
0001
0000
0100
0000
0010
1000
0000
1000
0000
1000
0010
0000
,
0100
0001
0010
0000
1000
0001
0100
0000
,
1000
0010
0000
0010
0000
1000
0100
0010
0001
0000
0000
0000
1001
0000
0000
0000
,
1010
0000
0000
1001
0000
0000
1100
0000
0000
1010
0000
0000
2002
0000
0000
0000
,
3003
0000
0010
0000
1000
0000
0100
0000
0000
1000
0000
1000
0001
0000
0000
1001
,
0000
0000
0010
0000
1000
0000
0001
0100
0000
0100
0000
0100
0000
0000
0010
0000
,
1000
0000
0000
0001
0000
1000
0000
0000
0001
0000
0100
0000
0001
1000
0001
1000
,
0001
0000
0000
1000
0000
0000
0001
0100
0001
0100
0000
0000
2002
0000
0000
0000
,
0000
0000
0000
0000
,
3003
0000
0000
0000
;

//---------------dance-double - ----------------
#NOTES:
     dance-double:
     :
     Medium:
     8:
     0.357716,0.427514,0.253019,0.157046,0.000000,287.000000,258.000000,29.000000,18.000000,0.000000,0.000000,0.357716,0.427514,0.253019,0.157046,0.000000,287.000000,258.000000,29.000000,18.000000,0.000000,0.000000:
00000000
00000000
00000000
00000000
,
00000000
00000000
00000000
00000000
,
00000000
00000000
00000000
00000000
,
00000000
00000000
00000000
00000000
,
00000000
00000000
00000000
00000000
,
00200000
00000000
00300000
00000000
00010000
01000000
00100000
00000000
,
20000000
30000000
00020000
00030000
,
00100000
01000000
10010000
00000000
,
00100000
00000000
00000000
00011000
00000000
00000000
00000100
00000000
,
00001000
00000000
00000001
00000000
00001000
00000001
00001000
00000000
,
00000010
00001000
00000100
00010000
,
00001000
00000000
00100000
00000000
00010000
10000000
00010000
00000000
,
01000000
00001000
00010000
00000100
,
00001000
00000000
00001001
00000000
00000010
00001000
00000100
00000000
,
00010000
00001000
00100000
01010000
,
00100000
00000000
10010000
00000000
10000000
00010000
01000000
00000000
,
00200000
00000000
00000000
01300000
,
00001000
00000000
00010000
00000000
00000100
00001000
00000010
00000000
,
00000100
00000001
00001000
00000000
00000100
00000000
00010000
00000000
,
00001000
00000000
00100000
00000000
00010000
01000000
00100000
00000000
,
10000000
00010000
01000000
00000000
00100000
00000000
01100000
00000000
,
01000000
00000000
10010000
00000000
00100000
00001000
00010000
00000000
,
00000100
00001000
00000010
00000000
00000100
00000000
00001001
00000000
,
00000010
00001100
00010000
00101000
,
00010000
01000000
00100000
00000000
10000000
00100000
01000000
00000000
,
00020000
00030000
20000000
30000000
,
00100000
01000000
00002000
00003000
,
00010000
00000000
00000100
00000000
00001000
00000000
00000010
00002000
,
00000000
00003000
00000000
00020000
00000000
00030000
00000000
00000000
,
00001000
01000000
00100000
10000000
,
10000000
00010000
10000000
00010000
00000000
00000000
00100000
00000000
,
00002000
00000000
00003000
00000000
00020000
00000000
00030000
00000020
,
00000000
00000000
00000000
00000130
00000000
00000000
00000000
00000000
,
00000001
00000000
00001000
00000000
00000100
00001000
00000100
00000000
,
00010000
00000000
00001000
00000000
00100000
00010000
00100000
00000000
,
00010000
00000000
01000000
00000000
00100000
10000000
00010000
20000000
,
00000000
00000000
00000000
30010000
,
00100000
00000000
00001000
00000000
00010000
00001000
00010000
00000000
,
00000100
00000000
00001000
00000000
00000001
00000100
00000010
00000000
,
00001000
00000000
00000100
00000000
00010000
00001000
00010000
00000000
,
00002000
00020000
00033000
00000000
,
00001000
00010000
00001000
00010000
,
00001000
00000000
00100000
00000000
00010000
01000000
00010000
00000000
,
10000000
00100000
01000000
00010000
,
00100000
00001000
00020000
00030000
,
00000010
00000000
00000000
00001010
00000000
00000000
00000101
00000000
,
00000000
00001100
00000000
00000000
00000100
00010000
00001000
00000000
,
00010000
00001000
00100000
00010000
,
01000000
00100000
10000000
00010000
00000000
00000000
00000000
00000000
,
10000000
00010000
00100000
00001000
,
00010000
00000010
00000100
00000001
,
00001000
00000001
00001000
00000001
00001000
00000000
00000000
00000000
,
00000110
00000000
00000000
00001001
00000000
00000000
00000110
00000000
,
00000010
00010000
00001000
00100000
,
00010000
01000000
00100000
00000000
10000000
00100000
01000000
00000000
,
10010000
01100000
10010000
00000000
,
00110000
00000000
00000000
00011000
00000000
00000000
00001100
00000000
,
00000010
00000000
00001000
00000000
00000001
00000100
00001000
00000000
,
00000100
00010000
00001000
00100000
,
00010000
01000000
10000000
00000000
00100000
00000000
00000000
00000000
,
10010000
00000000
00000000
01100000
00000000
00000000
10010000
00000000
,
10000000
00000000
00010000
00000000
01000000
00010000
00100000
00000000
,
01000000
00001000
00010000
00000100
,
00001000
00000100
00000010
00000001
00000100
00000000
00000000
00000000
,
00001001
00000000
00000000
00011000
00000000
00000000
10010000
00000000
,
00000000
00000000
00100000
00000000
10000000
01000000
00100000
00000000
,
00001000
00000000
00010000
00000000
00000010
00001000
00000100
00000000
,
00000010
00000000
00000001
00000000
00000100
00000010
00001000
00000000
,
00000100
00010000
00001000
00022000
,
00000000
00000000
00000000
00000000
,
00033000
00000000
00000000
00000000
;

//---------------dance-single - ----------------
#NOTES:
     dance-single:
     :
     Medium:
     8:
     0.382644,0.488588,0.322817,0.174496,0.000000,307.000000,270.000000,37.000000,20.000000,0.000000,0.000000,0.382644,0.488588,0.322817,0.174496,0.000000,307.000000,270.000000,37.000000,20.000000,0.000000,0.000000:
0000
0000
0000
0000
,
0000
0000
0000
0000
,
0000
0000
0000
0000
,
0000
0000
0000
0000
,
0000
0000
0000
0000
,
2000
0000
3000
0000
0001
0100
0010
0000
,
2000
3000
0002
0003
,
0010
0100
1001
0000
,
0010
0000
0000
1001
0000
0000
0100
0000
,
0001
0000
1000
0000
0001
1000
0001
0000
,
1000
0100
0010
0001
,
1000
0000
0010
0000
1000
0001
1000
0000
,
0100
1000
0001
0100
,
0010
0000
1000
0000
0010
1000
0001
0000
,
0001
1000
0001
1001
,
0010
0000
1001
0000
1000
0001
0100
0000
,
0020
0000
0000
0130
,
0001
0000
1000
0000
0001
1000
0010
0000
,
0100
0001
1000
0000
0100
0010
0001
0000
,
1000
0000
0010
0000
0100
0001
0010
0000
,
0001
1000
0100
0000
0010
0000
0110
0000
,
0100
0000
1001
0000
0010
1000
0001
0000
,
0100
0001
1000
0000
0010
0000
1001
0000
,
0010
1100
0001
1010
,
0001
0100
0010
0000
1000
0010
0100
0000
,
0002
0003
2000
3000
,
0010
0100
2002
3003
,
0001
0000
0100
0000
1000
0000
0010
2000
,
0000
3000
0000
0002
0000
0003
0000
0000
,
1000
0100
0010
0001
,
1000
0001
1000
0001
0000
0000
0010
0000
,
2000
0000
3000
0000
0002
0000
0003
0020
,
0000
0000
0000
0130
0000
0000
0000
0000
,
0001
0000
1000
0000
0100
0010
0100
0000
,
0001
0000
1000
0000
0010
1000
0010
0000
,
0001
0000
0100
0000
0010
1000
0001
2000
,
0000
0000
0000
3001
,
0010
0000
1000
0000
0001
1000
0001
0000
,
0100
0000
0001
0000
1000
0001
0010
0000
,
0001
0000
0100
0000
0010
1000
0001
0000
,
2000
0002
3003
0000
,
1000
0001
1000
0001
,
0100
0010
0100
0000
0001
1000
0001
0000
,
1000
0100
0010
0001
,
1000
0010
1000
0000
2002
0000
3003
0000
,
1010
0000
0000
1100
0000
0000
0011
0000
,
0000
1010
0000
0000
0101
0000
1001
0000
,
0001
1000
0001
0000
0100
0000
0010
0000
,
0100
0010
1000
0001
0000
0000
0000
0000
,
1000
0000
1001
0000
0010
0100
0010
0000
,
0001
0010
0100
1000
,
0001
1000
0001
1000
0001
0000
0000
0000
,
0110
0000
0000
1001
0000
0000
0110
0000
,
1000
0000
0001
0000
1000
0100
0010
0000
,
0001
0100
0010
0000
1000
0010
0100
0000
,
1001
0110
1001
0000
,
0011
0000
0000
1001
0000
0000
1100
0000
,
1000
0010
1000
0000
0001
0100
0001
0000
,
0100
0010
0100
0000
1010
0000
0101
0000
,
0001
0100
0010
1000
0001
0000
1001
0000
,
0110
0000
0000
1001
0000
0000
1001
0000
,
1000
0000
0001
0000
0100
0001
0010
0000
,
0100
0000
1000
0000
0001
1000
0100
0000
,
1000
0100
0010
0001
0100
0000
0000
0000
,
1001
0000
0000
1001
0000
0000
1001
0000
,
0000
0000
0010
0000
1000
0100
0010
0000
,
1000
0010
0100
0000
0010
1000
0100
0000
,
0010
0000
0001
0000
0100
0010
1000
0000
,
0100
0010
0001
0000
1000
0000
2002
0000
,
0000
0000
0000
0000
,
3003
0000
0000
0000
;

//---------------dance-single - ----------------
#NOTES:
     dance-single:
     :
     Beginner:
     3:
     0.165771,0.213757,0.026174,0.069798,0.000000,133.000000,130.000000,3.000000,8.000000,0.000000,0.000000,0.165771,0.213757,0.026174,0.069798,0.000000,133.000000,130.000000,3.000000,8.000000,0.000000,0.000000:
0000
0000
0000
0000
,
0000
0000
0000
0000
,
0000
0000
0000
0000
,
0000
0000
0000
0000
,
0000
0000
0000
0000
,
2000
3000
0000
0000
,
0002
0003
0000
0000
,
0010
0000
0100
0000
,
0010
0000
0100
0000
,
0001
0000
0000
0000
,
1000
0000
0000
0000
,
1000
0000
1000
0000
,
0001
0000
0001
0000
,
0010
0000
0010
0000
,
0100
0000
0100
0000
,
0010
0000
0010
0000
,
0020
0000
0030
0000
,
0001
0000
0001
0000
,
1000
0000
1000
0000
,
0001
0000
1000
0000
,
0001
0000
1000
0000
,
0100
0000
0010
0000
,
0100
0000
0010
0000
,
1000
0000
0001
0000
,
1001
0000
0000
0000
,
0001
0000
1000
0000
,
0010
0000
0100
0000
,
0001
0001
0001
0000
,
1000
0000
0001
0000
,
1000
0000
0010
0000
,
0100
0000
0001
0000
,
1000
1000
1000
0000
,
0020
0000
0030
0000
,
0000
1000
0000
1000
,
0000
0001
0000
0001
,
0000
0100
0000
0100
,
0200
0000
0300
0000
,
0000
1000
0000
0001
,
0000
1000
0000
0001
,
0000
0100
0000
0100
,
0200
0000
0300
0000
,
1000
0000
0001
0000
,
1000
0000
0001
0000
,
0010
0000
0100
0000
,
1000
0000
0001
0000
,
1000
0000
0000
1000
0000
0000
0001
0000
,
0000
0001
0000
0000
0001
0000
0000
0000
,
0001
0000
0100
0000
,
1000
0000
1001
0000
,
1000
0000
0001
0000
,
1000
1000
1000
0000
,
0001
0000
1000
0000
,
0001
0001
0001
0000
,
0100
0000
0010
0000
,
0100
0100
0100
0000
,
0010
0000
0100
0000
,
0010
0010
0010
0000
,
1000
0000
0001
0000
,
1000
0000
0001
0000
,
0100
0100
0100
0000
,
0010
0010
0010
0000
,
0001
0000
1000
0000
,
0001
0000
1000
0000
,
0010
0010
0010
0000
,
0100
0100
0100
0000
,
0000
0010
0000
0010
,
0000
0100
0000
0100
,
0000
0001
0000
1000
,
0000
0001
0000
2002
,
0000
0000
0000
0000
,
3003
0000
0000
0000
;

//---------------dance-single - ----------------
#NOTES:
     dance-single:
     :
     Easy:
     5:
     0.230584,0.305367,0.095973,0.095973,0.000000,185.000000,174.000000,11.000000,11.000000,0.000000,0.000000,0.230584,0.305367,0.095973,0.095973,0.000000,185.000000,174.000000,11.000000,11.000000,0.000000,0.000000:
0000
0000
0000
0000
,
0000
0000
0000
0000
,
0000
0000
0000
0000
,
0000
0000
0000
0000
,
0000
0000
0000
0000
,
2000
3000
0010
0100
,
0002
0003
0100
0010
,
1000
0001
1000
0000
,
0001
0000
1000
1001
,
0100
0010
0000
0010
,
1000
0001
0000
0001
,
1000
0010
0000
0010
,
0100
0001
0000
0001
,
1000
0010
0000
0100
,
0001
0100
0000
0010
,
1000
0001
0000
1000
,
0020
0000
0030
0000
,
0001
0100
0001
0000
,
1000
0010
1000
0000
,
0001
0100
1000
0000
,
1000
0100
0001
0000
,
0100
0100
0010
0000
,
0010
0010
0100
0000
,
1000
0000
0001
0000
,
2002
0000
3003
0000
,
0001
0000
1000
0000
,
0010
0000
0100
0000
,
0001
1000
0001
1000
,
0002
0000
0103
0000
,
1000
0000
0010
0000
,
0100
0000
0001
0000
,
1000
0001
1000
0001
,
0200
0000
0310
0000
,
0010
1000
0010
1000
,
0000
1001
0000
1001
,
0000
0001
1000
0010
,
0200
0000
0300
0000
,
0010
1000
0000
0001
,
0000
1000
0100
0010
,
0000
0100
0010
1000
,
0002
0000
0003
0000
,
1000
0001
1000
0000
,
0001
1000
0001
0000
,
0010
0100
0010
0000
,
0100
0010
0100
0000
,
1000
0000
0000
0100
0000
0000
0001
0000
,
0000
0010
0000
0000
1000
0000
0001
0000
,
0100
0010
0100
0010
,
1000
0001
1001
0000
,
1000
0000
0001
0000
,
1000
0100
0010
0000
,
0001
0000
1000
0000
,
0001
0010
0100
0000
,
1000
0000
0010
0000
,
0100
0010
1001
0000
,
0010
0000
0100
0000
,
0010
0000
0000
1001
0000
0000
1001
0000
,
1000
0000
0001
0000
,
1000
0100
0010
0001
,
0100
0100
0100
0000
,
0010
0000
0000
1001
0000
0000
0100
0000
,
0001
0000
1000
0100
,
0010
0001
1000
0000
,
0010
0010
0010
0000
,
0100
0000
0000
1001
0000
0000
0010
0000
,
0000
0010
0000
0010
,
0000
0100
0000
0100
,
0000
0001
0100
1000
,
0100
0001
0000
2002
,
0000
0000
0000
0000
,
3003
0000
0000
0000
;

//---------------dance-double - ----------------
#NOTES:
     dance-double:
     :
     Easy:
     5:
     0.233076,0.305367,0.052349,0.174496,0.000000,187.000000,181.000000,6.000000,20.000000,0.000000,0.000000,0.233076,0.305367,0.052349,0.174496,0.000000,187.000000,181.000000,6.000000,20.000000,0.000000,0.000000:
00000000
00000000
00000000
00000000
,
00000000
00000000
00000000
00000000
,
00000000
00000000
00000000
00000000
,
00000000
00000000
00000000
00000000
,
00000000
00000000
00000000
00000000
,
00200000
00300000
00010000
00000000
,
20000000
30000000
00020000
00030000
,
00100000
00000000
00001000
00000000
,
00010000
00000000
00000000
00001000
00000000
00000000
00000100
00000000
,
00001000
00000001
00000000
00000001
,
00001000
00000100
00000000
00010000
,
00001000
00100000
00000000
01000000
,
00000000
00001000
00010000
00000100
,
00001000
00000001
00000000
00000100
,
00010000
00001000
00000000
00100000
,
00010000
10000000
00000000
01000000
,
00200000
00000000
00000000
10300000
,
00010000
00100000
00000000
00001000
,
00010000
00001000
00000000
00000100
,
00001000
00000010
00000000
00000100
,
00000010
00000000
00001000
00000000
,
00000100
00000100
00000000
00010000
,
00001000
00100000
00000000
00010000
,
01000000
00100000
20020000
30030000
,
00100000
00000000
01000000
00000000
,
00020000
00030000
20000000
30000000
,
00100000
01000000
00100000
00000000
,
00010000
00000000
00100000
00000000
00001000
00000000
00000000
00002000
,
00000000
00003000
00000000
00020000
00000000
00030000
00000000
00000000
,
00001000
00000000
00000010
00000100
,
00000001
00000000
00001000
00000000
,
00000200
00000300
00010000
00001000
,
02000000
00000000
03000000
00000000
,
00100000
10000000
00000000
10000000
,
00010000
01000000
00100000
10000000
,
00010000
01000000
00000000
20020000
,
00000000
00000000
30030000
00000000
,
00100000
00001000
00000000
00010000
,
00000100
00001000
00000000
00000010
,
00001000
00000100
00010000
00001000
,
00010000
00002000
00003000
00000000
,
00010000
00000000
00000100
00000000
,
00001000
00000100
00000010
00000001
,
00001000
00000000
00000100
00000000
,
00010000
00001000
02000000
03000000
,
00100000
00000000
00000000
10000000
00000000
00000000
01000000
00000000
,
00000000
00010000
00000000
00000000
00100000
00000000
00001000
00000000
,
00010000
00000100
00001000
00000001
,
00000100
00000220
00000330
00000000
,
00000001
00000000
00001000
00000000
,
00000100
00010000
00001000
00100000
,
00010000
00000000
10000000
00000000
,
00100000
00000000
00000000
01000000
00000000
00000000
00001000
00000000
,
00010000
00000000
00000100
00001000
,
00000001
00000001
00001000
00001000
,
00000010
00000000
00000100
00000000
,
00001000
00000000
00000000
00000100
00000000
00000000
00010000
00000000
,
00001000
00000000
00100000
00010000
,
01000000
10000000
01000000
00010000
,
00100000
00001000
00010000
00000000
,
00000100
00000000
00000000
00001001
00000000
00000000
00000010
00000000
,
00001000
00000100
00010000
00001000
,
00100000
00010000
01000000
00000000
,
00100000
00001000
00010000
00000000
,
00010000
00000000
00000000
00001000
00000000
00000000
00011000
00000000
,
00000000
00010000
00000000
00000100
,
00001000
00000100
00000010
00000001
,
00001000
00000100
00010000
00001000
,
00100000
00001000
00010000
00022000
,
00000000
00000000
00000000
00000000
,
00033000
00000000
00000000
00000000
;
